osu file format v10

[General]
AudioFilename: Try-Angle.mp3
AudioLeadIn: 0
PreviewTime: 114070
Countdown: 0
SampleSet: Soft
StackLeniency: 0.7
Mode: 0
LetterboxInBreaks: 1

[Editor]
Bookmarks: 255570
DistanceSpacing: 1
BeatDivisor: 4
GridSize: 4

[Metadata]
Title:Otomegami Try-Angle
TitleUnicode:乙女髪 Try-Angle
Artist:Chata
ArtistUnicode:茶太
Creator:hoLysoup
Version:Normal
Source:Hatsukoi 1/1
Tags:yukino morino tone work's
BeatmapID:188642
BeatmapSetID:63631

[Difficulty]
HPDrainRate:4
CircleSize:3
OverallDifficulty:4
ApproachRate:5
SliderMultiplier:1.2
SliderTickRate:1

[Events]
//Background and Video events
0,0,"wee.jpg"
//Break Periods
2,154570,167370
//Storyboard Layer 0 (Background)
//Storyboard Layer 1 (Fail)
//Storyboard Layer 2 (Pass)
//Storyboard Layer 3 (Foreground)
//Storyboard Sound Samples
//Background Colour Transformations
3,100,163,162,255

[TimingPoints]
570,500,4,1,0,100,1,0
28070,-100,4,1,1,50,0,0
32820,-100,4,2,1,60,0,0
48945,-100,4,2,1,50,0,0
49195,-100,4,2,1,60,0,0
52445,-100,4,2,1,40,0,0
52695,-100,4,2,1,60,0,0
54445,-100,4,2,1,40,0,0
54695,-100,4,2,1,60,0,0
58445,-100,4,2,1,40,0,0
58695,-100,4,2,1,60,0,0
62445,-100,4,2,1,40,0,0
62695,-100,4,2,1,60,0,0
68445,-100,4,2,1,40,0,0
68695,-100,4,2,1,60,0,0
70445,-100,4,2,1,40,0,0
70695,-100,4,2,1,60,0,0
72445,-100,4,2,1,40,0,0
72695,-100,4,2,1,60,0,0
73445,-100,4,2,1,40,0,0
73695,-100,4,2,1,60,0,0
74445,-100,4,2,1,40,0,0
74695,-100,4,2,1,60,0,0
78445,-100,4,2,1,40,0,0
78695,-100,4,2,1,60,0,0
80445,-100,4,2,1,40,0,0
80695,-100,4,2,1,60,0,0
84445,-100,4,2,1,40,0,0
84695,-100,4,2,1,60,0,0
86445,-100,4,2,1,40,0,0
86695,-100,4,2,1,60,0,0
88445,-100,4,2,1,40,0,0
88695,-100,4,2,1,60,0,0
90445,-100,4,2,1,40,0,0
90695,-100,4,2,1,60,0,0
92445,-100,4,2,1,40,0,0
92695,-100,4,2,1,60,0,0
94445,-100,4,2,1,40,0,0
94695,-100,4,2,1,60,0,0
96445,-100,4,2,1,40,0,0
96695,-100,4,2,1,60,0,0
100445,-100,4,2,1,40,0,0
100695,-100,4,2,1,60,0,0
102445,-100,4,2,1,40,0,0
102695,-100,4,2,1,60,0,0
103195,-100,4,2,1,40,0,0
103445,-100,4,2,1,60,0,0
104445,-100,4,2,1,40,0,0
104695,-100,4,2,1,60,0,0
105195,-100,4,2,1,40,0,0
105445,-100,4,2,1,60,0,0
114570,-100,4,2,1,70,0,1
116445,-100,4,2,1,50,0,1
116695,-100,4,2,1,70,0,1
118445,-100,4,2,1,50,0,1
118695,-100,4,2,1,70,0,1
120445,-100,4,2,1,50,0,1
120695,-100,4,2,1,70,0,1
122445,-100,4,2,1,50,0,1
122695,-100,4,2,1,70,0,1
124195,-100,4,2,1,50,0,1
124445,-100,4,2,1,70,0,1
126445,-100,4,2,1,50,0,1
126695,-100,4,2,1,70,0,1
128195,-100,4,2,1,50,0,1
128820,-100,4,2,1,70,0,1
132445,-100,4,2,1,50,0,1
132695,-100,4,2,1,70,0,1
134445,-100,4,2,1,50,0,1
134695,-100,4,2,1,70,0,1
136445,-100,4,2,1,50,0,1
136695,-100,4,2,1,70,0,1
138445,-100,4,2,1,50,0,1
138695,-100,4,2,1,70,0,1
140195,-100,4,2,1,50,0,1
140445,-100,4,2,1,70,0,1
142445,-100,4,2,1,50,0,1
142695,-100,4,2,1,70,0,1
144445,-100,4,2,1,50,0,1
144695,-100,4,2,1,70,0,1
150445,-100,4,2,1,50,0,1
150695,-100,4,2,1,70,0,1
152570,-100,4,2,1,60,0,0
172445,-100,4,2,1,40,0,0
172695,-100,4,2,1,60,0,0
173195,-100,4,2,1,40,0,0
173445,-100,4,2,1,60,0,0
174445,-100,4,2,1,40,0,0
174695,-100,4,2,1,60,0,0
178445,-100,4,2,1,40,0,0
178695,-100,4,2,1,60,0,0
182445,-100,4,2,1,40,0,0
182695,-100,4,2,1,60,0,0
188445,-100,4,2,1,40,0,0
188695,-100,4,2,1,60,0,0
190445,-100,4,2,1,40,0,0
190695,-100,4,2,1,60,0,0
192445,-100,4,2,1,40,0,0
192695,-100,4,2,1,60,0,0
193445,-100,4,2,1,40,0,0
193695,-100,4,2,1,60,0,0
194445,-100,4,2,1,40,0,0
194695,-100,4,2,1,60,0,0
198445,-100,4,2,1,40,0,0
198695,-100,4,2,1,60,0,0
199195,-100,4,2,1,40,0,0
199445,-100,4,2,1,60,0,0
200445,-100,4,2,1,40,0,0
200695,-100,4,2,1,60,0,0
201195,-100,4,2,1,40,0,0
201445,-100,4,2,1,60,0,0
202445,-100,4,2,1,40,0,0
202695,-100,4,2,1,60,0,0
204445,-100,4,2,1,40,0,0
204695,-100,4,2,1,60,0,0
206445,-100,4,2,1,40,0,0
206695,-100,4,2,1,60,0,0
208445,-100,4,2,1,40,0,0
208695,-100,4,2,1,60,0,0
210445,-100,4,2,1,40,0,0
210695,-100,4,2,1,60,0,0
211195,-100,4,2,1,40,0,0
211445,-100,4,2,1,60,0,0
212445,-100,4,2,1,40,0,0
212695,-100,4,2,1,60,0,0
213195,-100,4,2,1,40,0,0
213445,-100,4,2,1,60,0,0
214445,-100,4,2,1,40,0,0
214695,-100,4,2,1,60,0,0
216445,-100,4,2,1,40,0,0
216695,-100,4,2,1,60,0,0
218445,-100,4,2,1,40,0,0
218695,-100,4,2,1,60,0,0
220445,-100,4,2,1,40,0,0
220695,-100,4,2,1,60,0,0
222445,-100,4,2,1,40,0,0
222695,-100,4,2,1,60,0,0
224445,-100,4,2,1,40,0,0
224695,-100,4,2,1,60,0,0
225195,-100,4,2,1,40,0,0
225445,-100,4,2,1,60,0,0
228195,-100,4,2,1,40,0,0
228445,-100,4,2,1,60,0,0
230445,-100,4,2,1,40,0,0
230695,-100,4,2,1,60,0,0
234570,-100,4,2,1,70,0,1
236445,-100,4,2,1,50,0,1
236695,-100,4,2,1,70,0,1
238445,-100,4,2,1,50,0,1
238695,-100,4,2,1,70,0,1
240445,-100,4,2,1,50,0,1
240695,-100,4,2,1,70,0,1
242445,-100,4,2,1,50,0,1
242695,-100,4,2,1,70,0,1
244195,-100,4,2,1,50,0,1
244445,-100,4,2,1,70,0,1
246445,-100,4,2,1,50,0,1
246695,-100,4,2,1,70,0,1
248195,-100,4,2,1,50,0,1
248695,-100,4,2,1,70,0,1
252445,-100,4,2,1,50,0,1
252695,-100,4,2,1,70,0,1
254445,-100,4,2,1,50,0,1
254695,-100,4,2,1,70,0,1
256445,-100,4,2,1,50,0,1
256695,-100,4,2,1,70,0,1
258445,-100,4,2,1,50,0,1
258695,-100,4,2,1,70,0,1
260195,-100,4,2,1,50,0,1
260445,-100,4,2,1,70,0,1
262445,-100,4,2,1,50,0,1
262695,-100,4,2,1,70,0,1
263195,-100,4,2,1,50,0,1
263445,-100,4,2,1,70,0,1
270445,-100,4,2,1,50,0,1
270695,-100,4,2,1,70,0,1
272570,-100,4,2,1,70,0,0

[Colours]
Combo1 : 248,211,171
Combo2 : 172,251,202
Combo3 : 175,210,254
Combo4 : 249,244,187
Combo5 : 240,81,81
SliderBorder : 255,255,255

[HitObjects]
256,192,28570,1,0,1:0:0
256,192,29570,5,0,1:0:0
256,192,30570,6,0,B|400:192,1,120,0|0,1:0|0:0,0:0:0
424,80,31570,2,0,B|280:80,1,120
184,36,32570,6,0,B|104:60|104:204|184:228,1,240,0|0,1:0|1:0,0:0:0
256,132,34070,1,8,0:0:0
328,36,34570,2,0,B|408:60|408:204|328:228,1,240,0|0,1:0|1:0,0:0:0
256,132,36070,1,8,0:0:0
181,227,36570,6,0,B|56:228,1,120,0|8,1:0|0:0,0:0:0
136,324,37570,2,0,B|261:323,1,120,0|8,1:0|0:0,0:0:0
330,227,38570,2,0,B|456:228,1,120,0|8,1:0|0:0,0:0:0
376,324,39570,2,0,B|256:323,1,120,0|8,1:0|0:0,0:0:0
256,204,40570,6,0,B|268:144|244:144|256:80,2,120,0|8|0,1:0|0:0|1:0,0:0:0
316,308,42070,1,8,0:0:0
316,308,42570,2,0,B|376:320|376:296|440:308,2,120,0|8|0,1:0|0:0|1:0,0:0:0
196,308,44070,1,8,0:0:0
196,308,44570,6,0,B|136:320|136:296|72:308,2,120,0|8|0,1:0|0:0|1:0,0:0:0
256,204,46070,2,0,B|256:132,1,60,8|0,0:0|1:0,0:0:0
452,60,47070,6,8,B|400:176|456:296,1,240
336,296,48570,2,0,B|208:296,1,120,4|4,0:0|0:0,0:0:0
256,80,50570,5,2,0:0:0
176,168,51070,2,0,B|56:168,2,120,8|0|8,0:0|0:0|0:0,0:0:0
196,288,52570,2,0,B|256:304|316:288,1,120,0|8,1:0|0:0,0:0:0
336,168,53570,2,0,B|456:168,2,120,0|8|0,0:0|0:0|1:0,0:0:0
376,56,55070,6,8,B|256:88|136:56,1,240
140,176,56570,2,0,B|160:236|152:300,1,120,0|8,0:0|0:0,0:0:0
256,236,57570,2,0,B|256:112,2,120,0|8|0,0:0|0:0|1:0,0:0:0
372,208,59070,5,8,0:0:0
404,156,59320,2,0,B|372:52|276:40,1,180,0|8,0:0|0:0,0:0:0
231,40,60320,2,0,B|140:52|108:156,1,180,0|8,0:0|0:0,0:0:0
172,256,61570,2,0,B|292:256,1,120,0|8,0:0|0:0,0:0:0
364,160,62570,6,0,B|444:184|444:328|364:352,1,240,0|0,1:0|0:0,0:0:0
256,324,64070,1,8,0:0:0
140,348,64570,2,0,B|16:348,2,120,2|10|2,0:0|0:0|0:0,0:0:0
256,324,66070,2,0,B|244:264|264:264|256:204,1,120,10|4,0:0|0:0,0:0:0
196,100,67070,6,0,B|136:76|78:98,2,120,8|0|8,0:0|0:0|0:0,0:0:0
316,100,68570,2,0,B|376:76|436:100,2,120,0|8|0,1:0|0:0|0:0,0:0:0
376,204,70070,6,0,B|392:268|364:328,1,120,8|0,0:0|1:0,0:0:0
256,272,71070,2,0,B|256:144,2,120,8|0|8,0:0|0:0|0:0,0:0:0
145,321,72570,2,0,B|120:268|136:204,1,120,0|8,1:0|0:0,0:0:0
256,192,73570,2,0,B|268:124|244:124|256:68,2,120,0|8|0,1:0|0:0|1:0,0:0:0
160,264,75070,6,0,B|183:341|327:341|351:261,2,240,8|8|8,0:0|0:0|0:0,0:0:0
256,192,77570,2,0,B|256:64,1,120,0|8,0:0|0:0,0:0:0
376,52,78570,6,0,B|428:80|452:144,1,120,0|8,1:0|0:0,0:0:0
392,248,79570,2,0,B|340:220|316:156,1,120,0|8,0:0|0:0,0:0:0
195,157,80570,2,0,B|172:220|120:248,1,120,0|8,1:0|0:0,0:0:0
60,142,81570,2,0,B|84:80|136:52,1,120,8|0,0:0|1:0,0:0:0
256,52,82570,5,4,0:0:0
376,52,83070,2,0,B|424:96|400:168,1,120,8|0,0:0|0:0,0:0:0
312,244,84070,2,0,B|312:316,2,60,8|0|0,0:0|0:0|1:0,0:0:0
288,124,85070,2,0,B|236:84|172:88,1,120,8|0,0:0|0:0,0:0:0
88,168,86070,2,0,B|20:168,2,60,8|0|0,0:0|0:0|1:0,0:0:0
180,244,87070,5,8,0:0:0
256,152,87570,1,0,0:0:0
166,71,88070,2,0,B|108:48,2,60,8|0|0,0:0|0:0|1:0,0:0:0
256,152,89070,2,0,B|377:152,2,120,8|0|8,0:0|0:0|0:0,0:0:0
256,32,90570,5,4,0:0:0
168,116,91070,2,0,B|148:176|172:240,1,120,8|0,0:0|0:0,0:0:0
256,316,92070,2,0,B|256:380,2,60,8|0|0,0:0|0:0|1:0,0:0:0
342,233,93070,2,0,B|364:176|344:116,1,120,8|0,0:0|0:0,0:0:0
256,36,94070,2,0,B|256:96,2,60,8|0|0,0:0|0:0|1:0,0:0:0
140,68,95070,6,8,B|208:94|124:256|196:296,1,240
256,192,96570,2,0,B|256:72,2,120,0|8|0,1:0|0:0|0:0,0:0:0
323,290,98070,2,8,B|388:256|303:94|372:68,1,240
488,68,99570,6,0,B|508:128|488:192,1,120,0|8,0:0|0:0,0:0:0
448,228,100320,1,0,0:0:0
392,208,100570,2,0,B|332:192|272:208,1,120,0|8,1:0|0:0,0:0:0
168,264,101570,2,0,B|136:212|136:148,1,120,0|8,0:0|0:0,0:0:0
168,100,102320,1,0,0:0:0
220,68,102570,6,0,B|280:76|348:64,1,120,0|8,1:0|0:0,0:0:0
400,56,103320,2,0,B|448:76|472:160|436:224,1,180,0|8,1:0|0:0,0:0:0
376,316,104570,2,0,B|256:316,1,120,0|8,1:0|0:0,0:0:0
196,316,105320,2,0,B|168:256|192:196,1,120,0|8,1:0|0:0,0:0:0
312,196,106320,6,0,B|334:139|306:79,1,120,2|0,0:0|0:0,0:0:0
256,48,107070,1,8,0:0:0
208,84,107320,2,0,B|120:100|24:84,1,180,0|8,0:0|0:0,0:0:0
92,188,108570,2,0,B|148:176|212:180,1,120,0|8,0:0|0:0,0:0:0
212,300,109570,2,0,B|272:312|332:296,2,120,0|8|2,0:0|0:0|0:0,0:0:0
256,192,110820,12,8,113570,0:0:0
256,192,114570,6,0,B|248:252|264:252|256:312,2,120,4|8|0,0:0|0:0|0:0,0:0:0
316,88,116070,2,0,B|372:116|380:196,2,120,8|0|8,0:0|1:0|0:0,0:0:0
196,88,117570,1,0,0:0:0
136,192,118070,1,8,0:0:0
256,192,118570,6,0,B|384:192,2,120,0|8|0,1:0|0:0|0:0,0:0:0
136,192,120070,2,0,B|68:192,2,60,8|0|0,0:0|0:0|1:0,0:0:0
172,240,120820,1,0,0:0:0
232,244,121070,2,0,B|296:248|344:200,2,120,8|0|8,0:0|0:0|0:0,0:0:0
256,128,122570,6,0,B|192:120|136:144,2,120,0|8|0,1:0|0:0|0:0,0:0:0
372,96,124070,1,8,0:0:0
420,132,124320,2,0,B|452:188|440:256,1,120,0|0,1:0|0:0,0:0:0
400,292,125070,2,0,B|340:300|276:292,2,120,8|0|8,0:0|0:0|0:0,0:0:0
332,192,126570,6,0,B|364:100|324:16,2,180,0|0|0,1:0|0:0|0:0,0:0:0
232,124,128570,2,0,B|200:216|240:300,2,180,0|0|0,1:0|0:0|0:0,0:0:0
140,48,130570,6,0,B|152:108|128:172,1,120,4|8,0:0|0:0,0:0:0
44,248,131570,2,0,B|64:304|128:328,1,120,0|8,0:0|0:0,0:0:0
180,300,132320,1,0,0:0:0
240,288,132570,2,0,B|368:288,2,120,0|8|0,1:0|0:0|0:0,0:0:0
168,192,134070,1,8,0:0:0
240,96,134570,6,0,B|368:96,1,120,0|8,1:0|0:0,0:0:0
436,192,135570,2,0,B|448:252|416:312,1,120,0|8,0:0|0:0,0:0:0
364,332,136320,1,0,0:0:0
312,304,136570,2,0,B|256:280|192:288,2,120,0|8|0,1:0|0:0|0:0,0:0:0
356,192,138070,1,8,0:0:0
316,80,138570,6,0,B|256:60|196:80,1,120,0|8,1:0|0:0,0:0:0
116,168,139570,2,0,B|156:212|160:280,1,120,0|8,0:0|0:0,0:0:0
200,320,140320,2,0,B|256:356|316:320,1,120,0|0,1:0|0:0,0:0:0
352,277,141070,2,0,B|356:212|396:168,2,120,8|0|8,0:0|0:0|0:0,0:0:0
256,204,142570,6,0,B|256:80,2,120,0|8|0,1:0|0:0|0:0,0:0:0
196,308,144070,2,0,B|140:276|136:200,2,120,8|0|8,0:0|1:0|0:0,0:0:0
316,308,145570,2,0,B|372:276|376:200,1,120,2|10,0:0|0:0,0:0:0
364,88,146570,6,0,P|252:44|144:84,1,240,2|0,0:0|0:0,0:0:0
196,196,148070,2,0,B|168:252|100:260,2,120,8|0|8,0:0|0:0|0:0,0:0:0
316,196,149570,2,0,B|344:252|412:260,2,120,0|8|0,0:0|0:0|1:0,0:0:0
256,192,150820,12,8,152570,0:0:0
256,256,168570,5,4,0:0:0
256,256,169070,1,2,0:0:0
256,168,170570,6,0,B|264:108|248:108|256:48,2,120,0|8|0,0:0|0:0|0:0,0:0:0
160,240,172070,2,0,B|156:174|116:130,2,120,8|0|8,0:0|1:0|0:0,0:0:0
200,282,173320,2,0,B|256:318|316:282,1,120,0|0,1:0|0:0,0:0:0
352,240,174070,2,0,B|355:174|395:130,1,120,8|0,0:0|1:0,0:0:0
312,44,175070,6,0,B|256:72|196:44,2,120,8|0|8,0:0|0:0|0:0,0:0:0
372,48,176320,2,0,B|408:104|376:168,1,120
340,208,177070,1,8,0:0:0
220,212,177570,2,0,P|220:256|176:288|176:336,2,120,0|8|0,0:0|0:0|1:0,0:0:0
188,88,179070,5,8,0:0:0
248,88,179320,2,0,B|344:92|404:168,1,180,0|8,0:0|0:0,0:0:0
403,217,180320,2,0,B|344:292|248:296,1,180,0|8,0:0|0:0,0:0:0
216,244,181320,1,0,0:0:0
156,248,181570,6,0,B|96:232|32:248,1,120,0|8,0:0|0:0,0:0:0
36,128,182570,2,0,B|96:144|160:128,1,120,0|8,1:0|0:0,0:0:0
204,100,183320,2,0,B|188:160|208:224,1,120
268,220,184070,1,8,0:0:0
340,124,184570,6,0,B|400:108|464:124,2,120,2|10|2,0:0|0:0|0:0,0:0:0
368,180,185820,2,0,B|380:240|368:308,1,120,2|0,0:0|0:0,0:0:0
308,300,186570,1,4,0:0:0
188,300,187070,6,0,B|132:320|68:300,2,120,8|0|8,0:0|0:0|0:0,0:0:0
144,188,188570,2,0,B|120:128|144:68,1,120,0|8,1:0|0:0,0:0:0
196,48,189320,2,0,B|256:36|316:52,1,120
369,70,190070,2,0,B|392:128|368:188,1,120,8|0,0:0|1:0,0:0:0
256,228,191070,6,0,B|248:168|264:168|256:104,2,120,8|0|8,0:0|0:0|0:0,0:0:0
304,264,192320,1,0,0:0:0
364,276,192570,2,0,B|436:264|448:196,2,120,0|8|0,1:0|0:0|1:0,0:0:0
256,332,194070,2,0,B|136:332,1,120,8|0,0:0|1:0,0:0:0
112,216,195070,5,8,0:0:0
112,156,195320,2,0,B|144:60|236:20,1,180,0|8,0:0|0:0,0:0:0
288,24,196320,2,0,B|370:59|402:155,1,180,0|8,0:0|0:0,0:0:0
372,204,197320,1,0,0:0:0
316,228,197570,6,0,B|288:292|320:348,1,120,0|8,0:0|0:0,0:0:0
196,344,198570,2,0,B|225:292|197:228,1,120,0|8,1:0|0:0,0:0:0
208,168,199320,2,0,B|156:204|68:176,1,120,0|0,1:0|0:0,0:0:0
44,144,200070,1,8,0:0:0
132,60,200570,6,0,B|183:30|247:58,1,120,0|8,1:0|0:0,0:0:0
308,48,201320,2,0,B|272:100|300:188,1,120,0|0,1:0|0:0,0:0:0
332,212,202070,1,8,0:0:0
412,300,202570,6,0,B|360:336|288:324,1,120,0|8,1:0|0:0,0:0:0
248,292,203320,2,0,B|156:260|72:292,1,180,0|8,0:0|0:0,0:0:0
64,172,204570,2,0,B|80:112|144:80,1,120,0|8,1:0|0:0,0:0:0
196,104,205320,2,0,B|276:136|384:100,1,180,0|8,0:0|0:0,0:0:0
428,204,206570,6,0,B|452:264|440:328,1,120,0|8,1:0|0:0,0:0:0
328,368,207570,2,0,B|304:308|316:244,1,120,0|8,0:0|0:0,0:0:0
196,252,208570,2,0,B|206:309|182:369,1,120,0|8,1:0|0:0,0:0:0
70,321,209570,2,0,B|60:264|84:204,1,120,0|8,0:0|0:0,0:0:0
164,112,210570,6,0,B|224:96|256:36,1,120,0|8,1:0|0:0,0:0:0
316,40,211320,2,0,B|408:60|456:160,1,180,0|8,1:0|0:0,0:0:0
428,268,212570,2,0,B|416:340|352:360,1,120,0|8,1:0|0:0,0:0:0
300,348,213320,2,0,B|208:300|212:200,1,180,0|8,1:0|0:0,0:0:0
320,152,214570,6,0,B|448:152,2,120,0|8|0,1:0|0:0|0:0,0:0:0
256,52,216070,1,8,0:0:0
224,104,216320,1,0,0:0:0
192,152,216570,2,0,B|64:152,2,120,0|8|0,1:0|0:0|0:0,0:0:0
296,208,218070,1,8,0:0:0
328,260,218320,1,0,0:0:0
360,308,218570,6,0,B|488:308,2,120,0|8|0,1:0|0:0|0:0,0:0:0
256,248,220070,1,8,0:0:0
176,316,220570,2,0,B|120:348|48:340,2,120,0|8|0,1:0|0:0|0:0,0:0:0
116,212,222070,5,8,0:0:0
208,148,222570,2,0,B|268:164|336:132,2,120,0|8|0,1:0|0:0|0:0,0:0:0
256,260,224070,5,8,0:0:0
304,296,224320,1,0,0:0:0
364,304,224570,2,0,B|424:272|440:208,1,120,0|8,1:0|0:0,0:0:0
400,168,225320,2,0,B|340:144|312:76,1,120,0|0,1:0|0:0,0:0:0
195,86,226320,6,0,B|172:144|112:168,1,120,0|0,1:0|0:0,0:0:0
56,192,227070,1,8,0:0:0
112,216,227320,2,0,B|172:240|195:297,1,120
256,300,228070,1,8,0:0:0
316,297,228320,2,0,B|340:240|400:216,1,120,0|0,1:0|0:0,0:0:0
396,156,229070,1,8,0:0:0
296,92,229570,6,0,B|296:24,2,60,0|0|8,0:0|0:0|0:0,0:0:0
240,112,230320,2,0,B|240:176,1,60,0|0,0:0|1:0,0:0:0
256,192,230820,12,8,233570,0:0:0
340,344,234570,6,0,B|328:284|352:220,1,120,4|8,0:0|0:0,0:0:0
436,144,235570,2,0,B|416:88|352:64,1,120,0|8,0:0|0:0,0:0:0
300,92,236320,1,0,0:0:0
240,104,236570,2,0,B|112:104,2,120,0|8|0,1:0|0:0|0:0,0:0:0
312,200,238070,1,8,0:0:0
240,296,238570,6,0,B|112:296,1,120,0|8,1:0|0:0,0:0:0
44,200,239570,2,0,B|32:140|64:80,1,120,0|8,0:0|0:0,0:0:0
116,60,240320,1,0,0:0:0
168,88,240570,2,0,B|224:112|288:104,2,120,0|8|0,1:0|0:0|0:0,0:0:0
124,200,242070,1,8,0:0:0
164,312,242570,6,0,B|224:332|284:312,1,120,0|8,1:0|0:0,0:0:0
352,216,243570,2,0,B|332:156|348:96,1,120,0|8,0:0|0:0,0:0:0
312,48,244320,2,0,B|256:72|192:48,1,120,0|0,1:0|0:0,0:0:0
164,97,245070,2,0,B|180:156|160:216,2,120,8|0|8,0:0|0:0|0:0,0:0:0
256,176,246570,6,0,B|272:268|240:276|256:364,2,180,0|0|0,1:0|0:0|0:0,0:0:0
356,240,248570,2,0,B|340:148|372:140|356:52,2,180,0|0|0,1:0|0:0|0:0,0:0:0
260,316,250570,6,0,B|272:256|248:192,1,120,4|8,0:0|0:0,0:0:0
164,116,251570,2,0,B|184:60|248:36,1,120,0|8,0:0|0:0,0:0:0
300,64,252320,1,0,0:0:0
360,76,252570,2,0,B|420:96|488:76,2,120,0|8|0,1:0|0:0|0:0,0:0:0
288,172,254070,1,8,0:0:0
188,108,254570,6,0,B|60:108,1,120,0|8,1:0|0:0,0:0:0
48,228,255570,2,0,B|36:288|68:348,1,120,0|8,0:0|0:0,0:0:0
120,368,256320,1,0,0:0:0
172,340,256570,2,0,B|228:316|292:324,2,120,0|8|0,1:0|0:0|0:0,0:0:0
128,228,258070,1,8,0:0:0
200,132,258570,6,0,B|256:104|320:132,1,120,0|8,1:0|0:0,0:0:0
408,208,259570,2,0,B|368:328,1,120,0|8,0:0|0:0,0:0:0
316,332,260320,2,0,B|256:320|256:320|192:336,1,120,0|0,1:0|0:0,0:0:0
141,321,261070,2,0,B|104:208,2,120,8|0|8,0:0|0:0|0:0,0:0:0
200,216,262570,6,0,B|164:164|176:96,1,120,0|8,1:0|0:0,0:0:0
196,44,263320,2,0,B|320:44,1,120,0|0,1:0|0:0,0:0:0
336,101,264070,2,0,B|348:164|312:216,2,120,8|0|8,0:0|0:0|0:0,0:0:0
432,176,265570,2,0,B|444:300,1,120,2|10,0:0|0:0,0:0:0
332,336,266570,6,0,B|272:360|212:340,1,120,2|8,0:0|0:0,0:0:0
168,304,267320,2,0,B|132:252|152:184,1,120
180,136,268070,2,0,B|232:104|296:120,1,120,8|0,0:0|0:0,0:0:0
376,208,269070,5,8,0:0:0
356,264,269320,2,0,B|300:300|232:284,1,120
196,248,270070,1,8,0:0:0
256,144,270570,2,0,B|348:128|356:160|444:144,2,180,0|0|0,1:0|0:0|0:0,0:0:0
144,188,272570,6,0,B|152:260|200:288,1,120,0|8,1:0|0:0,0:0:0
256,264,273320,1,0,0:0:0
312,288,273570,2,0,B|360:260|368:188,2,120,0|8|4,0:0|0:0|0:0,0:0:0
