osu file format v10

[General]
AudioFilename: Try-Angle.mp3
AudioLeadIn: 0
PreviewTime: 114070
Countdown: 0
SampleSet: Soft
StackLeniency: 0.7
Mode: 0
LetterboxInBreaks: 1

[Editor]
DistanceSpacing: 1
BeatDivisor: 4
GridSize: 4

[Metadata]
Title:Otomegami Try-Angle
TitleUnicode:乙女髪 Try-Angle
Artist:Chata
ArtistUnicode:茶太
Creator:hoLysoup
Version:Insane
Source:Hatsukoi 1/1
Tags:yukino morino tone work's
BeatmapID:187882
BeatmapSetID:63631

[Difficulty]
HPDrainRate:7
CircleSize:4
OverallDifficulty:7
ApproachRate:8
SliderMultiplier:1.8
SliderTickRate:2

[Events]
//Background and Video events
0,0,"wee.jpg"
//Break Periods
2,154770,167820
//Storyboard Layer 0 (Background)
//Storyboard Layer 1 (Fail)
//Storyboard Layer 2 (Pass)
//Storyboard Layer 3 (Foreground)
//Storyboard Sound Samples
//Background Colour Transformations
3,100,163,162,255

[TimingPoints]
570,500,4,1,0,100,1,0
28070,-100,4,1,1,50,0,0
32820,-100,4,2,1,60,0,0
52570,-100,4,2,1,40,0,0
52695,-100,4,2,1,60,0,0
54445,-100,4,2,1,40,0,0
54695,-100,4,2,1,60,0,0
60445,-100,4,2,1,40,0,0
60695,-100,4,2,1,60,0,0
62445,-100,4,2,1,40,0,0
62695,-100,4,2,1,60,0,0
66570,-100,4,2,1,55,0,0
66695,-100,4,2,1,60,0,0
68445,-100,4,2,1,40,0,0
68695,-100,4,2,1,60,0,0
70445,-100,4,2,1,40,0,0
70695,-100,4,2,1,60,0,0
72445,-100,4,2,1,40,0,0
72695,-100,4,2,1,60,0,0
73445,-100,4,2,1,40,0,0
73695,-100,4,2,1,60,0,0
74507,-100,4,2,1,40,0,0
74695,-100,4,2,1,60,0,0
78445,-100,4,2,1,40,0,0
78695,-100,4,2,1,60,0,0
79195,-100,4,2,1,40,0,0
79445,-100,4,2,1,60,0,0
80445,-100,4,2,1,40,0,0
80695,-100,4,2,1,60,0,0
81195,-100,4,2,1,40,0,0
81445,-100,4,2,1,60,0,0
83195,-100,4,2,1,40,0,0
83445,-100,4,2,1,60,0,0
84445,-100,4,2,1,40,0,0
84695,-100,4,2,1,60,0,0
85195,-100,4,2,1,40,0,0
85445,-100,4,2,1,60,0,0
86445,-100,4,2,1,40,0,0
86695,-100,4,2,1,60,0,0
87195,-100,4,2,1,40,0,0
87445,-100,4,2,1,60,0,0
88445,-100,4,2,1,40,0,0
88695,-100,4,2,1,60,0,0
91195,-100,4,2,1,40,0,0
91445,-100,4,2,1,60,0,0
92445,-100,4,2,1,40,0,0
92695,-100,4,2,1,60,0,0
93195,-100,4,2,1,40,0,0
93445,-100,4,2,1,60,0,0
94445,-100,4,2,1,40,0,0
94695,-100,4,2,1,60,0,0
95195,-100,4,2,1,40,0,0
95445,-100,4,2,1,60,0,0
96445,-100,4,2,1,40,0,0
96695,-100,4,2,1,60,0,0
97195,-100,4,2,1,40,0,0
97445,-100,4,2,1,60,0,0
98570,-100,4,2,1,50,0,0
98695,-100,4,2,1,60,0,0
100445,-100,4,2,1,40,0,0
100695,-100,4,2,1,60,0,0
102445,-100,4,2,1,40,0,0
102695,-100,4,2,1,60,0,0
103195,-100,4,2,1,40,0,0
103445,-100,4,2,1,60,0,0
104445,-100,4,2,1,40,0,0
104695,-100,4,2,1,60,0,0
105195,-100,4,2,1,40,0,0
105445,-100,4,2,1,60,0,0
105695,-100,4,2,1,40,0,0
106445,-100,4,2,1,60,0,0
110445,-100,4,2,1,40,0,0
110695,-100,4,2,1,60,0,0
114570,-100,4,2,1,70,0,1
116445,-100,4,2,1,50,0,1
116695,-100,4,2,1,70,0,1
118570,-100,4,2,1,50,0,1
118695,-100,4,2,1,70,0,1
120445,-100,4,2,1,50,0,1
120695,-100,4,2,1,70,0,1
122570,-100,4,2,1,50,0,1
122695,-100,4,2,1,70,0,1
124195,-100,4,2,1,50,0,1
124445,-100,4,2,1,70,0,1
125195,-100,4,2,1,50,0,1
125445,-100,4,2,1,70,0,1
126445,-100,4,2,1,50,0,1
126695,-100,4,2,1,70,0,1
132445,-100,4,2,1,50,0,1
132695,-100,4,2,1,70,0,1
134570,-100,4,2,1,50,0,1
134695,-100,4,2,1,70,0,1
135445,-100,4,2,1,50,0,1
135695,-100,4,2,1,70,0,1
136445,-100,4,2,1,50,0,1
136695,-100,4,2,1,70,0,1
137570,-100,4,2,1,50,0,1
137695,-100,4,2,1,70,0,1
138570,-100,4,2,1,50,0,1
138695,-100,4,2,1,70,0,1
140195,-100,4,2,1,50,0,1
140445,-100,4,2,1,70,0,1
141195,-100,4,2,1,50,0,1
141445,-100,4,2,1,70,0,1
142445,-100,4,2,1,50,0,1
142695,-100,4,2,1,70,0,1
150570,-100,4,2,1,50,0,1
150695,-100,4,2,1,70,0,1
151320,-100,4,2,1,50,0,1
151445,-100,4,2,1,70,0,1
152570,-100,4,2,1,60,0,0
172445,-100,4,2,1,40,0,0
172695,-100,4,2,1,60,0,0
173195,-100,4,2,1,40,0,0
173445,-100,4,2,1,60,0,0
174445,-100,4,2,1,40,0,0
174695,-100,4,2,1,60,0,0
180445,-100,4,2,1,40,0,0
180695,-100,4,2,1,60,0,0
182445,-100,4,2,1,40,0,0
182695,-100,4,2,1,60,0,0
183195,-100,4,2,1,40,0,0
183445,-100,4,2,1,60,0,0
188445,-100,4,2,1,40,0,0
188695,-100,4,2,1,60,0,0
190445,-100,4,2,1,40,0,0
190695,-100,4,2,1,60,0,0
192445,-100,4,2,1,40,0,0
192695,-100,4,2,1,60,0,0
193445,-100,4,2,1,40,0,0
193695,-100,4,2,1,60,0,0
198445,-100,4,2,1,40,0,0
198695,-100,4,2,1,60,0,0
199195,-100,4,2,1,40,0,0
199445,-100,4,2,1,60,0,0
200445,-100,4,2,1,40,0,0
200695,-100,4,2,1,60,0,0
201195,-100,4,2,1,40,0,0
201445,-100,4,2,1,60,0,0
204445,-100,4,2,1,40,0,0
204695,-100,4,2,1,60,0,0
206445,-100,4,2,1,40,0,0
206695,-100,4,2,1,60,0,0
207195,-100,4,2,1,40,0,0
207445,-100,4,2,1,60,0,0
208445,-100,4,2,1,40,0,0
208695,-100,4,2,1,60,0,0
212445,-100,4,2,1,40,0,0
212695,-100,4,2,1,60,0,0
214445,-100,4,2,1,40,0,0
214695,-100,4,2,1,60,0,0
216445,-100,4,2,1,40,0,0
216695,-100,4,2,1,60,0,0
218570,-100,4,2,1,50,0,0
218695,-100,4,2,1,60,0,0
220445,-100,4,2,1,40,0,0
220695,-100,4,2,1,60,0,0
222445,-100,4,2,1,40,0,0
222695,-100,4,2,1,60,0,0
223195,-100,4,2,1,40,0,0
223445,-100,4,2,1,60,0,0
224445,-100,4,2,1,40,0,0
224695,-100,4,2,1,60,0,0
225195,-100,4,2,1,40,0,0
225445,-100,4,2,1,40,0,0
226195,-100,4,2,1,50,0,0
226445,-100,4,2,1,60,0,0
234570,-100,4,2,1,70,0,1
236445,-100,4,2,1,50,0,1
236695,-100,4,2,1,70,0,1
238570,-100,4,2,1,50,0,1
238695,-100,4,2,1,70,0,1
240445,-100,4,2,1,50,0,1
240695,-100,4,2,1,70,0,1
242570,-100,4,2,1,50,0,1
242695,-100,4,2,1,70,0,1
244195,-100,4,2,1,50,0,1
244445,-100,4,2,1,70,0,1
245195,-100,4,2,1,50,0,1
245445,-100,4,2,1,70,0,1
246445,-100,4,2,1,50,0,1
246695,-100,4,2,1,70,0,1
252445,-100,4,2,1,50,0,1
252695,-100,4,2,1,70,0,1
254570,-100,4,2,1,50,0,1
254695,-100,4,2,1,70,0,1
256445,-100,4,2,1,50,0,1
256695,-100,4,2,1,70,0,1
258570,-100,4,2,1,50,0,1
258695,-100,4,2,1,70,0,1
260195,-100,4,2,1,50,0,1
260445,-100,4,2,1,70,0,1
261195,-100,4,2,1,50,0,1
261445,-100,4,2,1,70,0,1
262445,-100,4,2,1,50,0,1
262695,-100,4,2,1,70,0,1
270570,-100,4,2,1,50,0,1
270695,-100,4,2,1,70,0,1
271195,-100,4,2,1,50,0,1
271445,-100,4,2,1,70,0,1
272570,-100,4,2,1,70,0,0
273695,-100,4,2,1,60,0,0
273945,-100,4,2,1,70,0,0

[Colours]
Combo1 : 248,211,171
Combo2 : 172,251,202
Combo3 : 175,210,254
Combo4 : 249,244,187
Combo5 : 240,81,81
SliderBorder : 255,255,255

[HitObjects]
256,176,28570,1,0,0:0:0
256,184,29570,5,0,0:0:0
256,192,30570,6,0,B|208:180|168:192|168:192|124:208|76:192,1,180
160,80,31445,1,0,0:0:0
160,80,31570,2,0,B|196:56|256:64,1,90
304,132,32070,1,0,0:0:0
336,48,32320,1,0,0:0:0
392,120,32570,6,0,B|440:152|440:236|396:280,1,180,0|8,0:0|0:0,0:0:0
320,200,33445,1,0,0:0:0
320,200,33570,2,0,B|220:200,1,90,0|0,1:0|0:0,0:0:0
236,280,34070,1,8,0:0:0
236,280,34195,2,0,B|136:280,1,90
112,280,34570,6,0,B|68:246|68:152|116:120,1,180,0|8,1:0|0:0,0:0:0
256,120,35445,1,0,0:0:0
256,120,35570,2,0,B|252:76|260:72|256:24,2,90,0|0|8,1:0|0:0|0:0,0:0:0
256,120,36195,1,0,0:0:0
256,256,36570,6,0,B|236:312|124:312|108:256,1,180,0|8,1:0|0:0,0:0:0
108,88,37445,1,0,0:0:0
108,88,37570,2,0,B|64:76|20:88,1,90,0|0,1:0|0:0,0:0:0
108,172,38070,1,8,0:0:0
108,172,38195,1,0,0:0:0
212,117,38445,1,0,0:0:0
212,117,38570,5,2,0:0:0
298,116,38820,1,0,0:0:0
213,267,39070,1,10,0:0:0
256,192,39320,1,0,0:0:0
299,266,39570,1,2,0:0:0
169,192,39820,1,0,1:0:0
342,191,40070,1,10,0:0:0
256,340,40320,1,0,0:0:0
256,192,40570,6,0,B|268:144|256:104|256:104|240:60|256:12,1,180,0|8,1:0|0:0,0:0:0
344,192,41445,1,0,0:0:0
344,192,41570,2,0,B|328:280,1,90,0|0,1:0|0:0,0:0:0
183,280,42070,1,8,0:0:0
183,280,42195,2,0,B|168:192,1,90
184,148,42570,6,0,B|136:120|56:172|8:144,1,180,0|8,1:0|0:0,0:0:0
164,52,43445,1,0,0:0:0
164,52,43570,2,0,B|200:28|252:32,1,90,0|0,1:0|0:0,0:0:0
336,52,44070,1,8,0:0:0
368,80,44195,2,0,B|388:120|388:172,1,90
420,200,44570,6,0,B|452:248|412:332|344:332,1,180,0|8,1:0|0:0,0:0:0
256,232,45445,1,0,0:0:0
256,232,45570,2,0,B|264:168|248:160|256:92,1,135,0|0,1:0|0:0,0:0:0
255,97,46070,1,8,0:0:0
180,48,46320,1,0,1:0:0
148,192,46820,5,0,0:0:0
188,292,47070,1,8,0:0:0
212,256,47195,2,0,P|256:244|304:256|304:256,1,90
324,292,47570,1,0,0:0:0
364,192,47820,1,0,0:0:0
324,92,48070,1,8,0:0:0
300,128,48195,2,0,P|256:140|208:128|208:128,1,90
188,92,48570,5,4,0:0:0
256,308,49070,1,2,0:0:0
256,308,49945,5,8,0:0:0
256,308,50070,1,8,0:0:0
80,256,50320,1,8,0:0:0
80,232,50445,1,8,0:0:0
80,208,50570,6,0,B|80:112,1,90,2|0,0:0|0:0,0:0:0
124,52,51070,1,8,0:0:0
168,120,51320,1,0,0:0:0
168,120,51445,2,0,B|308:120,1,135
352,56,52070,1,8,0:0:0
400,120,52320,1,0,0:0:0
352,184,52570,6,0,B|320:244|380:304|344:368,1,180,0|8,1:0|0:0,0:0:0
268,360,53320,2,0,B|235:303|295:243|263:183,1,180,0|0,0:0|0:0,0:0:0
308,116,54070,1,8,0:0:0
160,76,54320,1,0,0:0:0
76,192,54570,5,0,1:0:0
4,232,54820,2,0,B|26:274|78:274,1,90,0|8,0:0|0:0,0:0:0
148,236,55320,1,0,0:0:0
148,236,55445,2,0,B|208:220|220:244|284:232,1,135
280,152,56070,1,8,0:0:0
360,152,56320,6,0,B|388:196|332:280|360:328,1,180
280,328,57070,1,8,0:0:0
280,248,57320,2,0,B|271:193|232:174,1,90
196,248,57820,1,0,0:0:0
196,248,58070,2,0,B|96:248,2,90,8|0|2,0:0|0:0|0:0,0:0:0
404,80,59070,5,8,0:0:0
336,124,59320,2,0,B|316:164|336:216,1,90
404,252,59820,2,0,B|424:212|404:160,2,90,0|8|0,0:0|0:0|0:0,0:0:0
332,292,60570,2,0,B|264:312|224:272|148:292,1,180,0|8,1:0|0:0,0:0:0
92,236,61320,1,0,0:0:0
92,236,61570,1,0,0:0:0
168,204,61820,1,0,0:0:0
168,204,62070,2,0,B|192:156|168:116,1,90,8|0,0:0|0:0,0:0:0
88,116,62570,6,0,B|276:116,1,180,0|8,1:0|0:0,0:0:0
348,204,63320,2,0,B|160:204,1,180
87,205,64070,1,8,0:0:0
212,304,64570,5,2,0:0:0
300,304,64820,1,0,0:0:0
212,168,65070,1,2,0:0:0
168,236,65320,1,0,0:0:0
344,236,65570,1,8,0:0:0
300,168,65820,1,2,0:0:0
256,236,66070,1,8,0:0:0
256,236,66195,2,0,B|256:146,1,90,2|0,0:0|0:0,0:0:0
256,104,66570,5,4,0:0:0
73,105,67070,1,8,0:0:0
25,170,67320,2,0,B|2:213|23:258,1,90
93,216,67820,2,0,B|192:215,2,90,0|8|0,0:0|0:0|0:0,0:0:0
92,297,68570,2,0,B|132:343|221:343|255:295,1,180,0|8,1:0|0:0,0:0:0
251,136,69445,1,0,0:0:0
251,136,69570,2,0,B|251:39,2,90,0|0|8,0:0|0:0|0:0,0:0:0
331,138,70320,1,0,0:0:0
287,206,70570,5,0,1:0:0
160,307,71070,1,8,0:0:0
79,307,71320,1,0,0:0:0
38,304,71445,2,0,B|17:246|34:171,1,135
56,90,72070,1,8,0:0:0
112,147,72320,1,0,0:0:0
136,69,72570,6,0,B|180:57|228:60,1,90,0|0,1:0|0:0,0:0:0
308,187,73070,2,0,B|264:199|216:196,1,90,8|0,0:0|0:0,0:0:0
285,111,73570,2,0,B|329:99|377:102,1,90,0|0,1:0|0:0,0:0:0
457,229,74070,2,0,B|413:241|365:238,1,90,8|0,0:0|0:0,0:0:0
367,238,74445,1,8,0:0:0
367,238,74570,1,0,1:0:0
144,324,75070,5,8,0:0:0
144,324,75320,2,0,B|111:267|171:207|139:147,1,180,0|0,0:0|0:0,0:0:0
196,84,76070,1,8,0:0:0
248,148,76320,2,0,B|215:204|275:264|243:324,1,180,0|0,0:0|0:0,0:0:0
244,323,77070,1,8,0:0:0
324,324,77320,1,0,0:0:0
324,324,77570,2,0,B|472:324,2,135,0|8|0,0:0|0:0|0:0,0:0:0
188,324,78570,6,0,B|8:324,1,180,0|8,1:0|0:0,0:0:0
4,244,79320,2,0,B|184:244,1,180,0|0,1:0|0:0,0:0:0
184,244,80070,1,8,0:0:0
328,140,80570,6,0,B|508:140,1,180,0|8,1:0|0:0,0:0:0
504,60,81320,2,0,B|324:60,1,180,0|0,1:0|0:0,0:0:0
324,60,82070,1,8,0:0:0
164,60,82320,5,0,0:0:0
164,72,82445,1,0,0:0:0
164,84,82570,2,0,B|164:152|224:184|224:256,1,180,2|8,0:0|0:0,0:0:0
144,236,83320,1,0,1:0:0
144,236,83445,2,0,B|4:236,1,135
68,340,84070,1,8,0:0:0
68,340,84320,1,0,0:0:0
148,340,84570,6,0,B|208:340|276:288|344:288,1,180,0|8,1:0|0:0,0:0:0
324,372,85320,1,0,1:0:0
324,372,85445,2,0,B|396:372|432:300,1,135
384,236,86070,1,8,0:0:0
464,236,86320,1,0,0:0:0
424,164,86570,6,0,B|424:88|372:40|312:40,1,180,0|8,1:0|0:0,0:0:0
256,92,87320,1,0,1:0:0
193,40,87570,2,0,B|140:40|88:88|88:164,1,180,0|8,0:0|0:0,0:0:0
168,164,88320,1,0,0:0:0
168,164,88570,2,0,B|168:228|168:228|136:268|136:268|136:336,2,180,0|8|0,1:0|0:0|0:0,0:0:0
220,100,89820,1,0,0:0:0
268,164,90070,1,8,0:0:0
316,100,90320,5,0,0:0:0
328,100,90445,1,8,0:0:0
340,100,90570,2,0,B|384:100|416:220|468:220,1,180,2|8,0:0|0:0,0:0:0
468,300,91320,1,0,1:0:0
468,300,91445,2,0,B|332:300,1,135
212,188,92070,1,8,0:0:0
272,244,92320,1,0,0:0:0
212,188,92570,6,0,B|155:221|95:161|35:193,1,180,0|8,1:0|0:0,0:0:0
80,260,93320,1,0,1:0:0
80,260,93445,2,0,B|80:120,1,135
128,60,94070,1,8,0:0:0
200,100,94320,1,0,0:0:0
256,44,94570,6,0,B|316:32|376:80|380:156,1,180,0|8,1:0|0:0,0:0:0
312,192,95320,1,0,1:0:0
379,237,95570,2,0,B|376:304|316:352|257:340,1,180,0|8,0:0|0:0,0:0:0
256,260,96320,1,0,0:0:0
256,260,96570,2,0,B|192:260|148:332|88:332,1,180,0|8,1:0|0:0,0:0:0
92,252,97320,1,0,1:0:0
12,252,97570,2,0,B|66:252|110:180|174:180,1,180,0|0,0:0|0:0,0:0:0
188,180,98195,1,8,0:0:0
200,180,98320,1,0,0:0:0
344,184,98570,6,0,B|344:216|384:232|384:264,1,90,6|0,0:0|0:0,0:0:0
316,308,99070,1,8,0:0:0
268,244,99320,1,0,0:0:0
268,244,99445,2,0,B|172:244,1,90
136,244,99820,1,0,0:0:0
56,240,100070,2,0,B|34:197|58:153,1,90,8|0,0:0|0:0,0:0:0
140,152,100570,6,0,B|232:152,1,90,0|0,1:0|0:0,0:0:0
208,76,101070,1,8,0:0:0
288,76,101320,1,0,0:0:0
288,76,101445,1,0,0:0:0
312,152,101695,1,0,0:0:0
312,152,101820,2,0,B|408:152,1,90,0|8,0:0|0:0,0:0:0
448,84,102320,1,0,0:0:0
492,152,102570,6,0,B|525:209|465:269|497:329,1,180,0|8,1:0|0:0,0:0:0
412,248,103320,1,0,1:0:0
412,328,103570,2,0,B|355:361|295:301|235:333,1,180,0|8,0:0|0:0,0:0:0
156,332,104320,1,0,0:0:0
156,332,104570,2,0,B|136:288|156:244,1,90,0|0,1:0|0:0,0:0:0
248,224,105070,1,8,0:0:0
272,132,105320,2,0,B|232:96|188:88,1,90,0|0,1:0|0:0,0:0:0
120,156,105820,1,0,1:0:0
120,156,106320,6,0,B|72:236|116:328,1,180,0|0,1:0|0:0,0:0:0
256,280,107070,1,8,0:0:0
396,328,107320,2,0,B|440:236|392:156,1,180
340,96,108070,1,8,0:0:0
312,172,108320,6,0,B|224:196|132:172,1,180,2|0,0:0|0:0,0:0:0
132,92,109070,2,0,B|132:312,1,180,8|0,0:0|0:0,0:0:0
256,344,109820,1,0,0:0:0
256,244,110070,1,8,0:0:0
180,296,110320,1,0,0:0:0
332,296,110570,1,0,1:0:0
331,194,110820,2,0,P|256:152|180:192,1,180
256,192,111570,12,8,113570,0:0:0
401,162,114070,5,0,0:0:0
400,184,114195,1,0,0:0:0
400,208,114320,1,0,0:0:0
400,232,114445,1,0,0:0:0
400,256,114570,6,0,B|363:312|280:313|230:274,1,180,4|8,0:0|0:0,0:0:0
276,208,115320,1,0,0:0:0
196,216,115570,2,0,B|152:236|108:224,1,90,0|0,0:0|0:0,0:0:0
92,144,116070,2,0,B|136:124|180:136,1,90,8|0,0:0|0:0,0:0:0
256,104,116570,5,0,1:0:0
336,232,116820,1,0,0:0:0
176,232,117070,1,8,0:0:0
256,192,117320,1,0,0:0:0
256,280,117570,5,0,0:0:0
176,152,117820,1,0,0:0:0
336,152,118070,1,8,0:0:0
336,152,118195,1,0,0:0:0
256,280,118445,1,0,0:0:0
256,280,118570,6,0,B|176:328|84:280,2,180,0|8|0,1:0|0:0|0:0,0:0:0
224,204,119820,1,0,0:0:0
292,160,120070,1,8,0:0:0
292,160,120320,1,0,0:0:0
324,236,120570,2,0,B|368:248|416:236,1,90,0|0,1:0|0:0,0:0:0
348,112,121070,1,8,0:0:0
348,112,121195,2,0,B|304:100|256:112,1,90
220,128,121570,5,0,0:0:0
144,60,121820,1,0,0:0:0
76,132,122070,1,8,0:0:0
76,132,122195,1,0,0:0:0
152,200,122445,1,0,0:0:0
152,200,122570,6,0,B|184:260|124:320|160:384,1,180,0|8,1:0|0:0,0:0:0
256,324,123320,1,0,0:0:0
256,324,123570,2,0,B|256:232,2,90,0|0|8,0:0|0:0|0:0,0:0:0
355,376,124320,2,0,B|388:320|328:260|360:200,1,180,0|0,1:0|0:0,0:0:0
256,168,125070,1,8,0:0:0
196,100,125320,2,0,B|100:100,1,90,0|0,1:0|0:0,0:0:0
316,100,125820,2,0,B|412:100,1,90,0|8,0:0|0:0,0:0:0
256,168,126320,1,0,0:0:0
256,168,126570,6,0,B|268:104|244:96|256:32,2,135,0|8|0,1:0|0:0|0:0,0:0:0
328,216,127570,1,0,0:0:0
328,296,127820,2,0,B|424:296,2,90,0|8|0,0:0|0:0|0:0,0:0:0
256,348,128570,5,2,0:0:0
184,216,128820,1,0,0:0:0
328,216,129070,1,8,0:0:0
256,264,129320,1,0,0:0:0
212,140,129570,1,0,0:0:0
300,140,129820,1,0,0:0:0
184,216,130070,5,8,0:0:0
168,216,130195,1,0,0:0:0
152,216,130320,1,0,0:0:0
136,216,130445,1,0,0:0:0
120,216,130570,6,0,B|60:184|60:96|120:64,1,180,4|8,0:0|0:0,0:0:0
156,140,131320,1,0,0:0:0
156,140,131445,1,0,0:0:0
156,140,131570,2,0,B|216:108|276:168|340:132,1,180,0|8,0:0|0:0,0:0:0
256,64,132320,5,0,0:0:0
344,192,132570,1,0,1:0:0
168,192,132820,1,0,0:0:0
304,120,133070,5,8,0:0:0
208,120,133320,1,0,0:0:0
212,264,133570,1,0,0:0:0
304,264,133820,1,0,0:0:0
256,80,134070,1,8,0:0:0
256,80,134195,1,0,0:0:0
256,192,134445,5,0,0:0:0
256,192,134570,2,0,B|276:264|236:300|256:372,2,180,0|8|0,1:0|0:0|1:0,0:0:0
188,120,135820,1,0,0:0:0
256,52,136070,1,8,0:0:0
324,120,136320,1,0,0:0:0
256,192,136570,5,0,1:0:0
176,320,136820,1,0,0:0:0
336,320,137070,1,8,0:0:0
336,320,137195,1,0,0:0:0
176,240,137445,5,0,0:0:0
176,240,137570,1,0,1:0:0
256,368,137820,1,0,0:0:0
336,240,138070,1,8,0:0:0
336,240,138195,1,0,0:0:0
256,280,138445,5,0,0:0:0
256,280,138570,2,0,B|236:208|276:172|256:100,2,180,0|8|0,1:0|0:0|0:0,0:0:0
192,344,139820,1,0,0:0:0
120,288,140070,1,8,0:0:0
192,236,140320,6,0,B|156:280|64:280|28:236,1,180,0|0,1:0|0:0,0:0:0
96,176,141070,1,8,0:0:0
28,116,141320,2,0,B|64:72|156:72|192:116,1,180,0|0,1:0|0:0,0:0:0
256,176,142070,1,8,0:0:0
324,116,142320,1,0,0:0:0
388,180,142570,6,0,B|432:224|432:300|384:352,1,180,0|8,1:0|0:0,0:0:0
324,284,143320,1,0,0:0:0
188,284,143570,1,0,0:0:0
256,224,143820,1,0,0:0:0
256,344,144070,1,8,0:0:0
121,344,144320,6,0,B|80:300|80:224|124:180,1,180
200,128,145070,1,8,0:0:0
200,128,145195,2,0,B|216:80|200:40,1,90
156,40,145570,1,2,0:0:0
76,96,145820,1,0,0:0:0
120,184,146070,1,10,0:0:0
120,208,146195,1,0,0:0:0
120,232,146320,1,0,0:0:0
256,288,146570,6,0,B|284:340|380:340|412:284,1,180,2|8,0:0|0:0,0:0:0
332,240,147320,2,0,B|304:188|208:188|180:240,1,180
256,288,148070,1,8,0:0:0
256,288,148320,2,0,B|228:340|132:340|100:284,1,180
104,196,149070,1,8,0:0:0
188,164,149320,2,0,B|208:124|200:72,1,90
311,76,149820,2,0,B|304:124|324:164,1,90,0|8,0:0|0:0,0:0:0
256,224,150320,5,0,0:0:0
256,224,150445,1,0,0:0:0
256,224,150570,2,0,B|216:288|256:356,1,135,0|0,1:0|0:0,0:0:0
300,352,151070,1,8,0:0:0
388,352,151320,2,0,B|428:288|388:220,1,135,0|0,1:0|0:0,0:0:0
344,224,151820,1,0,0:0:0
300,136,152070,5,8,0:0:0
300,136,152195,1,0,0:0:0
256,44,152445,1,0,0:0:0
256,44,152570,1,8,0:0:0
212,136,152820,5,0,0:0:0
300,136,153070,1,0,0:0:0
256,260,153320,1,0,0:0:0
184,212,153570,1,0,0:0:0
328,212,153820,1,0,0:0:0
256,348,154070,1,2,0:0:0
256,100,154320,2,0,B|256:192,1,90,0|4,0:0|0:0,0:0:0
256,192,168570,5,4,0:0:0
256,192,169070,1,2,0:0:0
104,44,169695,6,8,B|104:140,1,90
104,160,170070,1,8,0:0:0
108,240,170320,1,8,0:0:0
132,240,170445,1,8,0:0:0
156,240,170570,6,0,B|252:240,1,90,2|0,0:0|0:0,0:0:0
292,308,171070,1,8,0:0:0
332,236,171320,1,0,0:0:0
332,236,171445,2,0,B|332:96,1,135
280,40,172070,1,8,0:0:0
224,100,172320,1,0,0:0:0
224,100,172570,6,0,B|164:68|104:128|40:92,1,180,0|8,1:0|0:0,0:0:0
44,184,173320,2,0,B|102:215|162:155|219:188,1,180,0|0,1:0|0:0,0:0:0
296,148,174070,1,8,0:0:0
428,324,174570,5,0,1:0:0
500,284,174820,2,0,B|478:242|426:242,1,90,0|8,0:0|0:0,0:0:0
356,280,175320,1,0,0:0:0
356,280,175445,2,0,B|296:296|284:272|220:284,1,135
224,364,176070,1,8,0:0:0
136,360,176320,6,0,B|108:316|164:232|136:184,1,180
200,136,177070,1,8,0:0:0
268,180,177320,2,0,B|308:206|355:187,1,90
320,104,177820,1,0,0:0:0
320,104,178070,2,0,B|320:4,2,90,8|0|2,0:0|0:0|0:0,0:0:0
448,280,179070,5,8,0:0:0
404,212,179320,2,0,B|364:192|312:212,2,90
363,281,180070,2,0,B|316:300|276:280,1,90,8|0,0:0|0:0,0:0:0
196,280,180570,2,0,B|176:212|216:172|196:96,1,180,0|8,1:0|0:0,0:0:0
256,48,181320,1,0,0:0:0
256,48,181570,1,0,0:0:0
316,100,181820,1,0,0:0:0
316,100,182070,2,0,B|292:148|316:188,1,90,8|0,0:0|0:0,0:0:0
396,188,182570,6,0,B|208:188,1,180,0|8,1:0|0:0,0:0:0
136,264,183320,2,0,B|324:264,1,180,0|0,1:0|0:0,0:0:0
396,264,184070,1,8,0:0:0
300,80,184570,5,2,0:0:0
212,80,184820,1,0,0:0:0
256,236,185070,1,10,0:0:0
336,172,185320,1,0,0:0:0
256,152,185570,1,8,0:0:0
176,168,185820,1,2,0:0:0
256,360,186070,1,8,0:0:0
256,360,186195,2,0,B|256:270,1,90,2|0,0:0|0:0,0:0:0
256,236,186570,5,4,0:0:0
439,279,187070,1,8,0:0:0
487,214,187320,1,0,0:0:0
487,214,187445,2,0,B|510:171|489:126,1,90
419,168,187820,2,0,B|320:169,2,90,0|8|0,0:0|0:0|0:0,0:0:0
420,87,188570,2,0,B|380:41|291:41|257:89,1,180,0|8,1:0|0:0,0:0:0
261,248,189445,1,0,0:0:0
261,248,189570,2,0,B|261:345,2,90,0|0|8,0:0|0:0|0:0,0:0:0
181,246,190320,1,0,0:0:0
225,178,190570,5,0,1:0:0
352,77,191070,1,8,0:0:0
433,77,191320,1,0,0:0:0
474,80,191445,2,0,B|495:138|478:213,1,135
456,294,192070,1,8,0:0:0
400,237,192320,1,0,0:0:0
376,315,192570,6,0,B|332:327|284:324,1,90,0|0,1:0|0:0,0:0:0
204,197,193070,2,0,B|248:185|296:188,1,90,8|0,0:0|0:0,0:0:0
227,273,193570,2,0,B|183:285|135:282,1,90,0|0,1:0|0:0,0:0:0
55,155,194070,2,0,B|99:143|147:146,1,90,8|0,0:0|0:0,0:0:0
145,146,194445,1,8,0:0:0
145,146,194570,1,0,0:0:0
368,60,195070,5,8,0:0:0
368,60,195320,2,0,B|401:117|341:177|373:237,1,180,0|0,0:0|0:0,0:0:0
316,300,196070,1,8,0:0:0
264,236,196320,2,0,B|297:180|237:120|269:60,1,180,0|0,0:0|0:0,0:0:0
268,61,197070,1,8,0:0:0
188,60,197320,1,0,0:0:0
188,60,197570,2,0,B|40:60,2,135,0|8|0,0:0|0:0|0:0,0:0:0
324,60,198570,6,0,B|504:60,1,180,0|8,1:0|0:0,0:0:0
508,140,199320,2,0,B|328:140,1,180,0|0,1:0|0:0,0:0:0
328,140,200070,1,8,0:0:0
184,244,200570,6,0,B|4:244,1,180,0|8,1:0|0:0,0:0:0
8,324,201320,2,0,B|188:324,1,180,0|0,1:0|0:0,0:0:0
188,324,202070,1,8,0:0:0
348,324,202320,5,0,0:0:0
348,312,202445,1,0,0:0:0
348,300,202570,2,0,B|348:232|288:200|288:128,1,180,2|8,0:0|0:0,0:0:0
368,132,203320,1,0,0:0:0
368,132,203445,2,0,B|228:132,1,135
188,64,204070,1,8,0:0:0
144,132,204320,1,0,0:0:0
144,132,204570,6,0,B|144:199|84:231|84:299,1,180,0|8,1:0|0:0,0:0:0
84,380,205320,1,0,0:0:0
84,380,205445,2,0,B|156:380|192:308,1,135
240,244,206070,1,8,0:0:0
284,312,206320,1,0,0:0:0
356,348,206570,6,0,B|432:348|480:296|480:236,1,180,0|8,1:0|0:0,0:0:0
416,192,207320,1,0,1:0:0
479,141,207570,2,0,B|480:88|432:36|356:36,1,180,0|8,0:0|0:0,0:0:0
276,36,208320,1,0,0:0:0
276,36,208570,2,0,B|276:100|276:100|308:140|308:140|308:208,2,180,0|8|0,1:0|0:0|0:0,0:0:0
228,176,209820,1,0,0:0:0
244,256,210070,1,8,0:0:0
164,236,210320,5,0,0:0:0
152,236,210445,1,8,0:0:0
140,236,210570,2,0,B|104:188|160:104|124:56,1,180,2|8,0:0|0:0,0:0:0
48,60,211320,1,0,0:0:0
48,60,211445,2,0,B|184:60,1,135
300,176,212070,1,8,0:0:0
240,120,212320,1,0,0:0:0
300,176,212570,6,0,B|357:143|417:203|477:171,1,180,0|8,1:0|0:0,0:0:0
432,104,213320,1,0,0:0:0
432,104,213445,2,0,B|432:244,1,135
376,300,214070,1,8,0:0:0
324,240,214320,1,0,0:0:0
244,260,214570,6,0,B|184:292|124:232|60:268,1,180,0|8,1:0|0:0,0:0:0
16,192,215320,1,0,0:0:0
67,119,215570,2,0,B|124:152|184:92|244:124,1,180,0|8,0:0|0:0,0:0:0
284,200,216320,1,0,0:0:0
328,124,216570,2,0,B|392:124|436:196|496:196,1,180,0|8,1:0|0:0,0:0:0
448,288,217320,1,0,0:0:0
344,248,217570,5,8,0:0:0
344,248,217695,1,8,0:0:0
344,248,217820,1,0,0:0:0
216,288,218070,1,8,0:0:0
204,288,218195,1,8,0:0:0
192,288,218320,1,0,0:0:0
96,200,218570,6,0,B|76:156|96:112,1,90,6|0,0:0|0:0,0:0:0
172,72,219070,1,8,0:0:0
220,136,219320,1,0,0:0:0
220,136,219445,2,0,B|316:136,1,90
352,136,219820,1,0,0:0:0
432,140,220070,2,0,B|454:183|430:227,1,90,8|0,0:0|0:0,0:0:0
348,228,220570,6,0,B|256:228,1,90,0|0,1:0|0:0,0:0:0
304,308,221070,1,8,0:0:0
224,308,221320,1,0,0:0:0
224,308,221445,1,0,0:0:0
200,232,221695,1,0,0:0:0
200,232,221820,2,0,B|104:232,1,90,0|8,0:0|0:0,0:0:0
64,300,222320,1,0,0:0:0
20,232,222570,6,0,B|-13:175|47:115|15:55,1,180,0|8,1:0|0:0,0:0:0
100,136,223320,1,0,1:0:0
100,56,223570,2,0,B|157:23|217:83|277:51,1,180,0|8,0:0|0:0,0:0:0
356,52,224320,1,0,0:0:0
356,52,224570,2,0,B|376:96|356:140,1,90,0|0,1:0|0:0,0:0:0
244,204,225070,1,8,0:0:0
160,108,225320,2,0,B|204:88|248:108,1,90,0|0,1:0|0:0,0:0:0
340,140,225820,1,0,1:0:0
340,140,226320,6,0,B|388:220|344:312,1,180,0|0,1:0|0:0,0:0:0
256,224,227070,1,8,0:0:0
168,312,227320,2,0,B|124:220|172:140,1,180,0|0,0:0|0:0,0:0:0
256,76,228070,1,8,0:0:0
256,156,228320,2,0,B|300:172|344:156,1,90,2|0,0:0|0:0,0:0:0
448,148,228820,1,0,0:0:0
440,240,229070,6,0,B|344:232|252:264,1,180,10|0,0:0|0:0,0:0:0
256,76,229820,1,0,0:0:0
256,180,230070,1,8,0:0:0
184,132,230320,1,0,0:0:0
328,132,230570,1,2,0:0:0
332,232,230820,2,0,P|256:272|181:230,1,180
256,192,231570,12,8,233570,0:0:0
111,222,234070,5,0,0:0:0
112,200,234195,1,0,0:0:0
112,176,234320,1,0,0:0:0
112,152,234445,1,0,0:0:0
112,128,234570,6,0,B|149:72|232:71|282:110,1,180,4|8,0:0|0:0,0:0:0
352,120,235320,1,0,0:0:0
316,192,235570,2,0,B|336:236|324:280,1,90
200,284,236070,2,0,B|180:240|192:196,1,90,8|0,0:0|0:0,0:0:0
256,120,236570,5,0,1:0:0
336,248,236820,1,0,0:0:0
176,248,237070,1,8,0:0:0
256,208,237320,1,0,0:0:0
256,296,237570,5,0,0:0:0
176,168,237820,1,0,0:0:0
336,168,238070,1,8,0:0:0
336,168,238195,1,0,0:0:0
256,296,238445,1,0,0:0:0
256,296,238570,6,0,B|176:344|84:296,2,180,0|8|0,1:0|0:0|0:0,0:0:0
372,228,239820,1,0,0:0:0
228,196,240070,1,8,0:0:0
344,128,240320,1,0,0:0:0
216,96,240570,2,0,B|172:84|124:96,1,90,0|0,1:0|0:0,0:0:0
28,176,241070,1,8,0:0:0
28,176,241195,2,0,B|72:188|120:176,1,90
148,200,241570,5,0,0:0:0
216,268,241820,1,0,0:0:0
280,200,242070,1,8,0:0:0
280,200,242195,1,0,0:0:0
216,128,242445,1,0,0:0:0
216,128,242570,6,0,B|276:96|336:156|400:120,1,180,0|8,1:0|0:0,0:0:0
428,52,243320,1,0,0:0:0
476,116,243570,2,0,B|488:164|472:212,1,90
400,236,244070,1,8,0:0:0
464,288,244320,2,0,B|408:255|348:315|288:283,1,180,0|0,1:0|0:0,0:0:0
256,200,245070,1,8,0:0:0
320,132,245320,2,0,B|416:132,1,90,0|0,1:0|0:0,0:0:0
192,132,245820,2,0,B|96:132,1,90,0|8,0:0|0:0,0:0:0
256,200,246320,1,0,0:0:0
256,200,246570,6,0,B|244:264|268:272|256:336,2,135,0|8|0,1:0|0:0|0:0,0:0:0
184,168,247570,1,0,0:0:0
184,88,247820,2,0,B|88:88,2,90,0|8|0,0:0|0:0|0:0,0:0:0
256,36,248570,5,2,0:0:0
328,168,248820,1,0,0:0:0
184,168,249070,1,8,0:0:0
256,120,249320,1,0,0:0:0
300,244,249570,1,2,0:0:0
212,244,249820,1,0,0:0:0
328,168,250070,5,8,0:0:0
344,168,250195,1,0,0:0:0
360,168,250320,1,0,0:0:0
376,168,250445,1,0,0:0:0
392,168,250570,6,0,B|452:200|452:288|392:320,1,180,4|8,0:0|0:0,0:0:0
356,244,251320,1,0,0:0:0
356,244,251445,1,0,0:0:0
356,244,251570,2,0,B|296:276|236:216|172:252,1,180,0|8,0:0|0:0,0:0:0
256,320,252320,5,0,0:0:0
208,160,252570,1,0,1:0:0
304,160,252820,1,0,0:0:0
180,256,253070,5,8,0:0:0
332,256,253320,1,0,0:0:0
256,84,253570,1,0,0:0:0
256,228,253820,1,0,0:0:0
256,84,254070,1,10,0:0:0
256,84,254195,1,0,0:0:0
256,192,254445,5,0,0:0:0
256,192,254570,2,0,B|236:120|276:84|256:12,2,180,0|8|0,1:0|0:0|0:0,0:0:0
324,264,255820,1,0,0:0:0
256,332,256070,1,8,0:0:0
188,264,256320,1,0,0:0:0
256,192,256570,5,0,1:0:0
336,64,256820,1,0,0:0:0
176,64,257070,1,8,0:0:0
176,64,257195,1,0,0:0:0
336,144,257445,5,0,0:0:0
336,144,257570,1,0,0:0:0
256,16,257820,1,0,0:0:0
176,144,258070,1,8,0:0:0
176,144,258195,1,0,0:0:0
256,104,258445,5,0,0:0:0
256,104,258570,2,0,B|276:176|236:212|256:284,2,180,0|8|0,1:0|0:0|0:0,0:0:0
320,40,259820,1,0,0:0:0
392,96,260070,1,8,0:0:0
320,148,260320,6,0,B|356:104|448:104|484:148,1,180,0|0,1:0|0:0,0:0:0
416,208,261070,1,8,0:0:0
484,268,261320,2,0,B|448:312|356:312|320:268,1,180,0|0,1:0|0:0,0:0:0
256,208,262070,1,8,0:0:0
188,268,262320,1,0,0:0:0
124,204,262570,6,0,B|80:160|80:84|128:32,1,180,0|8,1:0|0:0,0:0:0
188,100,263320,1,0,0:0:0
324,100,263570,1,0,0:0:0
256,160,263820,1,0,0:0:0
256,40,264070,1,8,0:0:0
391,40,264320,6,0,B|432:84|432:160|388:204,1,180
336,280,265070,1,8,0:0:0
300,308,265195,2,0,B|252:292|212:308,1,90
176,280,265570,1,2,0:0:0
256,220,265820,1,0,0:0:0
256,132,266070,1,10,0:0:0
256,88,266195,1,0,0:0:0
256,44,266320,1,0,0:0:0
104,40,266570,6,0,B|52:68|52:164|108:196,1,180,2|8,0:0|0:0,0:0:0
168,116,267320,2,0,B|220:144|220:240|168:268,1,180
104,192,268070,1,8,0:0:0
104,192,268320,2,0,B|52:220|52:316|108:348,1,180,2|0,0:0|0:0,0:0:0
200,308,269070,1,8,0:0:0
201,308,269320,2,0,B|208:260|188:220,1,90,0|0,0:0|0:0,0:0:0
324,220,269820,2,0,B|304:260|312:312,1,90,0|8,0:0|0:0,0:0:0
256,160,270320,5,0,0:0:0
256,160,270445,1,0,0:0:0
256,160,270570,2,0,B|296:96|256:28,1,135,0|0,1:0|0:0,0:0:0
212,32,271070,1,8,0:0:0
124,32,271320,2,0,B|84:96|124:164,1,135,0|0,1:0|0:0,0:0:0
168,160,271820,1,0,0:0:0
212,244,272070,5,8,0:0:0
212,244,272195,1,0,0:0:0
256,340,272445,1,0,0:0:0
256,340,272570,1,8,0:0:0
256,56,272820,5,0,0:0:0
328,208,273070,1,8,0:0:0
184,208,273320,1,0,0:0:0
256,160,273570,1,0,0:0:0
300,284,273820,1,8,0:0:0
212,284,274070,1,10,0:0:0
256,100,274320,2,0,B|256:204,1,90,0|4,0:0|0:0,0:0:0
