osu file format v10

[General]
AudioFilename: Try-Angle.mp3
AudioLeadIn: 0
PreviewTime: 114070
Countdown: 0
SampleSet: Soft
StackLeniency: 0.7
Mode: 0
LetterboxInBreaks: 1

[Editor]
DistanceSpacing: 1
BeatDivisor: 4
GridSize: 4

[Metadata]
Title:Otomegami Try-Angle
TitleUnicode:乙女髪 Try-Angle
Artist:Chata
ArtistUnicode:茶太
Creator:hoLysoup
Version:Hard
Source:Hatsukoi 1/1
Tags:yukino morino tone work's
BeatmapID:188285
BeatmapSetID:63631

[Difficulty]
HPDrainRate:5
CircleSize:4
OverallDifficulty:5
ApproachRate:7
SliderMultiplier:1.6
SliderTickRate:2

[Events]
//Background and Video events
0,0,"wee.jpg"
//Break Periods
2,154570,167670
//Storyboard Layer 0 (Background)
//Storyboard Layer 1 (Fail)
//Storyboard Layer 2 (Pass)
//Storyboard Layer 3 (Foreground)
//Storyboard Sound Samples
//Background Colour Transformations
3,100,163,162,255

[TimingPoints]
570,500,4,1,0,100,1,0
28070,-100,4,1,1,50,0,0
32820,-100,4,2,1,60,0,0
52445,-100,4,2,1,40,0,0
52695,-100,4,2,1,60,0,0
54445,-100,4,2,1,40,0,0
54695,-100,4,2,1,60,0,0
58445,-100,4,2,1,40,0,0
58695,-100,4,2,1,60,0,0
60445,-100,4,2,1,40,0,0
60695,-100,4,2,1,60,0,0
62445,-100,4,2,1,40,0,0
62695,-100,4,2,1,60,0,0
66445,-100,4,2,1,55,0,0
66695,-100,4,2,1,60,0,0
68445,-100,4,2,1,40,0,0
68695,-100,4,2,1,60,0,0
70445,-100,4,2,1,40,0,0
70695,-100,4,2,1,60,0,0
72445,-100,4,2,1,40,0,0
72695,-100,4,2,1,60,0,0
73445,-100,4,2,1,40,0,0
73695,-100,4,2,1,60,0,0
74445,-100,4,2,1,40,0,0
74695,-100,4,2,1,60,0,0
78445,-100,4,2,1,40,0,0
78695,-100,4,2,1,60,0,0
79195,-100,4,2,1,40,0,0
79445,-100,4,2,1,60,0,0
80445,-100,4,2,1,40,0,0
80695,-100,4,2,1,60,0,0
81195,-100,4,2,1,40,0,0
81445,-100,4,2,1,60,0,0
84445,-100,4,2,1,40,0,0
84695,-100,4,2,1,60,0,0
86445,-100,4,2,1,40,0,0
86695,-100,4,2,1,60,0,0
88445,-100,4,2,1,40,0,0
88695,-100,4,2,1,60,0,0
92445,-100,4,2,1,40,0,0
92695,-100,4,2,1,60,0,0
94445,-100,4,2,1,40,0,0
94695,-100,4,2,1,60,0,0
96445,-100,4,2,1,40,0,0
96695,-100,4,2,1,60,0,0
100445,-100,4,2,1,40,0,0
100695,-100,4,2,1,60,0,0
102445,-100,4,2,1,40,0,0
102695,-100,4,2,1,60,0,0
103195,-100,4,2,1,40,0,0
103445,-100,4,2,1,60,0,0
104445,-100,4,2,1,40,0,0
104695,-100,4,2,1,60,0,0
105195,-100,4,2,1,40,0,0
105445,-100,4,2,1,60,0,0
114570,-100,4,2,1,70,0,1
116445,-100,4,2,1,50,0,1
116695,-100,4,2,1,70,0,1
118445,-100,4,2,1,50,0,1
118695,-100,4,2,1,70,0,1
120445,-100,4,2,1,50,0,1
120695,-100,4,2,1,70,0,1
122445,-100,4,2,1,50,0,1
122695,-100,4,2,1,70,0,1
124195,-100,4,2,1,50,0,1
124445,-100,4,2,1,70,0,1
125195,-100,4,2,1,50,0,1
125445,-100,4,2,1,70,0,1
126445,-100,4,2,1,50,0,1
126695,-100,4,2,1,70,0,1
128195,-100,4,2,1,50,0,1
128445,-100,4,2,1,70,0,1
132445,-100,4,2,1,50,0,1
132695,-100,4,2,1,70,0,1
134445,-100,4,2,1,50,0,1
134695,-100,4,2,1,70,0,1
136445,-100,4,2,1,50,0,1
136695,-100,4,2,1,70,0,1
138445,-100,4,2,1,50,0,1
138695,-100,4,2,1,70,0,1
140195,-100,4,2,1,50,0,1
140445,-100,4,2,1,70,0,1
141195,-100,4,2,1,50,0,1
141445,-100,4,2,1,70,0,1
142445,-100,4,2,1,50,0,1
142695,-100,4,2,1,70,0,1
144445,-100,4,2,1,50,0,1
144695,-100,4,2,1,70,0,1
150445,-100,4,2,1,50,0,1
150695,-100,4,2,1,70,0,1
152570,-100,4,2,1,60,0,0
172445,-100,4,2,1,40,0,0
172695,-100,4,2,1,60,0,0
173195,-100,4,2,1,40,0,0
173445,-100,4,2,1,60,0,0
174445,-100,4,2,1,40,0,0
174695,-100,4,2,1,60,0,0
178445,-100,4,2,1,40,0,0
178695,-100,4,2,1,60,0,0
182445,-100,4,2,1,40,0,0
182695,-100,4,2,1,60,0,0
188445,-100,4,2,1,40,0,0
188695,-100,4,2,1,60,0,0
190445,-100,4,2,1,40,0,0
190695,-100,4,2,1,60,0,0
192445,-100,4,2,1,40,0,0
192695,-100,4,2,1,60,0,0
193445,-100,4,2,1,40,0,0
193695,-100,4,2,1,60,0,0
194445,-100,4,2,1,40,0,0
194695,-100,4,2,1,60,0,0
198445,-100,4,2,1,40,0,0
198695,-100,4,2,1,60,0,0
199195,-100,4,2,1,40,0,0
199445,-100,4,2,1,60,0,0
200445,-100,4,2,1,40,0,0
200695,-100,4,2,1,60,0,0
201195,-100,4,2,1,40,0,0
201445,-100,4,2,1,60,0,0
202445,-100,4,2,1,40,0,0
202695,-100,4,2,1,60,0,0
204445,-100,4,2,1,40,0,0
204695,-100,4,2,1,60,0,0
206445,-100,4,2,1,40,0,0
206695,-100,4,2,1,60,0,0
208445,-100,4,2,1,40,0,0
208695,-100,4,2,1,60,0,0
211195,-100,4,2,1,40,0,0
211445,-100,4,2,1,60,0,0
212445,-100,4,2,1,40,0,0
212695,-100,4,2,1,60,0,0
213195,-100,4,2,1,40,0,0
213445,-100,4,2,1,60,0,0
214445,-100,4,2,1,40,0,0
214695,-100,4,2,1,60,0,0
215195,-100,4,2,1,40,0,0
215445,-100,4,2,1,60,0,0
216445,-100,4,2,1,40,0,0
216695,-100,4,2,1,60,0,0
218445,-100,4,2,1,40,0,0
218695,-100,4,2,1,60,0,0
220445,-100,4,2,1,40,0,0
220695,-100,4,2,1,60,0,0
222445,-100,4,2,1,40,0,0
222695,-100,4,2,1,60,0,0
223195,-100,4,2,1,40,0,0
223445,-100,4,2,1,60,0,0
224445,-100,4,2,1,40,0,0
224695,-100,4,2,1,60,0,0
225195,-100,4,2,1,40,0,0
225445,-100,4,2,1,60,0,0
226195,-100,4,2,1,50,0,0
226445,-100,4,2,1,60,0,0
228195,-100,4,2,1,40,0,0
228445,-100,4,2,1,60,0,0
230445,-100,4,2,1,40,0,0
230695,-100,4,2,1,60,0,0
234570,-100,4,2,1,70,0,1
236445,-100,4,2,1,50,0,1
236695,-100,4,2,1,70,0,1
238445,-100,4,2,1,50,0,1
238695,-100,4,2,1,70,0,1
240445,-100,4,2,1,50,0,1
240695,-100,4,2,1,70,0,1
242445,-100,4,2,1,50,0,1
242695,-100,4,2,1,70,0,1
244195,-100,4,2,1,50,0,1
244445,-100,4,2,1,70,0,1
245195,-100,4,2,1,50,0,1
245445,-100,4,2,1,70,0,1
246445,-100,4,2,1,50,0,1
246695,-100,4,2,1,70,0,1
248195,-100,4,2,1,50,0,1
248445,-100,4,2,1,70,0,1
252445,-100,4,2,1,50,0,1
252695,-100,4,2,1,70,0,1
254445,-100,4,2,1,50,0,1
254695,-100,4,2,1,70,0,1
256445,-100,4,2,1,50,0,1
256695,-100,4,2,1,70,0,1
258445,-100,4,2,1,50,0,1
258695,-100,4,2,1,70,0,1
260195,-100,4,2,1,50,0,1
260445,-100,4,2,1,70,0,1
261195,-100,4,2,1,50,0,1
261445,-100,4,2,1,70,0,1
262445,-100,4,2,1,50,0,1
262695,-100,4,2,1,70,0,1
263195,-100,4,2,1,50,0,1
263445,-100,4,2,1,70,0,1
270445,-100,4,2,1,50,0,1
270695,-100,4,2,1,70,0,1
272570,-100,4,2,1,70,0,0

[Colours]
Combo1 : 248,211,171
Combo2 : 172,251,202
Combo3 : 175,210,254
Combo4 : 249,244,187
Combo5 : 240,81,81
SliderBorder : 255,255,255

[HitObjects]
256,176,28570,1,0,1:0:0
256,184,29570,5,0,1:0:0
256,192,30570,6,0,B|248:268|264:284|256:360,1,160,0|0,1:0|1:0,0:0:0
376,352,31445,2,0,B|436:352,1,40,0|0,0:0|0:0,1:0:0
416,272,31820,2,0,B|504:272,2,80,0|0|0,0:0|0:0|0:0,1:0:0
336,272,32570,6,0,B|288:236|288:164|333:134,1,160,0|8,1:0|0:0,0:0:0
452,132,33445,1,0,0:0:0
452,132,33570,2,0,B|452:228,1,80,0|0,1:0|0:0,1:0:0
452,292,34070,2,0,B|400:292,1,40,8|0,0:0|0:0,0:0:0
292,292,34570,6,0,B|228:280|196:304|132:292,1,160,0|8,1:0|0:0,0:0:0
132,132,35570,2,0,B|196:120|228:144|292:132,1,160,0|8,1:0|0:0,0:0:0
428,212,36570,6,0,B|364:200|332:224|268:212,1,160,0|8,1:0|0:0,0:0:0
228,72,37445,1,0,0:0:0
228,72,37570,2,0,P|324:72,1,80,0|0,1:0|0:0,0:0:0
428,68,38070,2,0,P|428:120,1,40,8|0,0:0|0:0,0:0:0
348,192,38570,6,0,B|364:232|348:272,1,80,2|0,0:0|0:0,0:0:0
276,308,39070,2,0,B|260:268|276:228,1,80,10|0,0:0|0:0,0:0:0
276,148,39570,2,0,B|291:109|275:69,1,80,2|0,0:0|0:0,0:0:0
204,108,40070,2,0,B|188:146|204:186,1,80,10|0,0:0|0:0,0:0:0
224,264,40570,6,0,B|204:308|100:308|84:264,2,160,0|8|0,1:0|0:0|1:0,0:0:0
256,192,41820,2,0,B|256:108,2,80,0|8|0,0:0|0:0|0:0,0:0:0
288,264,42570,2,0,B|308:308|412:308|428:264,2,160,0|8|0,1:0|0:0|1:0,0:0:0
328,192,43820,1,0,0:0:0
248,192,44070,2,0,B|228:152|248:112,1,80,8|0,0:0|0:0,0:0:0
328,112,44570,6,0,B|168:112,1,160,0|8,1:0|0:0,0:0:0
256,248,45570,2,0,B|256:380,2,120,0|8|0,1:0|0:0|1:0,0:0:0
256,64,46820,1,0,0:0:0
208,128,47070,2,0,B|124:128,2,80,8|0|0,0:0|0:0|0:0,0:0:0
304,128,47820,2,0,B|388:128,2,80,0|8|0,0:0|0:0|0:0,0:0:0
256,192,48570,5,4,0:0:0
256,192,49070,1,2,0:0:0
256,320,50570,5,2,0:0:0
386,228,51070,2,0,B|386:148,2,80,8|0|0,0:0|0:0|0:0,0:0:0
386,308,51820,1,0,0:0:0
386,308,52070,2,0,B|347:320|306:308,1,80,8|0,0:0|0:0,0:0:0
309,228,52570,2,0,B|230:208|149:228,1,160,0|8,1:0|0:0,0:0:0
91,134,53320,2,0,B|171:146|253:133,1,160
250,133,54070,1,8,0:0:0
410,137,54570,5,0,1:0:0
457,201,54820,2,0,B|467:243|457:283,1,80,0|8,0:0|0:0,0:0:0
390,323,55320,1,0,0:0:0
390,323,55570,1,0,0:0:0
374,244,55820,6,0,B|333:249|288:246,2,80,0|8|0,0:0|0:0|0:0,0:0:0
256,131,56820,2,0,B|256:47,2,80,0|8|0,0:0|0:0|0:0,0:0:0
138,244,57820,2,0,B|179:249|224:246,2,80,0|8|0,0:0|0:0|0:0,0:0:0
138,244,58570,1,0,1:0:0
256,136,59070,5,8,0:0:0
321,90,59320,2,0,B|362:108|442:75|483:97,1,160
441,166,60070,2,0,B|419:161|381:173|360:170,1,80,8|0,0:0|0:0,0:0:0
321,239,60570,2,0,B|358:259|438:226|479:244,2,160,0|8|0,1:0|0:0|0:0,0:0:0
256,191,61820,2,0,B|256:108,2,80,0|8|0,0:0|0:0|0:0,0:0:0
191,239,62570,2,0,B|153:259|73:226|32:244,2,160,0|8|0,1:0|0:0|0:0,0:0:0
148,172,63820,1,0,0:0:0
148,172,64070,1,8,0:0:0
296,92,64570,6,0,B|324:60|372:56,1,80,2|0,0:0|0:0,0:0:0
364,136,65070,2,0,B|404:132|440:156,1,80,10|0,0:0|0:0,0:0:0
388,216,65570,1,2,0:0:0
388,216,65820,2,0,B|404:252|396:296,1,80,0|10,0:0|0:0,0:0:0
320,276,66320,2,0,B|304:240|312:196,1,80,0|4,0:0|0:0,0:0:0
256,48,67070,5,8,0:0:0
256,48,67320,2,0,B|216:72|132:32|96:52,1,160
116,128,68070,1,8,0:0:0
116,128,68320,1,0,0:0:0
36,128,68570,2,0,B|16:172|56:252|28:288,2,160,0|8|0,1:0|0:0|0:0,0:0:0
76,60,69820,1,0,0:0:0
120,128,70070,2,0,P|160:136|200:120,1,80,8|0,0:0|0:0,0:0:0
236,60,70570,6,0,B|276:32|352:32|392:60,1,160,0|8,1:0|0:0,0:0:0
388,140,71320,2,0,B|472:140,2,80
308,128,72070,2,0,B|288:168|308:204,1,80,8|0,0:0|0:0,0:0:0
388,212,72570,6,0,B|392:256|376:300,1,80,0|0,1:0|0:0,0:0:0
304,364,73070,2,0,B|308:320|292:276,1,80,8|0,0:0|0:0,0:0:0
215,286,73570,2,0,B|211:242|224:208,1,80,0|0,1:0|0:0,0:0:0
304,196,74070,2,0,B|316:161|312:117,2,80,8|0|0,0:0|0:0|1:0,0:0:0
160,324,75070,5,8,0:0:0
160,324,75320,2,0,B|96:284|24:312|24:312|24:276,1,160
28,216,76070,1,8,0:0:0
28,216,76320,2,0,B|72:216|132:148|192:148,1,160
244,188,77070,2,0,B|260:144|244:108,1,80,8|0,0:0|0:0,0:0:0
300,52,77570,2,0,B|428:52,2,120,0|2|0,0:0|0:0|0:0,0:0:0
220,52,78570,6,0,B|140:32|60:52,1,160,0|8,1:0|0:0,0:0:0
64,132,79320,2,0,B|144:152|224:132,1,160,0|0,1:0|0:0,0:0:0
222,132,80070,1,8,0:0:0
264,288,80570,2,0,B|344:308|424:288,1,160,0|8,1:0|0:0,0:0:0
420,208,81320,2,0,B|340:188|260:208,1,160,0|0,1:0|0:0,0:0:0
261,207,82070,1,8,0:0:0
156,84,82570,6,0,B|116:68|76:84,1,80,2|0,0:0|0:0,0:0:0
28,148,83070,2,0,B|20:188|24:228,2,80,8|0|0,0:0|0:0|0:0,0:0:0
104,184,83820,1,0,0:0:0
104,184,84070,2,0,B|184:164|264:184,1,160,8|0,0:0|1:0,0:0:0
332,224,84820,1,0,0:0:0
332,224,85070,2,0,B|372:236|412:224,2,80,8|0|0,0:0|0:0|0:0,0:0:0
372,152,85820,1,0,0:0:0
372,152,86070,2,0,B|384:108|372:68,1,80,8|0,0:0|0:0,0:0:0
300,104,86570,6,0,B|220:124|140:104,1,160,0|8,1:0|0:0,0:0:0
64,144,87320,1,0,0:0:0
112,208,87570,2,0,B|192:188|272:208,1,160,0|8,0:0|0:0,0:0:0
328,152,88320,1,0,0:0:0
352,228,88570,2,0,B|368:256|368:288|368:288|320:328|356:384,2,160,0|8|0,1:0|0:0|0:0,0:0:0
420,188,89820,2,0,P|440:148|436:108|436:108,1,80,0|8,0:0|0:0,0:0:0
368,56,90320,2,0,P|368:16,2,40,0|8|0,0:0|0:0|0:0,0:0:0
312,128,90820,6,0,P|272:136|272:136|228:140,1,80,0|8,0:0|0:0,0:0:0
144,180,91320,2,0,B|136:136|148:96,2,80,0|0|0,0:0|0:0|0:0,0:0:0
204,252,92070,2,0,B|248:244|272:208,1,80,8|0,0:0|0:0,0:0:0
324,152,92570,2,0,B|304:112|304:72,2,80,0|0|8,1:0|0:0|0:0,0:0:0
404,164,93320,2,0,B|396:244,1,80
352,312,93820,2,0,B|384:332|428:328,2,80,0|8|0,0:0|0:0|0:0,0:0:0
284,268,94570,6,0,B|200:288|124:268,1,160,0|8,1:0|0:0,0:0:0
64,216,95320,1,0,0:0:0
116,156,95570,2,0,B|200:136|276:156,1,160,0|8,0:0|0:0,0:0:0
340,204,96320,1,0,0:0:0
416,180,96570,2,0,B|468:120|464:32,2,160,0|10|2,1:0|0:0|0:0,0:0:0
340,204,97820,1,0,0:0:0
400,260,98070,1,10,0:0:0
248,304,98570,6,0,B|152:304,1,80,2|0,0:0|0:0,0:0:0
88,304,99070,2,0,B|40:228|88:148,1,160,8|0,0:0|0:0,0:0:0
164,152,99820,1,0,0:0:0
168,232,100070,2,0,B|252:232,1,80,8|0,0:0|0:0,0:0:0
328,232,100570,2,0,B|344:188|328:152,1,80,0|0,1:0|0:0,0:0:0
296,80,101070,2,0,B|216:60|136:80,1,160,8|0,0:0|0:0,0:0:0
68,116,101820,1,0,0:0:0
136,160,102070,2,0,B|144:200|132:240,1,80,8|0,0:0|0:0,0:0:0
104,316,102570,6,0,B|184:336|268:316,1,160,0|8,1:0|0:0,0:0:0
340,296,103320,2,0,B|340:216|320:128,1,160,0|0,1:0|0:0,0:0:0
308,60,104070,2,0,B|264:56|224:64,1,80,8|0,0:0|0:0,0:0:0
148,56,104570,2,0,B|144:136|168:216,1,160,0|8,1:0|0:0,0:0:0
256,248,105320,2,0,B|300:252|340:244,1,80,0|0,1:0|0:0,0:0:0
412,192,105820,1,8,0:0:0
412,192,106320,6,0,B|456:260|432:352,1,160,2|0,0:0|0:0,0:0:0
344,356,107070,1,8,0:0:0
344,268,107320,2,0,B|264:256|184:280,1,160
104,240,108070,1,8,0:0:0
168,172,108320,2,0,B|240:196|328:176,1,160
416,204,109070,1,8,0:0:0
256,40,109570,6,0,B|256:128,1,80
204,180,110070,1,8,0:0:0
308,180,110320,1,0,0:0:0
256,240,110570,1,2,0:0:0
256,192,110820,12,0,113570,0:0:0
256,192,114070,6,0,B|240:156|240:108,1,80
180,60,114570,6,0,B|96:76|32:120,1,160,4|8,0:0|0:0,0:0:0
48,200,115320,1,0,0:0:0
48,200,115570,2,0,B|128:188,1,80
204,164,116070,1,8,0:0:0
188,244,116320,1,0,0:0:0
264,220,116570,6,0,B|304:212|348:216,1,80,0|0,1:0|0:0,0:0:0
416,136,117070,2,0,B|376:139|336:131,1,80,8|0,0:0|0:0,0:0:0
420,212,117570,2,0,B|460:220|499:216,1,80
412,296,118070,2,0,B|372:288|332:291,1,80,8|0,0:0|0:0,0:0:0
256,328,118570,6,0,B|172:352|80:324,2,160,0|8|0,1:0|0:0|0:0,0:0:0
216,256,119820,1,0,0:0:0
296,256,120070,1,8,0:0:0
392,124,120570,2,0,B|404:80|392:36,1,80,0|0,1:0|0:0,0:0:0
316,68,121070,2,0,B|236:92|156:80,1,160,8|0,0:0|0:0,0:0:0
84,48,121820,1,0,0:0:0
96,128,122070,2,0,B|104:212,1,80,8|0,0:0|0:0,0:0:0
160,264,122570,6,0,B|144:320|68:336|28:296,2,160,0|8|0,1:0|0:0|0:0,0:0:0
112,200,123820,1,0,0:0:0
192,192,124070,1,8,0:0:0
144,128,124320,2,0,B|168:84|248:72|288:104,1,160,0|0,1:0|0:0,0:0:0
300,180,125070,1,8,0:0:0
404,268,125320,2,0,B|432:216|416:148|352:124,1,160,0|0,1:0|0:0,0:0:0
292,100,126070,1,8,0:0:0
132,96,126570,6,0,B|108:120|40:84|16:108,2,120,0|8|0,1:0|0:0|0:0,0:0:0
184,36,127570,2,0,B|220:64|216:112,1,80
168,168,128070,1,8,0:0:0
88,168,128320,2,0,B|68:248|92:332,1,160,0|0,1:0|0:0,0:0:0
164,356,129070,2,0,B|248:356,1,80,8|0,0:0|0:0,0:0:0
200,284,129570,2,0,B|288:284,1,80
236,212,130070,2,0,B|324:212,1,80,8|0,0:0|0:0,0:0:0
396,212,130570,6,0,B|440:180|440:96|396:68,2,160,4|8|0,0:0|0:0|0:0,0:0:0
344,140,131820,2,0,B|260:140,1,80,0|8,0:0|0:0,0:0:0
228,68,132320,1,0,0:0:0
152,96,132570,2,0,B|112:104|72:96,2,80,0|0|8,1:0|0:0|0:0,0:0:0
204,156,133320,2,0,B|192:240|196:320,1,160
195,315,134070,1,8,0:0:0
420,272,134570,6,0,B|408:320|320:348|276:292,2,160,0|8|0,1:0|0:0|0:0,0:0:0
344,244,135820,2,0,B|332:204|348:160,1,80,0|8,0:0|0:0,0:0:0
424,144,136320,1,0,0:0:0
368,88,136570,2,0,B|340:56|296:56,1,80,0|0,1:0|0:0,0:0:0
228,92,137070,2,0,B|144:120|64:104,2,160,8|0|8,0:0|0:0|0:0,0:0:0
272,244,138570,6,0,B|356:216|436:232,2,160,0|8|0,1:0|0:0|0:0,0:0:0
216,300,139820,1,0,0:0:0
136,284,140070,1,8,0:0:0
132,204,140320,2,0,B|168:132|148:44,1,160,0|0,1:0|0:0,0:0:0
228,48,141070,1,8,0:0:0
264,120,141320,2,0,B|228:196|232:284,1,160,0|0,1:0|0:0,0:0:0
231,275,142070,1,8,0:0:0
380,332,142570,6,0,B|480:312|472:200,1,160,0|8,1:0|0:0,0:0:0
392,236,143320,2,0,B|368:180|404:112|464:108,1,160
404,48,144070,2,0,B|320:48,1,80,8|0,0:0|0:0,0:0:0
244,48,144570,2,0,B|192:120|240:200,1,160,0|8,1:0|0:0,0:0:0
320,196,145320,1,0,0:0:0
400,196,145570,2,0,B|448:260|408:352,1,160,2|10,0:0|0:0,0:0:0
248,348,146570,6,0,B|200:284|240:192,1,160,2|8,0:0|0:0,0:0:0
296,252,147320,2,0,B|334:164|286:100,1,160,0|0,0:0|0:0,0:0:0
244,32,148070,1,8,0:0:0
192,100,148320,2,0,B|148:99|128:72|128:72|86:64|44:108,1,160
28,180,149070,1,8,0:0:0
84,236,149320,2,0,B|124:248|164:228,1,80
172,148,149820,2,0,B|212:148|252:172,1,80,0|8,0:0|0:0,0:0:0
284,244,150320,2,0,B|328:236|360:212,1,80,0|0,0:0|1:0,0:0:0
256,192,150820,12,8,152570,0:0:0
256,192,168570,5,4,0:0:0
256,192,169070,1,2,0:0:0
256,64,170570,5,2,0:0:0
108,128,171070,2,0,B|24:128,2,80,8|0|0,0:0|0:0|0:0,0:0:0
188,128,171820,1,0,0:0:0
188,128,172070,2,0,B|204:168|188:208,1,80,8|0,0:0|0:0,0:0:0
108,208,172570,2,0,B|72:280|108:364,1,160,0|8,1:0|0:0,0:0:0
188,360,173320,2,0,B|224:288|188:204,1,160,0|0,1:0|0:0,0:0:0
148,136,174070,1,8,0:0:0
292,68,174570,6,0,B|384:68,1,80,0|0,1:0|0:0,0:0:0
452,68,175070,2,0,B|472:104|452:148,1,80,8|0,0:0|0:0,0:0:0
372,144,175570,1,0,0:0:0
336,216,175820,6,0,B|432:216,2,80,0|8|0,0:0|0:0|0:0,0:0:0
256,356,176820,2,0,B|256:268,2,80,0|8|0,0:0|0:0|0:0,0:0:0
176,216,177820,2,0,B|80:216,2,80,0|8|0,0:0|0:0|0:0,0:0:0
176,216,178570,1,0,1:0:0
292,104,179070,5,8,0:0:0
364,68,179320,2,0,B|408:136|380:224,1,160
384,300,180070,1,8,0:0:0
308,272,180320,2,0,B|268:196|184:168,1,160
112,184,181070,1,8,0:0:0
124,104,181320,1,0,0:0:0
40,136,181570,2,0,B|24:204|40:264,2,120,0|8|0,0:0|0:0|0:0,0:0:0
76,64,182570,6,0,B|156:44|244:60,1,160,0|8,1:0|0:0,0:0:0
328,128,183320,2,0,B|248:148|160:132,1,160
169,133,184070,1,8,0:0:0
168,292,184570,6,0,B|184:376,1,80,2|0,0:0|0:0,0:0:0
256,304,185070,2,0,B|256:224,1,80,10|0,0:0|0:0,0:0:0
344,292,185570,1,2,0:0:0
344,292,185820,2,0,B|328:376,2,80,0|10|0,0:0|0:0|0:0,0:0:0
332,212,186570,1,4,0:0:0
220,116,187070,6,0,B|212:76|220:36,2,80,8|0|0,0:0|0:0|0:0,0:0:0
232,200,187820,1,0,0:0:0
156,172,188070,2,0,B|116:164|72:168,1,80,8|0,0:0|0:0,0:0:0
8,212,188570,2,0,B|0:296|24:372,2,160,0|8|0,1:0|0:0|0:0,0:0:0
48,144,189820,1,0,0:0:0
48,144,190070,1,8,0:0:0
196,80,190570,6,0,B|272:104|352:64,1,160,0|8,1:0|0:0,0:0:0
428,48,191320,1,0,0:0:0
404,124,191570,2,0,B|400:212,1,80
312,200,192070,2,0,B|308:248|344:284,1,80,8|0,0:0|0:0,0:0:0
368,348,192570,6,0,B|328:356|284:348,1,80,0|0,1:0|0:0,0:0:0
236,288,193070,2,0,B|196:300|148:288,1,80,8|0,0:0|0:0,0:0:0
156,208,193570,2,0,B|196:196|248:208,1,80,0|0,1:0|0:0,0:0:0
308,240,194070,2,0,B|348:248|396:240,2,80,8|0|0,0:0|0:0|1:0,0:0:0
308,80,195070,5,8,0:0:0
240,36,195320,2,0,B|184:56|168:128|204:176,1,160
252,228,196070,1,8,0:0:0
280,152,196320,2,0,B|352:120|444:144,1,160
472,212,197070,1,8,0:0:0
400,244,197320,1,0,0:0:0
348,180,197570,2,0,B|336:112|356:52,2,120,0|2|0,0:0|0:0|0:0,0:0:0
320,256,198570,6,0,B|256:304|168:280,1,160,0|8,1:0|0:0,0:0:0
104,228,199320,2,0,B|168:180|256:204,1,160,0|0,1:0|0:0,0:0:0
256,204,200070,1,8,0:0:0
376,100,200570,2,0,B|312:52|224:76,1,160,0|8,1:0|0:0,0:0:0
160,128,201320,2,0,B|224:176|312:152,1,160,0|0,1:0|0:0,0:0:0
312,151,202070,1,8,0:0:0
456,280,202570,6,0,B|440:364,1,80,0|0,1:0|0:0,0:0:0
372,292,203070,2,0,B|388:208,2,80,8|0|0,0:0|0:0|0:0,0:0:0
348,368,203820,1,0,0:0:0
348,368,204070,2,0,B|269:378|189:354,1,160,8|0,0:0|1:0,0:0:0
120,312,204820,1,0,0:0:0
120,312,205070,2,0,B|80:328|60:368,2,80,8|0|0,0:0|0:0|0:0,0:0:0
196,288,205820,1,0,0:0:0
196,288,206070,2,0,B|208:244|200:204,1,80,8|0,0:0|0:0,0:0:0
120,232,206570,6,0,B|100:152|120:68,1,160,0|8,1:0|0:0,0:0:0
188,32,207320,1,0,0:0:0
256,76,207570,2,0,B|276:156|256:240,1,160,0|8,0:0|0:0,0:0:0
196,288,208320,1,0,0:0:0
244,352,208570,2,0,B|292:376|360:356|380:304,2,160,0|8|0,1:0|0:0|0:0,0:0:0
196,288,209820,1,0,0:0:0
276,280,210070,1,8,0:0:0
296,196,210320,2,0,P|336:184,2,40,0|8|2,0:0|0:0|0:0,0:0:0
228,140,210820,6,0,B|220:100|224:56,1,80,0|8,0:0|0:0,0:0:0
304,72,211320,2,0,B|344:64|388:64,1,80,0|0,1:0|0:0,0:0:0
316,152,211820,1,0,0:0:0
396,144,212070,2,0,B|416:224|396:312,1,160,8|0,0:0|1:0,0:0:0
344,360,212820,1,0,0:0:0
288,300,213070,2,0,B|248:316|204:328,2,80,8|0|0,0:0|1:0|0:0,0:0:0
308,224,213820,1,0,0:0:0
260,164,214070,2,0,B|260:120|276:76,1,80,8|0,0:0|0:0,0:0:0
352,68,214570,6,0,B|256:76|180:56,1,160,0|8,1:0|0:0,0:0:0
124,100,215320,1,0,1:0:0
172,164,215570,2,0,B|244:140|332:152,1,160,0|8,0:0|0:0,0:0:0
408,136,216320,1,0,0:0:0
384,212,216570,2,0,B|356:288|380:372,2,160,0|8|0,1:0|0:0|0:0,0:0:0
408,136,217820,1,0,0:0:0
408,136,218070,1,8,0:0:0
248,80,218570,6,0,B|152:80,1,80,0|0,1:0|0:0,0:0:0
88,80,219070,2,0,B|40:156|88:236,1,160,8|0,0:0|0:0,0:0:0
164,232,219820,1,0,0:0:0
168,152,220070,2,0,B|252:152,1,80,8|0,0:0|0:0,0:0:0
328,152,220570,2,0,B|344:196|328:232,1,80,0|0,1:0|0:0,0:0:0
296,304,221070,2,0,B|216:324|136:304,1,160,8|0,0:0|0:0,0:0:0
68,268,221820,1,0,0:0:0
136,224,222070,2,0,B|144:184|132:144,1,80,8|0,0:0|0:0,0:0:0
104,68,222570,6,0,B|184:48|268:68,1,160,0|8,1:0|0:0,0:0:0
192,136,223320,2,0,B|270:154|350:134,1,160,0|0,1:0|0:0,0:0:0
348,56,224070,2,0,B|388:44|440:52,1,80,8|0,0:0|0:0,0:0:0
440,128,224570,2,0,B|420:208|436:296,1,160,0|8,1:0|0:0,0:0:0
392,356,225320,2,0,B|352:368|312:356,1,80,0|0,1:0|0:0,0:0:0
264,292,225820,1,8,0:0:0
264,292,226320,6,0,B|184:276|100:292,1,160,0|0,1:0|0:0,0:0:0
32,256,227070,1,8,0:0:0
104,220,227320,2,0,B|144:144|144:60,1,160
220,44,228070,1,8,0:0:0
280,96,228320,2,0,B|232:160|224:248,1,160,0|0,1:0|0:0,0:0:0
308,200,229070,2,0,B|300:283|252:347,1,160,8|0,0:0|0:0,0:0:0
180,312,229820,2,0,B|136:316|100:280,1,80,0|8,0:0|0:0,0:0:0
168,236,230320,2,0,B|160:196|160:152,1,80,0|0,0:0|1:0,0:0:0
256,192,230820,12,0,233570,0:0:0
256,192,234070,6,0,B|264:232|280:272,1,80
348,304,234570,6,0,B|344:360|260:388|216:344,2,160,4|8|0,0:0|0:0|0:0,0:0:0
288,252,235820,1,0,0:0:0
364,224,236070,2,0,B|408:216|456:224,1,80,8|0,0:0|0:0,0:0:0
480,152,236570,2,0,B|480:104|472:72,1,80,0|0,1:0|0:0,0:0:0
412,20,237070,2,0,B|368:24|324:12,1,80,8|0,0:0|0:0,0:0:0
312,92,237570,2,0,B|276:82|232:86,2,80,0|0|8,0:0|0:0|0:0,0:0:0
312,252,238570,6,0,B|296:312|216:324|172:288,2,160,0|8|0,1:0|0:0|0:0,0:0:0
344,180,239820,1,0,0:0:0
264,184,240070,2,0,B|252:144|256:96,1,80,8|0,0:0|0:0,0:0:0
288,32,240570,2,0,B|244:24|204:28,1,80,0|0,1:0|0:0,0:0:0
128,24,241070,2,0,B|120:64|124:104,1,80,8|0,0:0|0:0,0:0:0
160,176,241570,2,0,B|124:192|80:192,2,80,0|0|8,0:0|0:0|0:0,0:0:0
288,80,242570,6,0,B|328:48|412:68|420:132,2,160,0|8|0,1:0|0:0|0:0,0:0:0
320,152,243820,1,0,0:0:0
240,144,244070,1,8,0:0:0
276,216,244320,2,0,B|296:300|252:376,1,160,0|0,1:0|0:0,0:0:0
204,308,245070,1,8,0:0:0
136,348,245320,2,0,B|116:264|160:188,1,160,0|0,1:0|0:0,0:0:0
236,176,246070,2,0,B|244:132|240:96,1,80,8|0,0:0|0:0,0:0:0
316,124,246570,6,0,B|376:132|440:120,2,120,0|8|0,1:0|0:0|0:0,0:0:0
272,56,247570,1,0,0:0:0
200,92,247820,2,0,B|160:100|116:92,1,80,0|8,0:0|0:0,0:0:0
40,96,248320,2,0,B|16:176|28:264,1,160,0|0,1:0|0:0,0:0:0
48,336,249070,2,0,B|140:336,1,80,8|0,0:0|0:0,0:0:0
108,260,249570,2,0,B|204:260,1,80
168,184,250070,2,0,B|264:184,1,80,8|0,0:0|0:0,0:0:0
328,184,250570,6,0,B|388:236|364:336,2,160,4|8|0,0:0|0:0|0:0,0:0:0
264,232,251820,2,0,B|220:240|180:228,2,80,0|8|0,0:0|0:0|0:0,0:0:0
228,160,252570,2,0,B|212:120|220:76,1,80,0|0,1:0|0:0,0:0:0
292,32,253070,2,0,B|308:72|300:116,1,80,8|0,0:0|0:0,0:0:0
336,180,253570,2,0,B|380:192|424:172,2,80,0|0|8,0:0|0:0|0:0,0:0:0
176,76,254570,6,0,B|116:64|68:116|80:172,2,160,0|8|0,1:0|0:0|0:0,0:0:0
256,60,255820,1,0,0:0:0
232,136,256070,2,0,B|224:176|236:220,1,80,8|0,0:0|0:0,0:0:0
188,280,256570,2,0,B|224:300|272:292,1,80,0|0,1:0|0:0,0:0:0
328,232,257070,2,0,P|352:276,2,40,8|0|0,0:0|0:0|0:0,0:0:0
328,232,257570,1,0,0:0:0
236,104,258070,1,8,0:0:0
116,212,258570,6,0,B|80:252|108:332|176:328,2,160,0|8|0,1:0|0:0|0:0,0:0:0
184,172,259820,1,0,0:0:0
184,252,260070,1,8,0:0:0
184,252,260320,2,0,B|264:264|344:244,1,160,0|0,1:0|0:0,0:0:0
420,220,261070,1,8,0:0:0
356,168,261320,2,0,B|340:124|344:80,1,80,0|0,1:0|0:0,0:0:0
416,36,261820,2,0,B|432:80|428:124,2,80,0|8|0,0:0|0:0|0:0,0:0:0
340,16,262570,6,0,B|264:32|176:24,1,160,0|8,1:0|0:0,0:0:0
104,40,263320,2,0,B|96:120|120:200,1,160,0|0,1:0|0:0,0:0:0
200,192,264070,1,8,0:0:0
188,112,264320,2,0,B|272:96|356:112,1,160
347,110,265070,1,8,0:0:0
428,248,265570,6,0,B|416:328,1,80,2|0,0:0|0:0,0:0:0
344,296,266070,2,0,B|276:340,1,80,8|0,0:0|0:0,0:0:0
260,260,266570,6,0,B|176:280|96:248,1,160,2|8,0:0|0:0,0:0:0
64,180,267320,2,0,B|148:160|228:192,1,160
300,200,268070,1,8,0:0:0
380,188,268320,2,0,B|424:120|408:32,1,160
328,36,269070,1,8,0:0:0
248,32,269320,2,0,B|232:72|252:120,1,80
168,124,269820,2,0,B|180:168|224:188,1,80,0|8,0:0|0:0,0:0:0
140,236,270320,1,0,0:0:0
216,272,270570,6,0,B|400:272,1,160,0|8,1:0|0:0,0:0:0
416,196,271320,2,0,B|232:196,1,160,0|0,0:0|0:0,0:0:0
256,196,272070,1,8,0:0:0
256,196,272570,6,0,B|256:108,1,80,2|0,0:0|0:0,0:0:0
200,56,273070,2,0,B|156:52|116:64,2,80,10|0|0,0:0|0:0|0:0,0:0:0
296,56,273820,2,0,B|340:52|380:64,2,80,2|8|0,0:0|0:0|0:0,0:0:0
296,56,274570,1,4,0:0:0
