osu file format v14

[General]
AudioFilename: Chata - Nocte of desperatio.mp3
AudioLeadIn: 0
PreviewTime: 79062
Countdown: 0
SampleSet: Soft
StackLeniency: 0.7
Mode: 0
LetterboxInBreaks: 1
WidescreenStoryboard: 0

[Editor]
Bookmarks: 17837,39878,59470,79062,98654,118246,137837,157429,177021,196613,216205,235797,255388,274980
DistanceSpacing: 1.6
BeatDivisor: 8
GridSize: 32
TimelineZoom: 1.9

[Metadata]
Title:Nocte of desperatio
TitleUnicode:Nocte of desperatio
Artist:Chata
ArtistUnicode:茶太
Creator:Giralda
Version:Walpurgisnacht
Source:魔法少女まどか☆マギカ
Tags:agedum! puella magi madoka magica magical girl mahou shoujo hir kajiura yuki visual work station Theme of Walpurgisnacht Surgam identidem captin1
BeatmapID:429789
BeatmapSetID:178685

[Difficulty]
HPDrainRate:6.5
CircleSize:4
OverallDifficulty:8
ApproachRate:9
SliderMultiplier:2.6
SliderTickRate:1

[Events]
//Background and Video events
0,0,"21428206 (1).jpg",0,0
//Break Periods
2,98854,115197
//Storyboard Layer 0 (Background)
//Storyboard Layer 1 (Fail)
//Storyboard Layer 2 (Pass)
//Storyboard Layer 3 (Foreground)
//Storyboard Sound Samples

[TimingPoints]
695,612.244897959184,4,2,0,50,1,0
695,-133.333333333333,4,2,1,50,0,0
17837,-100,4,2,1,70,0,0
20286,-100,4,2,2,70,0,0
20439,-100,4,2,1,70,0,0
30082,-100,4,2,2,70,0,0
30388,-100,4,2,1,70,0,0
39878,-100,4,2,2,60,0,0
39955,-100,4,2,1,60,0,0
49674,-100,4,2,2,60,0,0
49751,-100,4,2,1,60,0,0
57021,-100,4,2,2,60,0,0
57098,-100,4,2,1,60,0,0
59470,-100,4,2,2,60,0,0
59547,-100,4,2,1,60,0,0
69266,-100,4,2,2,60,0,0
69572,-100,4,2,1,60,0,0
74164,-100,4,2,2,60,0,0
74470,-100,4,2,1,60,0,0
74776,-100,4,2,2,60,0,0
75082,-100,4,2,1,60,0,0
76001,-133.333333333333,4,2,1,60,0,0
78450,-100,4,2,1,70,0,0
79062,-83.3333333333333,4,2,2,80,0,1
79138,-83.3333333333333,4,2,1,80,0,1
88858,-83.3333333333333,4,2,2,80,0,1
88934,-83.3333333333333,4,2,1,80,0,1
93756,-83.3333333333333,4,2,2,80,0,1
93832,-83.3333333333333,4,2,1,80,0,1
96205,-83.3333333333333,4,2,2,80,0,1
96281,-83.3333333333333,4,2,1,80,0,1
98654,-100,4,2,2,80,0,0
98730,-100,4,2,1,80,0,0
128041,-100,4,2,2,80,0,0
128348,-100,4,2,1,80,0,0
136001,-100,4,2,2,80,0,0
136154,-100,4,2,1,80,0,0
137761,-100,4,2,1,60,0,0
152531,-100,4,2,2,60,0,0
152608,-100,4,2,1,60,0,0
154980,-100,4,2,2,60,0,0
155057,-100,4,2,1,60,0,0
156817,-83.3333333333333,4,2,1,70,0,0
157123,-83.3333333333333,4,2,1,80,0,1
157429,-83.3333333333333,4,2,2,80,0,1
157735,-83.3333333333333,4,2,1,80,0,1
167225,-83.3333333333333,4,2,2,80,0,1
167531,-83.3333333333333,4,2,1,80,0,1
172123,-83.3333333333333,4,2,2,80,0,1
172429,-83.3333333333333,4,2,1,80,0,1
174572,-83.3333333333333,4,2,2,80,0,1
174725,-83.3333333333333,4,2,1,80,0,1
175031,-100,4,2,1,80,0,1
175643,-83.3333333333333,4,2,1,80,0,1
177021,-83.3333333333333,4,2,2,80,0,1
177098,-83.3333333333333,4,2,1,80,0,1
186817,-83.3333333333333,4,2,2,80,0,1
186893,-83.3333333333333,4,2,1,80,0,1
191715,-83.3333333333333,4,2,2,80,0,1
191791,-83.3333333333333,4,2,1,80,0,1
196613,-100,4,2,1,60,0,0
206409,-100,4,2,2,60,0,0
206715,-100,4,2,1,60,0,0
211307,-100,4,2,2,60,0,0
211613,-100,4,2,1,60,0,0
216205,-100,4,2,2,60,0,0
216281,-100,4,2,1,60,0,0
226001,-100,4,2,2,60,0,0
226077,-100,4,2,1,60,0,0
233348,-100,4,2,2,60,0,0
233424,-100,4,2,1,60,0,0
235797,-83.3333333333333,4,2,2,80,0,1
235950,-83.3333333333333,4,2,1,80,0,1
245592,-83.3333333333333,4,2,2,80,0,1
245899,-83.3333333333333,4,2,1,80,0,1
250490,-83.3333333333333,4,2,2,80,0,1
250797,-83.3333333333333,4,2,1,80,0,1
253552,-83.3333333333333,4,2,2,80,0,1
253628,-83.3333333333333,4,2,1,80,0,1
255388,-83.3333333333333,4,2,2,80,0,1
255465,-83.3333333333333,4,2,1,80,0,1
265184,-83.3333333333333,4,2,2,80,0,1
265261,-83.3333333333333,4,2,1,80,0,1
270082,-83.3333333333333,4,2,2,80,0,1
270159,-83.3333333333333,4,2,1,80,0,1
273143,-83.3333333333333,4,2,2,80,0,1
273220,-83.3333333333333,4,2,1,80,0,1
274980,-133.333333333333,4,2,1,50,0,0
292123,681.818181818182,4,2,1,50,1,0
293486,731.707317073171,4,2,1,50,1,8
293486,-133.333333333333,4,2,1,50,0,8
294217,769.230769230769,4,2,1,50,1,8
294986,789.473684210526,4,2,1,50,1,0
294986,-133.333333333333,4,2,1,50,0,8
295775,659.340659340659,4,2,1,50,1,8
296434,722.89156626506,4,2,1,50,1,8
296434,-200,4,2,1,50,0,8
297879,705.882352941176,4,2,1,50,1,0
297879,-200,4,2,1,70,0,0
303526,689.655172413793,4,2,1,50,1,0
304905,731.707317073171,4,2,1,50,1,8
304905,-200,4,2,1,50,0,8
305636,750,4,2,1,50,1,8
306386,833.333333333333,4,2,1,50,1,0
306386,-200,4,2,1,50,0,0
307219,779.220779220779,4,2,1,50,1,8
307998,-200,4,2,1,50,0,0
309556,722.89156626506,4,2,1,50,1,0
309556,-200,4,2,1,50,0,0
311001,800,4,2,1,50,1,8
312601,769.230769230769,4,2,1,50,1,0
315677,1043.47826086957,4,2,1,50,1,0
315677,-200,4,2,1,5,0,0
319850,-200,4,2,1,20,0,0

[Colours]
Combo1 : 192,192,192
Combo2 : 75,152,152
Combo3 : 245,180,189
Combo4 : 27,82,112

[HitObjects]
311,275,695,6,0,P|312:312|310:340,2,48.750001859665,4|2|2,0:0|0:1|0:1,0:0:0:0:
252,211,1154,1,2,0:1:0:0:
173,250,1307,2,0,P|131:261|56:254,1,97.50000371933,2|2,0:1|0:1,0:0:0:0:
49,131,1766,2,0,P|47:171|44:196,1,48.750001859665,2|2,0:1|0:1,0:0:0:0:
139,161,2072,2,0,P|155:124|167:50,1,97.50000371933,2|2,0:1|0:1,0:0:0:0:
248,38,2531,2,0,L|368:52,2,97.50000371933,2|2|2,0:1|0:1|0:1,0:0:0:0:
282,173,3297,6,0,P|281:148|277:124,1,48.750001859665,2|2,0:1|0:1,0:0:0:0:
209,224,3603,1,2,0:1:0:0:
287,262,3756,2,0,P|330:262|401:243,1,97.50000371933,2|2,0:1|0:1,0:0:0:0:
469,264,4215,2,0,P|483:310|482:367,2,97.50000371933,2|2|2,0:1|0:1|0:1,0:0:0:0:
488,178,4980,1,2,0:1:0:0:
282,40,5286,1,2,0:1:0:0:
282,40,5439,1,2,0:1:0:0:
227,107,5592,6,0,P|228:143|230:168,2,48.750001859665,2|2|2,0:1|0:1|0:1,0:0:0:0:
313,124,6052,1,2,0:1:0:0:
307,211,6205,2,0,P|305:244|311:322,1,97.50000371933,2|2,0:1|0:1,0:0:0:0:
191,316,6664,2,0,P|230:331|242:337,1,48.750001859665,2|2,0:1|0:1,0:0:0:0:
109,346,6970,2,0,P|94:311|83:238,1,97.50000371933,2|2,0:1|0:1,0:0:0:0:
150,167,7429,2,0,L|145:65,2,97.50000371933,2|2|2,0:1|0:1|0:1,0:0:0:0:
221,281,8195,6,0,P|223:313|223:341,1,48.750001859665,2|2,0:1|0:1,0:0:0:0:
277,210,8501,1,2,0:1:0:0:
330,137,8654,2,0,P|328:98|330:27,1,97.50000371933,2|2,0:1|0:1,0:0:0:0:
414,22,9113,1,2,0:1:0:0:
414,22,9266,2,0,P|447:24|467:23,1,48.750001859665,2|2,0:1|0:1,0:0:0:0:
484,215,9725,1,2,0:1:0:0:
399,195,9878,2,0,P|365:195|338:198,1,48.750001859665,2|2,0:1|0:1,0:0:0:0:
333,206,10108,1,2,0:1:0:0:
316,216,10184,2,0,P|314:243|315:267,1,48.750001859665,2|2,0:1|0:1,0:0:0:0:
242,351,10490,6,0,P|233:319|225:300,2,48.750001859665,2|2|2,0:1|0:1|0:1,0:0:0:0:
141,300,10950,1,2,0:1:0:0:
186,224,11103,2,0,P|195:182|204:118,1,97.50000371933,2|2,0:1|0:1,0:0:0:0:
273,73,11562,2,0,P|277:100|285:129,1,48.750001859665,2|2,0:1|0:1,0:0:0:0:
360,162,11868,2,0,P|366:210|376:257,1,97.50000371933,2|2,0:1|0:1,0:0:0:0:
423,332,12327,1,2,0:1:0:0:
256,268,12633,1,2,0:1:0:0:
89,331,12939,6,0,P|88:307|86:283,2,48.750001859665,2|2|2,0:1|0:1|0:1,0:0:0:0:
23,223,13399,1,2,0:1:0:0:
94,173,13552,2,0,P|134:171|210:177,1,97.50000371933,2|2,0:1|0:1,0:0:0:0:
306,206,14011,2,0,P|317:173|329:102,2,97.50000371933,2|2|2,0:1|0:1|0:1,0:0:0:0:
254,276,14776,1,2,0:1:0:0:
415,346,15082,1,2,0:1:0:0:
415,346,15235,1,2,0:1:0:0:
383,264,15388,6,0,P|378:229|376:211,2,48.750001859665,2|2|2,0:1|0:1|0:1,0:0:0:0:
494,314,15848,1,2,0:1:0:0:
493,226,16001,2,0,P|487:190|483:113,1,97.50000371933,2|2,0:1|0:1,0:0:0:0:
430,34,16460,2,0,P|454:38|479:40,1,48.750001859665,2|2,0:1|0:1,0:0:0:0:
361,87,16766,2,0,P|335:88|253:75,1,97.50000371933,2|2,0:1|0:1,0:0:0:0:
186,38,17225,1,2,0:1:0:0:
199,173,17531,1,0,3:0:0:0:
199,173,17608,1,0,3:0:0:0:
199,173,17684,1,0,3:0:0:0:
118,283,17837,6,0,P|177:260|241:271,1,130,4|0,0:3|0:0,0:0:0:0:
443,84,18450,1,12,0:0:0:0:
345,285,18756,1,0,3:0:0:0:
345,285,18832,1,0,3:0:0:0:
345,285,18909,1,0,3:0:0:0:
276,141,19062,2,0,P|227:97|162:100,1,130,2|0,0:0|0:0,0:0:0:0:
109,160,19521,1,0,0:0:0:0:
175,242,19674,2,0,L|198:181,1,65,2|0,0:1|0:0,0:0:0:0:
22,114,19980,2,0,L|33:181,1,65,2|0,0:1|0:0,0:0:0:0:
65,304,20286,6,0,P|94:295|130:295,1,65,6|0,0:0|0:0,0:0:0:0:
251,247,20592,2,0,P|299:288|362:286,2,130,0|8|0,0:0|0:0|0:0,0:0:0:0:
348,150,21358,2,0,L|323:220,1,65,2|0,0:1|0:0,0:0:0:0:
179,35,21664,2,0,L|204:105,1,65,2|0,0:1|0:0,0:0:0:0:
273,0,21970,1,2,0:1:0:0:
350,77,22123,2,0,P|406:47|469:58,1,130,8|8,0:0|0:0,0:0:0:0:
507,136,22582,1,0,0:0:0:0:
209,143,22735,6,0,L|267:106,1,65,0|2,0:0|0:1,0:0:0:0:
375,117,23041,2,0,P|401:174|374:231,2,130,2|8|0,0:0|0:0|0:0,0:0:0:0:
468,249,23807,2,0,L|482:314,1,65,2|0,0:1|0:0,0:0:0:0:
335,330,24113,2,0,B|272:299|273:354|209:325,1,130,2|2,0:1|0:1,0:0:0:0:
116,271,24572,2,0,P|103:300|97:332,1,65,8|0,0:0|0:0,0:0:0:0:
206,175,24878,2,0,P|218:204|224:236,1,65,8|0,0:0|0:0,0:0:0:0:
55,116,25184,6,0,L|74:186,1,65,2|2,0:1|0:1,0:0:0:0:
134,66,25490,2,0,L|267:50,2,130,2|8|2,0:0|0:0|0:1,0:0:0:0:
266,131,26256,2,0,L|330:123,1,65,2|0,0:1|0:0,0:0:0:0:
468,231,26562,2,0,L|403:223,1,65,2|0,0:1|0:0,0:0:0:0:
285,211,26868,1,2,0:1:0:0:
285,211,27021,2,0,P|263:272|284:332,1,130,8|8,0:0|0:0,0:0:0:0:
378,352,27480,1,0,0:0:0:0:
175,238,27633,6,0,P|143:242|111:248,1,65,2|2,0:1|0:1,0:0:0:0:
38,175,27939,1,2,0:0:0:0:
38,175,28092,1,2,0:1:0:0:
119,118,28246,2,0,P|182:124|233:86,1,130,8|2,0:0|0:1,0:0:0:0:
303,173,28705,2,0,L|380:186,1,65,2|0,0:1|0:0,0:0:0:0:
421,40,29011,2,0,L|440:102,1,65,2|0,0:1|0:0,0:0:0:0:
460,300,29317,1,2,0:1:0:0:
460,300,29470,2,0,L|450:233,1,65,8|0,0:0|0:0,0:0:0:0:
345,347,29776,1,0,0:0:0:0:
345,347,29929,1,8,0:0:0:0:
266,210,30082,6,0,P|206:237|142:218,2,130,6|2|8,0:0|0:0|0:0,0:0:0:0:
316,294,30848,1,0,0:0:0:0:
200,155,31001,1,0,0:1:0:0:
132,294,31154,2,0,L|145:374,1,65,2|2,0:1|0:0,0:0:0:0:
200,155,31460,2,0,L|177:15,1,130,2|2,0:1|0:1,0:0:0:0:
369,129,31919,2,0,P|366:161|358:192,1,65,8|0,0:0|0:0,0:0:0:0:
165,240,32225,2,0,P|196:231|228:229,1,65,8|0,0:0|0:0,0:0:0:0:
329,364,32531,6,0,P|320:332|318:300,1,65,2|2,0:1|0:1,0:0:0:0:
369,129,32837,2,0,P|398:185|384:247,2,130,2|8|2,0:0|0:0|0:1,0:0:0:0:
293,185,33603,2,0,L|222:203,1,65,2|0,0:1|0:0,0:0:0:0:
67,128,33909,2,0,L|130:143,1,65,2|0,0:1|0:0,0:0:0:0:
369,129,34215,1,2,0:1:0:0:
215,289,34368,2,0,B|170:293|170:293|147:323|147:323|101:327,2,130,8|8|2,0:0|0:0|0:1,0:0:0:0:
43,237,35133,6,0,L|30:165,1,65,2|2,0:1|0:0,0:0:0:0:
105,102,35439,1,2,0:1:0:0:
105,102,35592,2,0,P|135:158|196:174,1,130,8|2,0:0|0:1,0:0:0:0:
234,266,36052,2,0,P|266:259|303:255,1,65,2|0,0:1|0:0,0:0:0:0:
389,177,36358,2,0,P|356:173|325:165,1,65,2|0,0:0|0:0,0:0:0:0:
259,78,36664,1,2,0:1:0:0:
259,78,36817,2,0,P|281:137|256:195,1,130,8|8,0:0|0:0,0:0:0:0:
237,213,37200,1,8,0:0:0:0:
213,224,37276,1,8,0:0:0:0:
113,74,37429,6,0,L|192:59,1,65,4|0,0:0|0:0,0:0:0:0:
81,169,37735,2,0,L|17:156,1,65,4|0,3:0|0:0,0:0:0:0:
84,337,38041,2,0,P|139:304|201:315,1,130,14|8,0:0|0:3,0:0:0:0:
230,336,38424,1,8,0:3:0:0:
230,336,38501,2,0,L|247:273,1,65,8|0,0:3|0:0,0:0:0:0:
203,124,38807,5,8,3:0:0:0:
207,149,38883,1,8,0:3:0:0:
211,174,38960,1,8,3:0:0:0:
245,49,39113,1,8,3:0:0:0:
244,49,39266,2,0,P|189:82|126:77,1,130,12|8,0:0|0:0,0:0:0:0:
3,189,39725,6,0,L|11:124,1,65,0|4,0:0|0:0,0:0:0:0:
38,299,40031,1,2,0:1:0:0:
144,272,40184,2,0,P|175:278|207:283,1,65,2|0,0:0|0:0,0:0:0:0:
388,208,40490,2,0,P|320:192|248:208,1,130,8|2,0:0|0:1,0:0:0:0:
438,306,40950,2,0,P|472:326|500:331,1,65,2|2,0:1|0:0,0:0:0:0:
318,288,41256,2,0,P|278:288|247:301,1,65,2|0,0:1|0:0,0:0:0:0:
72,356,41562,1,2,0:1:0:0:
16,272,41715,2,0,L|12:200,1,65,8|0,0:0|0:0,0:0:0:0:
112,264,42021,1,2,0:1:0:0:
236,120,42327,6,0,L|240:40,1,65,2|2,0:1|0:1,0:0:0:0:
328,96,42633,2,0,L|332:16,1,65,2|2,0:0|0:1,0:0:0:0:
376,180,42939,2,0,P|368:228|304:288,1,130,8|2,0:0|0:1,0:0:0:0:
220,224,43399,1,2,0:1:0:0:
220,224,43705,2,0,L|228:360,1,130,2|2,0:1|0:1,0:0:0:0:
308,324,44164,2,0,P|344:324|380:332,1,65,8|0,0:0|0:0,0:0:0:0:
144,336,44470,2,0,P|108:336|72:328,1,65,2|0,0:1|0:0,0:0:0:0:
24,200,44776,5,2,0:1:0:0:
24,200,44929,1,2,0:1:0:0:
113,254,45082,2,0,L|191:250,1,65,2|2,0:0|0:1,0:0:0:0:
225,56,45388,2,0,P|219:116|228:192,1,130,8|2,0:0|0:1,0:0:0:0:
268,332,45848,2,0,P|273:292|275:259,1,65,2|2,0:1|0:0,0:0:0:0:
312,111,46154,2,0,P|314:143|318:175,1,65,2|0,0:1|0:0,0:0:0:0:
411,228,46460,1,2,0:1:0:0:
504,280,46613,2,0,P|428:300|390:341,1,130,8|2,0:0|0:1,0:0:0:0:
472,124,47225,6,0,L|464:56,1,65,2|2,0:1|0:1,0:0:0:0:
312,16,47531,2,0,L|320:84,1,65,2|2,0:0|0:1,0:0:0:0:
384,264,47837,2,0,P|392:228|364:132,1,130,8|2,0:0|0:1,0:0:0:0:
235,168,48297,2,0,P|201:169|161:167,2,65,2|2|8,0:1|0:0|0:0,0:0:0:0:
294,241,48756,1,2,0:1:0:0:
294,241,48909,1,2,0:1:0:0:
104,223,49062,2,0,P|89:180|91:92,1,130,12|8,0:0|0:0,0:0:0:0:
187,76,49521,1,8,0:0:0:0:
176,288,49674,6,0,P|136:312|48:306,1,130,6|2,0:0|0:0,0:0:0:0:
356,272,50286,2,0,P|391:274|433:269,1,65,8|0,0:0|0:0,0:0:0:0:
292,352,50592,1,2,0:1:0:0:
283,174,50746,2,0,P|278:132|284:95,1,65,2|2,0:1|0:0,0:0:0:0:
379,120,51052,2,0,P|407:100|439:88,1,65,2|0,0:1|0:0,0:0:0:0:
453,208,51358,1,2,0:1:0:0:
351,271,51511,2,0,L|215:279,1,130,8|2,0:0|0:1,0:0:0:0:
24,80,52123,6,0,P|64:96|88:100,1,65,2|2,0:1|0:1,0:0:0:0:
216,52,52429,2,0,P|173:58|150:66,1,65,2|2,0:0|0:1,0:0:0:0:
152,144,52735,2,0,P|184:168|276:176,1,130,8|2,0:0|0:1,0:0:0:0:
319,92,53195,1,2,0:1:0:0:
319,92,53501,2,0,L|326:238,1,130,2|2,0:1|0:1,0:0:0:0:
248,322,53960,2,0,L|251:243,1,65,8|0,0:0|0:0,0:0:0:0:
414,211,54266,2,0,L|411:290,1,65,2|0,0:1|0:0,0:0:0:0:
279,317,54572,6,0,P|244:322|198:323,1,65,2|2,0:1|0:1,0:0:0:0:
93,195,54878,2,0,P|125:196|157:202,1,65,2|2,0:0|0:1,0:0:0:0:
373,296,55184,2,0,P|435:284|478:236,1,130,8|2,0:0|0:1,0:0:0:0:
304,228,55643,2,0,P|260:192|248:108,1,130,2|8,0:1|0:0,0:0:0:0:
324,8,56103,2,0,P|313:43|297:75,1,65,2|2,0:1|0:1,0:0:0:0:
171,91,56409,2,0,L|94:93,1,65,8|0,0:0|0:0,0:0:0:0:
17,229,56715,2,0,L|93:226,1,65,2|8,0:1|0:0,0:0:0:0:
256,168,57021,5,6,0:0:0:0:
236,288,57174,2,0,L|248:320,2,32.5,8|8|8,0:0|3:0|0:0,0:0:0:0:
203,36,57633,2,0,P|265:23|324:47,1,130,12|2,0:0|0:1,0:0:0:0:
341,70,58016,1,8,0:3:0:0:
353,94,58092,1,8,0:3:0:0:
364,212,58246,6,0,L|368:280,1,65,8|8,0:2|0:3,0:0:0:0:
256,168,58552,2,0,L|260:100,1,65,4|8,0:3|0:3,0:0:0:0:
428,148,58858,1,4,0:3:0:0:
364,296,59011,1,4,0:3:0:0:
204,272,59164,2,0,L|140:260,1,65,4|4,0:3|0:3,0:0:0:0:
263,104,59470,5,6,0:0:0:0:
263,103,59623,2,0,P|260:135|256:167,1,65,2|2,0:1|0:0,0:0:0:0:
204,272,59929,1,2,0:1:0:0:
207,47,60082,2,0,P|265:23|322:50,1,130,8|2,0:0|0:1,0:0:0:0:
322,50,60541,1,2,0:1:0:0:
154,135,60695,2,0,P|121:133|89:129,1,65,2|2,0:0|0:1,0:0:0:0:
204,272,61001,2,0,P|236:268|268:266,1,65,0|2,0:0|0:1,0:0:0:0:
431,260,61307,2,0,P|403:204|424:145,2,130,8|2|2,0:0|0:1|0:1,0:0:0:0:
491,196,62072,5,2,0:1:0:0:
340,118,62225,2,0,P|334:86|332:53,1,65,2|2,0:0|0:1,0:0:0:0:
267,162,62531,2,0,P|288:222|271:283,1,130,8|2,0:0|0:1,0:0:0:0:
217,350,62990,2,0,P|186:338|154:334,1,65,2|0,0:1|0:0,0:0:0:0:
70,342,63297,1,2,0:1:0:0:
138,251,63450,2,0,P|145:218|148:186,1,65,0|2,0:0|0:1,0:0:0:0:
52,101,63756,2,0,P|55:133|62:165,1,65,8|2,0:0|0:1,0:0:0:0:
117,27,64062,1,2,0:1:0:0:
117,27,64215,1,0,0:0:0:0:
181,100,64368,6,0,P|211:111|243:114,1,65,2|2,0:1|0:1,0:0:0:0:
395,58,64674,2,0,P|362:60|332:72,1,65,2|2,0:0|0:1,0:0:0:0:
322,276,64980,2,0,P|344:217|320:159,1,130,8|2,0:0|0:1,0:0:0:0:
320,159,65439,1,2,0:1:0:0:
178,303,65592,2,0,L|113:299,1,65,0|2,0:0|0:1,0:0:0:0:
188,218,65899,2,0,L|253:222,1,65,0|2,0:0|0:1,0:0:0:0:
157,106,66205,2,0,P|113:151|50:160,1,130,8|2,0:0|0:1,0:0:0:0:
50,160,66664,1,2,0:1:0:0:
247,79,66817,6,0,B|312:54|312:100|373:78,1,130,2|2,0:1|0:0,0:0:0:0:
425,22,67276,1,2,0:1:0:0:
375,173,67429,2,0,L|390:241,1,65,8|0,0:0|0:0,0:0:0:0:
466,326,67735,2,0,L|481:263,1,65,2|2,0:1|0:1,0:0:0:0:
293,320,68041,2,0,L|308:388,2,65,0|2|0,0:0|0:1|0:0,0:0:0:0:
302,125,68501,1,2,0:1:0:0:
258,253,68654,1,8,0:0:0:0:
222,122,68807,1,8,0:0:0:0:
326,207,68960,1,8,0:0:0:0:
190,201,69113,1,8,0:0:0:0:
302,125,69266,6,0,P|367:122|432:120,1,130,6|2,0:0|0:0,0:0:0:0:
432,120,69725,1,2,0:1:0:0:
344,267,69878,2,0,B|328:238|328:238|326:200,1,65,8|0,0:0|0:0,0:0:0:0:
485,192,70184,1,2,0:1:0:0:
456,315,70337,2,0,B|410:324|410:324|391:350|391:350|340:358,1,130,2|2,0:1|0:1,0:0:0:0:
200,286,70797,2,0,P|218:314|229:344,1,65,2|0,0:1|0:0,0:0:0:0:
362,220,71103,2,0,P|344:247|333:277,1,65,8|0,0:0|0:0,0:0:0:0:
220,137,71409,2,0,P|238:165|249:195,1,65,2|0,0:1|0:0,0:0:0:0:
117,301,71715,1,0,0:0:0:0:
117,301,71868,1,2,0:1:0:0:
47,194,72021,6,0,P|44:162|53:131,1,65,2|2,0:0|0:1,0:0:0:0:
204,11,72327,2,0,B|206:61|206:61|220:83|220:83|220:139,1,130,8|2,0:0|0:1,0:0:0:0:
334,292,72786,2,0,B|334:238|334:238|320:216|320:216|318:166,1,130,2|2,0:1|0:1,0:0:0:0:
327,74,73246,2,0,L|391:81,1,65,2|2,0:1|0:1,0:0:0:0:
447,24,73552,2,0,P|425:84|441:146,1,130,8|2,0:0|0:1,0:0:0:0:
441,146,74011,1,0,0:0:0:0:
307,119,74164,6,0,P|328:179|312:241,1,130,6|2,0:0|0:0,0:0:0:0:
448,325,74623,1,2,0:1:0:0:
448,325,74776,2,0,B|406:330|406:330|367:314|367:314|323:322,1,130,4|2,0:0|0:1,0:0:0:0:
196,246,75235,2,0,P|220:304|201:365,1,130,2|2,0:1|0:1,0:0:0:0:
66,310,75695,2,0,L|147:308,1,65,2|2,0:1|0:1,0:0:0:0:
112,88,76001,6,0,B|96:127|136:148|115:182,1,97.50000371933,8|2,0:0|0:1,0:0:0:0:
64,233,76460,1,0,0:0:0:0:
210,101,76613,2,0,P|216:52|207:4,2,97.50000371933,4|8|8,0:0|0:0|0:0,0:0:0:0:
198,330,77531,1,8,0:0:0:0:
221,183,77684,1,12,0:0:0:0:
336,276,77837,1,8,0:3:0:0:
167,250,77990,1,8,0:3:0:0:
306,197,78143,1,4,0:3:0:0:
282,344,78297,1,4,0:3:0:0:
67,300,78450,6,0,B|61:253|61:253|76:226|76:226|70:174,1,130,12|4,0:0|0:3,0:0:0:0:
429,62,79062,5,6,0:0:0:0:
218,94,79368,2,0,P|179:97|141:98,1,77.999997619629,2|2,0:0|0:1,0:0:0:0:
222,194,79674,2,0,P|258:179|293:162,1,77.999997619629,8|0,0:0|0:0,0:0:0:0:
365,93,79980,1,2,0:1:0:0:
145,179,80133,2,0,P|137:236|139:346,1,155.999995239258,2|8,0:1|0:0,0:0:0:0:
230,376,80592,1,2,0:1:0:0:
51,193,80899,2,0,P|43:136|42:106,1,77.999997619629,8|0,0:0|0:0,0:0:0:0:
198,21,81205,2,0,P|195:59|189:98,1,77.999997619629,2|0,0:1|0:0,0:0:0:0:
203,262,81511,6,0,P|250:278|337:214,1,155.999995239258,2|0,0:1|0:0,0:0:0:0:
139,204,81970,1,2,0:1:0:0:
120,289,82123,2,0,P|117:327|110:366,1,77.999997619629,8|0,0:0|0:0,0:0:0:0:
40,135,82429,1,2,0:1:0:0:
40,135,82582,1,2,0:1:0:0:
245,40,82735,2,0,P|265:82|214:175,2,155.999995239258,2|2|8,0:0|0:1|0:0,0:0:0:0:
139,204,83501,1,2,0:1:0:0:
330,158,83654,2,0,P|371:157|408:158,1,77.999997619629,2|0,0:1|0:0,0:0:0:0:
214,272,83960,5,2,0:1:0:0:
139,204,84113,2,0,P|130:148|133:35,1,155.999995239258,2|2,0:1|0:1,0:0:0:0:
330,158,84572,1,8,0:0:0:0:
120,289,84878,2,0,P|169:285|203:286,1,77.999997619629,2|2,0:1|0:1,0:0:0:0:
381,315,85184,1,2,0:0:0:0:
296,261,85337,1,8,0:0:0:0:
381,315,85490,2,0,P|368:260|363:156,1,155.999995239258,2|8,0:1|0:0,0:0:0:0:
161,41,86103,2,0,P|158:80|152:119,1,77.999997619629,2|0,0:1|0:0,0:0:0:0:
37,246,86409,6,0,P|79:206|174:218,1,155.999995239258,2|0,0:1|0:0,0:0:0:0:
59,335,86868,1,2,0:1:0:0:
22,148,87021,2,0,P|72:125|192:138,1,155.999995239258,8|2,0:0|0:1,0:1:0:0:
366,212,87480,1,2,0:1:0:0:
272,247,87633,2,0,B|247:217|247:217|237:167|248:84,1,155.999995239258,2|2,0:0|0:1,0:0:0:0:
343,305,88092,1,2,0:1:0:0:
155,288,88246,2,0,P|156:249|160:211,1,77.999997619629,8|0,0:0|0:0,0:0:0:0:
323,157,88552,1,8,0:0:0:0:
256,337,88705,1,8,0:0:0:0:
256,77,88858,5,6,0:0:0:0:
358,81,89011,2,0,P|396:121|364:228,1,155.999995239258,2|2,0:1|0:1,0:0:0:0:
188,289,89470,1,8,0:0:0:0:
475,303,89776,2,0,P|436:296|387:295,1,77.999997619629,2|2,0:1|0:1,0:0:0:0:
218,333,90082,1,2,0:0:0:0:
281,255,90235,1,8,0:0:0:0:
218,333,90388,2,0,P|257:340|306:341,1,77.999997619629,2|0,0:1|0:0,0:0:0:0:
499,209,90695,2,0,P|460:210|421:217,1,77.999997619629,8|0,0:0|0:0,0:0:0:0:
305,36,91001,2,0,P|298:75|297:124,1,77.999997619629,2|0,0:1|0:0,0:0:0:0:
216,303,91307,6,0,P|284:333|350:296,2,155.999995239258,2|2|8,0:1|0:1|0:0,0:0:0:0:
136,179,92072,2,0,B|138:229|138:229|112:277|112:277|113:328,1,155.999995239258,2|2,0:1|0:1,0:0:0:0:
45,134,92531,1,2,0:0:0:0:
60,34,92684,1,2,0:1:0:0:
136,179,92837,2,0,L|297:185,1,155.999995239258,2|8,0:1|0:0,0:0:0:0:
396,80,93297,1,2,0:1:0:0:
230,95,93450,1,2,0:1:0:0:
466,319,93756,5,6,0:0:0:0:
348,265,93909,2,0,P|328:212|317:106,1,155.999995239258,2|2,0:1|0:1,0:0:0:0:
445,214,94368,2,0,P|438:291|413:365,1,155.999995239258,8|2,0:0|0:1,0:0:0:0:
219,211,94827,2,0,P|170:207|133:206,1,77.999997619629,2|2,0:1|0:0,0:0:0:0:
277,279,95133,1,8,0:0:0:0:
73,250,95286,2,0,P|69:201|68:164,1,77.999997619629,2|0,0:1|0:0,0:0:0:0:
244,35,95592,2,0,P|242:73|227:198,1,155.999995239258,8|2,0:0|0:1,0:0:0:0:
138,307,96052,1,8,0:0:0:0:
392,294,96205,6,0,P|342:288|305:287,1,77.999997619629,6|0,0:2|0:0,0:0:0:0:
392,83,96511,2,0,P|387:125|384:176,1,77.999997619629,8|0,0:0|0:0,0:0:0:0:
214,326,96817,2,0,P|275:282|280:207,1,155.999995239258,12|2,0:0|0:1,0:0:0:0:
268,191,97200,1,8,0:0:0:0:
256,175,97276,1,8,0:3:0:0:
116,78,97429,5,2,0:1:0:0:
172,225,97582,1,8,0:0:0:0:
172,225,97659,1,8,0:0:0:0:
172,225,97735,2,0,L|173:135,1,77.999997619629,2|0,0:1|0:0,0:0:0:0:
195,30,98041,1,12,0:0:0:0:
256,225,98195,1,2,0:1:0:0:
14,122,98348,2,0,P|52:120|91:122,1,77.999997619629,8|8,0:3|0:3,0:0:0:0:
340,225,98654,5,6,0:0:0:0:
256,192,115797,12,4,118246,0:0:0:0:
56,134,118552,6,0,P|83:117|116:110,2,65,0|2|8,0:0|0:1|0:0,0:0:0:0:
149,226,119164,1,2,0:1:0:0:
149,226,119317,2,0,P|213:223|279:220,1,130,2|2,0:1|0:1,0:0:0:0:
355,321,119776,2,0,P|322:317|290:315,1,65,2|2,0:1|0:1,0:0:0:0:
323,136,120082,2,0,P|380:164|442:150,2,130,8|2|2,0:0|0:1|0:1,0:0:0:0:
323,136,120848,5,2,0:1:0:0:
512,245,121001,2,0,P|449:231|392:259,2,130,2|8|2,0:0|0:0|0:1,0:0:0:0:
512,245,121766,1,2,0:1:0:0:
394,354,121919,2,0,L|318:349,1,65,2|2,0:0|0:1,0:0:0:0:
131,281,122225,1,2,0:1:0:0:
205,369,122378,1,2,0:1:0:0:
276,239,122531,2,0,L|288:107,2,130,8|2|2,0:0|0:0|0:1,0:0:0:0:
276,239,123297,5,2,0:1:0:0:
378,63,123450,2,0,L|366:192,1,130,2|8,0:1|0:0,0:0:0:0:
172,140,123909,1,2,0:1:0:0:
268,175,124062,1,2,0:1:0:0:
252,68,124215,1,2,0:1:0:0:
268,175,124368,2,0,L|277:248,1,65,2|2,0:0|0:1,0:0:0:0:
193,343,124674,2,0,L|185:278,1,65,2|2,0:1|0:1,0:0:0:0:
172,140,124980,1,8,0:0:0:0:
274,240,125133,1,0,0:0:0:0:
347,117,125286,1,2,0:1:0:0:
64,66,125592,5,2,0:1:0:0:
64,66,125746,1,2,0:1:0:0:
9,178,125899,2,0,L|20:247,1,65,2|2,0:0|0:1,0:0:0:0:
64,66,126205,2,0,B|70:112|70:112|90:141|90:141|97:188,1,130,8|2,0:0|0:1,0:0:0:0:
97,188,126664,1,2,0:1:0:0:
87,312,126817,2,0,P|118:302|150:298,1,65,2|2,0:0|0:1,0:0:0:0:
306,195,127123,1,2,0:1:0:0:
352,309,127276,1,2,0:1:0:0:
384,189,127429,1,8,0:0:0:0:
290,269,127582,1,8,0:0:0:0:
413,259,127735,2,0,L|483:248,1,65,8|8,0:0|0:0,0:0:0:0:
464,68,128041,6,0,P|405:95|342:84,1,130,6|2,0:0|0:0,0:0:0:0:
185,211,128654,2,0,P|243:184|306:195,1,130,8|2,0:0|0:1,0:0:0:0:
354,308,129113,1,2,0:1:0:0:
262,338,129266,2,0,L|254:273,1,65,2|2,0:0|0:1,0:0:0:0:
427,225,129572,1,2,0:1:0:0:
354,308,129725,1,2,0:1:0:0:
185,211,129878,2,0,P|243:184|306:195,2,130,8|2|2,0:0|0:1|0:1,0:0:0:0:
354,308,130643,6,0,L|421:316,1,65,2|2,0:1|0:0,0:0:0:0:
486,251,130950,1,2,0:1:0:0:
274,256,131103,2,0,P|260:318|289:376,1,130,8|2,0:0|0:1,0:0:0:0:
469,259,131562,1,2,0:1:0:0:
354,308,131715,1,2,0:0:0:0:
367,184,131868,1,2,0:1:0:0:
469,259,132021,2,0,L|474:291|479:323,1,65,2|0,0:1|0:0,0:0:0:0:
341,327,132327,1,8,0:0:0:0:
356,184,132480,1,0,0:0:0:0:
473,271,132633,2,0,L|478:303|483:335,1,65,2|0,0:1|0:0,0:0:0:0:
301,227,132939,6,0,P|268:223|236:220,1,65,2|0,0:1|0:0,0:0:0:0:
122,109,133246,2,0,P|186:110|239:74,1,130,2|8,0:0|0:0,0:0:0:0:
238,74,133705,1,0,0:0:0:0:
170,192,133858,2,0,L|161:256,1,65,2|2,0:1|0:1,0:0:0:0:
281,377,134164,2,0,L|289:312,1,65,2|2,0:0|0:1,0:0:0:0:
301,227,134470,1,2,0:1:0:0:
199,330,134623,1,2,0:1:0:0:
376,287,134776,2,0,P|399:228|378:168,1,130,8|2,0:0|0:1,0:0:0:0:
378,168,135235,1,0,0:0:0:0:
222,256,135388,6,0,L|301:268,1,65,8|2,0:0|0:0,0:0:0:0:
308,270,135618,1,8,0:0:0:0:
308,270,135695,1,8,0:0:0:0:
208,101,135848,1,2,0:1:0:0:
110,230,136001,2,0,L|115:294,1,65,6|0,0:0|0:0,0:0:0:0:
328,220,136307,1,0,0:0:0:0:
328,220,136383,1,0,0:0:0:0:
328,220,136460,1,0,0:0:0:0:
176,180,136613,5,8,0:2:0:0:
264,328,136766,1,8,0:3:0:0:
250,137,136919,1,4,0:3:0:0:
184,276,137072,1,8,0:3:0:0:
96,151,137225,2,0,P|91:119|88:87,1,65,4|4,0:3|0:3,0:0:0:0:
250,137,137531,2,0,P|254:169|257:201,1,65,4|4,0:3|0:3,0:0:0:0:
202,42,137837,5,4,0:0:0:0:
328,18,137990,2,0,P|349:64|347:147,1,130,2|2,0:1|0:1,0:1:0:0:
170,121,138450,2,0,P|141:120|95:121,1,65,8|0,0:0|0:0,0:0:0:0:
296,207,138756,1,2,0:1:0:0:
429,153,138909,2,0,P|434:113|435:82,1,65,2|2,0:1|0:0,0:0:0:0:
381,226,139215,1,2,0:1:0:0:
460,336,139368,2,0,P|455:296|454:265,1,65,2|2,0:1|0:1,0:0:0:0:
340,138,139674,2,0,P|292:126|222:166,1,130,8|2,0:0|0:1,0:0:0:0:
249,364,140286,5,2,0:1:0:0:
81,202,140592,2,0,P|124:202|154:199,1,65,2|2,0:0|0:1,0:0:0:0:
309,279,140899,2,0,P|303:236|292:199,1,65,8|0,0:0|0:0,0:0:0:0:
229,151,141205,1,2,0:1:0:0:
266,353,141358,2,0,P|328:358|418:349,1,130,2|2,0:1|0:1,0:0:0:0:
491,221,141817,2,0,P|454:220|416:214,1,65,2|2,0:1|0:1,0:0:0:0:
191,319,142123,2,0,P|266:310|289:238,1,130,8|2,0:0|0:1,0:0:0:0:
146,246,142582,1,0,0:0:0:0:
351,330,142735,6,0,P|394:332|421:337,1,65,2|2,0:1|0:1,0:0:0:0:
512,140,143041,2,0,P|469:142|442:147,1,65,2|2,0:0|0:1,0:0:0:0:
294,260,143348,1,8,0:0:0:0:
433,221,143501,2,0,P|390:219|363:214,1,65,0|2,0:0|0:1,0:0:0:0:
199,312,143807,2,0,P|154:329|70:288,1,130,2|2,0:1|0:1,0:0:0:0:
266,255,144266,2,0,P|297:264|333:281,1,65,2|0,0:1|0:0,0:0:0:0:
214,113,144572,2,0,P|206:81|203:41,1,65,8|2,0:0|0:1,0:0:0:0:
146,246,144878,2,0,P|122:268|89:291,1,65,2|0,0:1|0:0,0:0:0:0:
286,170,145184,5,2,0:1:0:0:
286,170,145337,2,0,P|332:173|363:169,2,65,0|2|2,0:0|0:0|0:1,0:0:0:0:
134,126,145797,2,0,P|79:159|71:221,1,130,8|0,0:0|0:1,0:0:0:0:
197,304,146256,2,0,P|196:241|146:202,1,130,2|2,0:1|0:1,0:0:0:0:
0,176,146715,2,0,P|0:227|4:245,1,65,2|2,0:1|0:1,0:0:0:0:
256,371,147021,1,8,0:0:0:0:
298,257,147174,1,8,0:0:0:0:
421,255,147327,2,0,P|421:306|417:324,1,65,8|0,0:0|0:0,0:0:0:0:
197,304,147633,6,0,P|156:303|123:305,1,65,4|2,0:0|0:1,0:0:0:0:
347,179,147939,2,0,P|388:178|421:180,1,65,2|2,0:0|0:1,0:0:0:0:
252,78,148246,2,0,P|251:116|245:217,1,130,8|2,0:0|0:1,0:0:0:0:
363,367,148705,2,0,P|361:323|361:291,1,65,2|2,0:1|0:0,0:0:0:0:
333,94,149011,1,0,0:0:0:0:
149,150,149164,2,0,P|193:146|222:141,1,65,2|0,0:1|0:0,0:0:0:0:
404,55,149470,2,0,P|410:98|410:128,1,65,8|0,0:0|0:0,0:0:0:0:
361,315,149776,2,0,P|362:282|367:250,1,65,2|0,0:1|0:0,0:0:0:0:
455,365,150082,5,2,0:1:0:0:
279,142,150388,2,0,P|282:180|282:208,1,65,2|2,0:0|0:1,0:0:0:0:
133,324,150695,2,0,P|184:296|255:311,1,130,8|0,0:0|0:0,0:0:0:0:
46,250,151154,2,0,P|103:237|185:206,1,130,2|2,0:1|0:1,0:0:0:0:
373,224,151613,2,0,P|409:227|452:236,1,65,2|0,0:1|0:0,0:0:0:0:
248,130,151919,1,8,0:0:0:0:
141,141,152072,1,2,0:1:0:0:
349,142,152225,2,0,P|381:139|413:133,1,65,2|0,0:1|0:0,0:0:0:0:
88,84,152531,6,0,P|65:127|113:212,1,130,6|2,0:0|0:0,0:0:0:0:
167,67,152990,1,2,0:1:0:0:
26,248,153143,2,0,B|25:307|51:347|51:347|65:318,1,130,12|2,0:0|0:1,0:0:0:0:
235,232,153603,2,0,P|193:226|165:219,1,65,2|2,0:1|0:0,0:0:0:0:
296,306,153909,1,2,0:1:0:0:
379,345,154062,2,0,P|410:352|442:356,1,65,2|0,0:1|0:1,0:0:0:0:
262,151,154368,2,0,P|254:102|254:75,1,65,8|0,0:0|0:0,0:0:0:0:
432,209,154674,2,0,P|430:241|423:273,1,65,2|0,0:1|0:0,0:0:0:0:
178,156,154980,6,0,P|140:143|55:173,2,130,6|8|12,0:0|0:0|0:0,0:0:0:0:
248,280,155746,1,0,0:0:0:0:
248,280,155822,1,8,0:0:0:0:
248,280,155899,2,0,L|252:354,1,65,8|12,0:0|0:0,0:0:0:0:
304,218,156205,1,8,0:3:0:0:
312,73,156358,1,8,0:3:0:0:
363,295,156511,1,4,0:3:0:0:
355,150,156664,1,4,0:3:0:0:
163,278,156817,6,0,B|127:289|127:289|92:278|92:278|56:296|0:283,1,155.999995239258,12|4,0:0|0:3,0:0:0:0:
207,212,157429,6,0,P|242:278|206:344,2,155.999995239258,4|0|8,0:0|0:0|0:0,0:0:0:0:
119,175,158195,1,2,0:1:0:0:
329,306,158348,2,0,P|367:304|406:295,1,77.999997619629,2|2,0:1|0:1,0:0:0:0:
492,200,158654,2,0,P|454:191|415:189,1,77.999997619629,2|2,0:0|0:1,0:0:0:0:
288,216,158960,2,0,P|325:150|288:85,1,155.999995239258,2|8,0:1|0:0,0:0:0:0:
171,142,159419,2,0,P|210:147|249:151,2,77.999997619629,0|2|0,0:0|0:1|0:0,0:0:0:0:
138,305,159878,6,0,P|215:297|293:296,1,155.999995239258,2|2,0:1|0:0,0:0:0:0:
293,296,160337,1,2,0:1:0:0:
428,374,160490,2,0,P|434:334|442:296,1,77.999997619629,8|2,0:0|0:1,0:0:0:0:
422,87,160797,1,2,0:1:0:0:
478,181,160950,1,2,0:1:0:0:
375,233,161103,2,0,P|298:220|220:217,2,155.999995239258,2|2|8,0:0|0:1|0:0,0:0:0:0:
478,181,161868,1,0,0:0:0:0:
341,60,162021,2,0,P|342:99|345:138,1,77.999997619629,2|0,0:1|0:0,0:0:0:0:
353,307,162327,6,0,P|288:347|216:325,2,155.999995239258,2|2|8,0:1|0:1|0:0,0:0:0:0:
135,96,163246,2,0,P|137:136|146:179,1,77.999997619629,2|0,0:1|0:0,0:0:0:0:
245,238,163552,2,0,P|276:213|308:193,1,77.999997619629,2|8,0:0|0:0,0:0:0:0:
302,62,163858,2,0,P|262:58|225:50,1,77.999997619629,2|0,0:1|0:0,0:0:0:0:
53,45,164164,2,0,P|49:122|34:199,1,155.999995239258,8|2,0:0|0:1,0:0:0:0:
34,200,164623,1,2,0:1:0:0:
74,342,164776,6,0,P|147:318|223:333,1,155.999995239258,2|2,0:1|0:1,0:0:0:0:
223,333,165235,1,2,0:1:0:0:
222,224,165388,2,0,P|293:253|370:243,1,155.999995239258,8|2,0:0|0:1,0:0:0:0:
370,243,165848,1,2,0:1:0:0:
489,113,166001,2,0,P|412:103|340:132,1,155.999995239258,2|2,0:0|0:1,0:0:0:0:
340,132,166460,1,2,0:1:0:0:
480,298,166613,1,8,0:0:0:0:
426,185,166766,1,8,0:0:0:0:
407,308,166919,1,8,0:0:0:0:
497,222,167072,1,8,0:0:0:0:
370,243,167225,6,0,B|339:255|302:242|302:242|290:258|290:258|257:245|224:251,1,155.999995239258,6|2,0:0|0:0,0:0:0:0:
140,301,167684,1,2,0:1:0:0:
274,342,167837,2,0,P|312:342|346:324,1,77.999997619629,8|2,0:0|0:1,0:0:0:0:
426,185,168143,1,2,0:1:0:0:
465,279,168297,1,2,0:1:0:0:
332,230,168450,2,0,P|254:223|176:220,2,155.999995239258,2|2|8,0:0|0:1|0:0,0:0:0:0:
332,230,169215,1,0,0:0:0:0:
451,356,169368,2,0,L|467:270,1,77.999997619629,2|2,0:1|0:1,0:0:0:0:
494,133,169674,6,0,P|424:163|351:142,2,155.999995239258,2|2|8,0:1|0:0|0:0,0:0:0:0:
332,231,170439,2,0,P|293:225|254:222,1,77.999997619629,2|2,0:1|0:1,0:0:0:0:
192,105,170746,1,2,0:1:0:0:
310,316,170899,2,0,P|348:313|387:307,1,77.999997619629,2|2,0:0|0:1,0:0:0:0:
501,228,171205,2,0,P|462:225|423:219,1,77.999997619629,2|2,0:1|0:1,0:0:0:0:
473,137,171511,1,8,0:0:0:0:
482,312,171664,1,2,0:1:0:0:
332,231,171817,2,0,P|293:225|254:222,1,77.999997619629,2|0,0:1|0:0,0:0:0:0:
121,136,172123,6,0,P|198:130|274:113,1,155.999995239258,6|2,0:0|0:0,0:0:0:0:
45,268,172735,2,0,P|121:250|198:245,1,155.999995239258,8|2,0:0|0:1,0:0:0:0:
198,245,173195,1,2,0:1:0:0:
425,314,173348,2,0,L|359:369,1,77.999997619629,2|2,0:0|0:1,0:0:0:0:
298,185,173654,2,0,L|324:267,1,77.999997619629,2|2,0:1|0:1,0:0:0:0:
408,77,173960,2,0,B|358:88|358:88|315:63|315:63|261:74,1,155.999995239258,8|2,0:0|0:1,0:0:0:0:
246,80,174342,1,0,3:0:0:0:
231,86,174419,1,0,3:0:0:0:
395,183,174572,6,0,P|433:176|472:173,1,77.999997619629,6|0,0:0|3:0,0:0:0:0:
347,266,174878,1,2,0:1:0:0:
298,185,175031,1,0,3:0:0:0:
266,327,175184,2,0,P|203:316|138:314,1,130,4|0,0:0|3:0,0:0:0:0:
48,351,175643,1,2,0:1:0:0:
100,148,175797,5,2,0:1:0:0:
95,190,175873,1,0,0:0:0:0:
115,228,175950,1,8,0:3:0:0:
153,246,176026,1,0,0:0:0:0:
196,247,176103,2,0,L|275:239,1,77.999997619629,2|0,0:1|0:0,0:0:0:0:
377,94,176409,1,12,0:0:0:0:
443,223,176562,1,0,3:0:0:0:
325,191,176715,1,8,0:0:0:0:
512,107,176868,1,8,0:0:0:0:
280,53,177021,6,0,B|210:72|196:34|124:54,1,155.999995239258,6|2,0:0|0:0,0:0:0:0:
29,182,177480,1,2,0:1:0:0:
242,157,177633,2,0,P|196:150|149:148,1,77.999997619629,8|0,0:0|0:0,0:0:0:0:
122,255,177939,1,2,0:1:0:0:
306,216,178092,2,0,P|370:216|458:287,1,155.999995239258,2|8,0:1|0:0,0:0:0:0:
172,328,178552,2,0,P|133:330|94:336,1,77.999997619629,2|0,0:1|0:0,0:0:0:0:
271,298,178858,2,0,P|309:304|348:306,1,77.999997619629,8|0,0:0|0:0,0:0:0:0:
189,215,179164,1,2,0:1:0:0:
172,328,179317,1,0,0:0:0:0:
189,215,179470,6,0,P|204:151|207:37,1,155.999995239258,2|0,0:1|0:0,0:0:0:0:
288,198,179929,1,2,0:1:0:0:
130,130,180082,2,0,P|77:119|0:180,1,155.999995239258,8|2,0:0|0:1,0:0:0:0:
189,215,180541,1,2,0:1:0:0:
375,184,180695,2,0,P|422:184|457:189,1,77.999997619629,2|0,0:0|0:0,0:0:0:0:
271,314,181001,2,0,P|232:318|193:318,1,77.999997619629,2|0,0:1|0:0,0:0:0:0:
304,121,181307,1,8,0:0:0:0:
305,237,181460,1,2,0:1:0:0:
204,179,181613,1,2,0:1:0:0:
477,178,181919,5,2,0:1:0:0:
477,178,182072,2,0,P|416:182|304:177,1,155.999995239258,2|2,0:1|0:1,0:0:0:0:
214,29,182531,1,8,0:0:0:0:
364,267,182837,2,0,P|369:310|372:349,1,77.999997619629,2|2,0:1|0:1,0:0:0:0:
237,173,183143,1,2,0:0:0:0:
245,58,183297,1,8,0:0:0:0:
237,173,183450,2,0,P|184:197|91:135,1,155.999995239258,2|8,0:1|0:0,0:0:0:0:
398,104,184062,2,0,P|350:99|293:101,1,77.999997619629,2|0,0:1|0:0,0:0:0:0:
191,277,184368,6,0,P|249:261|330:197,1,155.999995239258,2|0,0:1|0:0,0:0:0:0:
122,166,184827,1,2,0:1:0:0:
43,218,184980,2,0,L|50:375,1,155.999995239258,8|0,0:0|0:0,0:0:0:0:
157,362,185439,1,2,0:1:0:0:
157,362,185592,1,2,0:0:0:0:
208,169,185899,1,2,0:1:0:0:
214,68,186052,1,2,0:1:0:0:
310,61,186205,2,0,L|318:145,1,77.999997619629,8|0,0:0|0:0,0:0:0:0:
418,150,186511,1,8,0:0:0:0:
424,49,186664,1,8,0:0:0:0:
356,229,186817,5,6,0:0:0:0:
356,229,186970,2,0,P|351:293|360:386,1,155.999995239258,2|2,0:1|0:1,0:0:0:0:
492,189,187429,1,8,0:0:0:0:
270,157,187735,2,0,P|269:195|272:234,1,77.999997619629,2|2,0:1|0:1,0:0:0:0:
383,311,188041,1,2,0:0:0:0:
383,311,188195,1,8,0:0:0:0:
245,315,188348,2,0,P|202:319|158:317,1,77.999997619629,2|0,0:1|0:0,0:0:0:0:
361,214,188654,2,0,P|404:218|448:216,1,77.999997619629,8|0,0:0|0:0,0:0:0:0:
257,38,188960,2,0,P|220:52|185:68,1,77.999997619629,2|0,0:1|0:0,0:0:0:0:
149,279,189266,6,0,P|113:308|-7:273,2,155.999995239258,2|2|8,0:1|0:1|0:0,0:0:0:0:
260,353,190031,2,0,B|260:300|260:300|230:254|230:254|229:206,1,155.999995239258,2|2,0:1|0:1,0:0:0:0:
197,39,190490,1,2,0:0:0:0:
75,62,190643,1,0,0:0:0:0:
197,39,190797,2,0,B|257:51|294:30|352:45,1,155.999995239258,2|8,0:1|0:0,0:0:0:0:
207,123,191256,1,2,0:1:0:0:
362,129,191409,1,2,0:1:0:0:
56,310,191715,5,6,0:0:0:0:
141,235,191868,2,0,P|180:220|316:238,1,155.999995239258,2|2,0:1|0:1,0:0:0:0:
160,331,192327,2,0,P|83:343|8:322,1,155.999995239258,8|2,0:0|0:1,0:0:0:0:
93,147,192786,2,0,P|100:96|103:49,1,77.999997619629,2|2,0:1|0:0,0:0:0:0:
170,229,193092,1,8,0:0:0:0:
229,103,193246,2,0,P|222:52|219:5,1,77.999997619629,2|0,0:1|0:0,0:0:0:0:
453,65,193552,2,0,P|348:55|283:59,1,155.999995239258,8|0,0:0|0:0,0:0:0:0:
246,189,194011,1,8,0:0:0:0:
428,225,194164,5,6,0:2:0:0:
340,138,194317,1,0,0:0:0:0:
359,329,194470,2,0,P|350:273|349:229,1,77.999997619629,8|2,0:0|0:1,0:0:0:0:
422,48,194776,2,0,P|370:79|267:46,1,155.999995239258,4|0,0:0|0:0,0:0:0:0:
266,45,195159,1,8,0:3:0:0:
254,29,195235,1,8,0:3:0:0:
286,177,195388,5,8,0:3:0:0:
177,101,195541,1,8,0:3:0:0:
171,82,195618,1,8,0:0:0:0:
167,62,195695,2,0,L|84:58,1,77.999997619629,4|8,0:3|0:3,0:0:0:0:
354,133,196001,2,0,L|437:129,1,77.999997619629,12|4,0:0|0:3,0:0:0:0:
397,309,196307,2,0,L|314:305,1,77.999997619629,4|4,0:3|0:3,0:0:0:0:
62,266,196613,6,0,P|125:250|189:259,1,130,4|2,0:0|0:0,0:0:0:0:
355,112,197225,2,0,P|292:127|228:118,1,130,8|2,0:0|0:1,0:0:0:0:
283,29,197684,1,2,0:1:0:0:
376,199,197837,2,0,P|379:231|380:263,1,65,2|0,0:1|0:0,0:0:0:0:
265,299,198143,2,0,P|200:291|135:290,2,130,2|8|2,0:1|0:0|0:1,0:0:0:0:
352,340,198909,1,0,0:0:0:0:
433,284,199062,6,0,P|440:253|445:221,1,65,2|0,0:0|0:0,0:0:0:0:
310,151,199368,2,0,P|314:183|322:214,1,65,2|0,0:0|0:0,0:0:0:0:
362,86,199674,2,0,P|302:107|240:91,1,130,8|2,0:0|0:1,0:0:0:0:
164,42,200133,1,0,0:1:0:0:
122,179,200286,2,0,P|153:173|186:173,2,65,2|2|2,0:1|0:1|0:1,0:0:0:0:
35,72,200899,2,0,P|51:136|36:200,1,130,8|2,0:0|0:1,0:0:0:0:
186,342,201511,6,0,P|172:279|187:216,1,130,2|2,0:1|0:0,0:0:0:0:
314,313,202123,2,0,L|448:308,1,130,8|2,0:0|0:1,0:0:0:0:
443,308,202582,1,2,0:1:0:0:
423,161,202735,2,0,L|399:227,2,65,2|2|2,0:1|0:1|0:1,0:0:0:0:
283,234,203348,2,0,P|224:259|162:243,1,130,8|2,0:0|0:1,0:0:0:0:
36,80,203960,6,0,P|59:139|35:210,2,130,2|2|8,0:1|0:0|0:0,0:0:0:0:
175,194,204878,2,0,L|245:186,1,65,2|2,0:0|0:1,0:0:0:0:
433,138,205184,2,0,L|369:120,1,65,0|2,0:1|0:1,0:0:0:0:
231,316,205490,2,0,L|295:319,1,65,2|2,0:1|0:1,0:0:0:0:
495,291,205797,1,8,0:0:0:0:
366,359,205950,1,8,0:0:0:0:
330,201,206103,1,8,0:0:0:0:
402,268,206256,1,8,0:0:0:0:
481,197,206409,6,0,P|508:141|486:82,2,130,6|2|8,0:0|0:0|0:0,0:0:0:0:
192,265,207327,2,0,L|256:269,1,65,2|2,0:1|0:1,0:0:0:0:
403,166,207633,2,0,L|385:231,1,65,2|0,0:1|0:0,0:0:0:0:
295,53,207939,2,0,P|280:117|304:178,1,130,2|8,0:1|0:0,0:0:0:0:
439,103,208399,2,0,L|374:108,2,65,0|2|0,0:0|0:1|0:0,0:0:0:0:
384,268,208858,6,0,P|319:260|254:258,2,130,2|2|8,0:1|0:0|0:0,0:0:0:0:
476,234,209623,2,0,P|481:266|485:298,2,65,0|2|0,0:0|0:1|0:0,0:0:0:0:
408,58,210082,2,0,P|408:122|402:187,2,130,2|2|8,0:1|0:1|0:0,0:0:0:0:
256,121,210848,2,0,P|284:135|316:141,2,65,0|2|0,0:0|0:1|0:0,0:0:0:0:
168,232,211307,6,0,P|232:223|298:225,2,130,6|2|8,0:0|0:0|0:0,0:0:0:0:
332,324,212225,2,0,P|374:327|412:328,1,65,2|2,0:0|0:1,0:0:0:0:
502,229,212531,2,0,P|469:230|437:232,1,65,2|2,0:1|0:1,0:0:0:0:
347,110,212837,2,0,P|344:174|331:238,2,130,2|8|2,0:1|0:0|0:1,0:0:0:0:
337,85,213526,1,8,0:0:0:0:
324,62,213603,1,8,0:0:0:0:
225,92,213756,6,0,P|194:97|161:98,1,65,4|8,0:0|0:0,0:0:0:0:
69,178,214062,2,0,P|133:172|198:170,2,130,2|12|0,0:1|0:0|0:0,0:0:0:0:
181,288,214827,2,0,P|213:285|245:283,1,65,8|8,0:3|0:3,0:0:0:0:
391,343,215133,5,8,0:0:0:0:
391,343,215210,1,8,0:0:0:0:
391,343,215286,2,0,P|358:344|326:347,1,65,8|8,0:3|0:3,0:0:0:0:
242,359,215592,1,12,0:0:0:0:
347,272,215746,1,4,0:3:0:0:
181,288,215899,1,8,0:0:0:0:
391,344,216052,1,8,0:0:0:0:
228,209,216205,6,0,P|194:229|100:203,1,130,6|0,0:0|0:0,0:0:0:0:
37,260,216664,1,2,0:1:0:0:
167,154,216817,2,0,P|173:116|166:18,2,130,8|0|2,0:0|0:0|0:0,0:0:0:0:
149,286,217582,1,8,0:0:0:0:
149,286,217735,2,0,P|149:322|152:359,1,65,2|0,0:1|0:0,0:0:0:0:
251,204,218041,2,0,P|265:156|266:64,1,130,8|2,0:0|0:1,0:0:0:0:
475,122,218654,6,0,L|335:128,1,130,2|2,0:1|0:0,0:0:0:0:
184,161,219113,1,2,0:1:0:0:
327,245,219266,2,0,P|376:255|460:240,1,130,8|2,0:0|0:1,0:0:0:0:
339,161,219725,1,2,0:1:0:0:
230,251,219878,2,0,P|166:238|102:248,2,130,2|2|8,0:0|0:1|0:0,0:0:0:0:
314,331,220643,1,2,0:1:0:0:
430,326,220797,1,2,0:1:0:0:
251,160,221103,5,2,0:1:0:0:
251,160,221256,2,0,L|110:162,1,130,2|2,0:1|0:1,0:0:0:0:
337,214,221715,2,0,P|391:231|466:204,2,130,8|0|2,0:0|0:0|0:0,0:0:0:0:
289,67,222480,1,8,0:0:0:0:
289,67,222633,2,0,P|239:64|206:65,1,65,2|0,0:1|0:0,0:0:0:0:
26,152,222939,2,0,P|84:152|150:118,1,130,8|2,0:0|0:1,0:0:0:0:
148,344,223552,6,0,L|143:202,1,130,2|2,0:1|0:0,0:0:0:0:
61,325,224011,1,2,0:1:0:0:
228,245,224164,2,0,P|268:240|372:251,1,130,8|0,0:0|0:0,0:0:0:0:
437,313,224623,1,2,0:1:0:0:
477,163,224776,2,0,P|437:158|333:169,1,130,2|2,0:0|0:1,0:0:0:0:
281,325,225235,1,2,0:1:0:0:
437,313,225388,2,0,P|479:310|503:309,1,65,8|2,0:0|0:1,0:0:0:0:
242,219,225695,1,8,0:0:0:0:
141,294,225848,1,8,0:0:0:0:
356,277,226001,6,0,P|376:213|384:124,1,130,6|0,0:0|0:0,0:0:0:0:
453,261,226460,1,2,0:1:0:0:
276,194,226613,2,0,P|284:129|303:67,2,130,8|0|2,0:0|0:0|0:0,0:0:0:0:
126,257,227378,1,8,0:0:0:0:
126,257,227531,2,0,P|128:300|126:333,1,65,2|0,0:1|0:0,0:0:0:0:
93,134,227837,1,8,0:0:0:0:
39,257,227990,1,0,0:0:0:0:
188,180,228143,2,0,P|222:181|258:181,1,65,2|0,0:1|0:0,0:0:0:0:
12,170,228450,6,0,P|8:126|11:92,2,65,2|0|2,0:1|0:0|0:1,0:0:0:0:
226,94,229062,1,8,0:0:0:0:
226,94,229215,2,0,L|369:98,1,130,2|2,0:1|0:1,0:0:0:0:
460,131,229674,2,0,P|453:93|450:62,1,65,2|8,0:0|0:0,0:0:0:0:
389,182,229980,2,0,P|403:227|401:320,2,130,2|8|2,0:1|0:0|0:1,0:0:0:0:
68,144,230899,6,0,P|108:147|143:147,1,65,4|2,0:0|0:1,0:0:0:0:
238,59,231205,2,0,P|270:58|302:55,1,65,2|2,0:0|0:1,0:0:0:0:
487,155,231511,2,0,P|440:155|351:126,1,130,8|0,0:0|0:0,0:0:0:0:
435,68,231970,1,2,0:1:0:0:
341,223,232123,2,0,P|279:243|214:246,2,130,2|2|8,0:0|0:1|0:0,0:0:0:0:
486,355,233041,1,2,0:1:0:0:
486,355,233118,1,8,0:0:0:0:
486,355,233195,1,8,0:0:0:0:
309,335,233348,6,0,P|349:331|374:333,1,65,6|8,0:0|0:0,0:0:0:0:
497,194,233654,2,0,P|457:190|432:192,1,65,2|0,0:1|0:0,0:0:0:0:
228,295,233960,2,0,P|285:292|334:230,1,130,12|0,0:0|0:0,0:0:0:0:
331,223,234342,1,8,0:3:0:0:
327,207,234419,1,8,0:3:0:0:
148,273,234572,5,8,0:3:0:0:
46,120,234725,2,0,L|42:86,2,32.5,8|8|8,0:0|0:0|0:3,0:0:0:0:
405,296,235184,2,0,P|412:333|415:364,1,65,12|4,0:0|0:3,0:0:0:0:
268,222,235490,1,8,0:0:0:0:
488,178,235643,1,8,0:0:0:0:
323,313,235797,6,0,P|284:305|245:302,1,77.999997619629,6|2,0:0|0:1,0:0:0:0:
169,355,236103,2,0,P|206:288|186:215,2,155.999995239258,2|8|2,0:1|0:0|0:1,0:0:0:0:
46,162,236868,2,0,P|84:157|123:152,1,77.999997619629,2|2,0:1|0:0,0:0:0:0:
221,55,237174,1,2,0:1:0:0:
350,222,237327,2,0,L|311:217|272:212,1,77.999997619629,2|2,0:1|0:1,0:0:0:0:
42,309,237633,2,0,P|81:299|128:301,1,77.999997619629,8|2,0:0|0:1,0:0:0:0:
311,351,237939,2,0,P|273:360|234:360,1,77.999997619629,2|2,0:1|0:0,0:0:0:0:
211,246,238246,6,0,P|206:207|204:168,1,77.999997619629,2|2,0:1|0:1,0:0:0:0:
221,55,238552,1,2,0:0:0:0:
107,199,238705,1,2,0:1:0:0:
327,288,238858,2,0,P|331:249|333:210,1,77.999997619629,8|2,0:0|0:1,0:0:0:0:
439,87,239164,2,0,P|441:125|444:164,1,77.999997619629,2|2,0:1|0:1,0:0:0:0:
321,138,239470,2,0,B|245:105|250:165|170:123,1,155.999995239258,2|2,0:0|0:1,0:0:0:0:
103,77,239929,1,0,0:0:0:0:
276,221,240082,2,0,B|356:263|351:203|427:236,2,155.999995239258,8|2|2,0:0|0:1|0:1,0:0:0:0:
199,342,240848,6,0,L|191:264,1,77.999997619629,2|2,0:1|0:0,0:0:0:0:
290,365,241154,1,2,0:1:0:0:
107,312,241307,2,0,L|99:234,1,77.999997619629,8|2,0:0|0:1,0:0:0:0:
160,148,241613,2,0,P|201:145|250:144,1,77.999997619629,2|2,0:1|0:1,0:0:0:0:
362,252,241919,2,0,P|323:250|284:247,1,77.999997619629,2|8,0:0|0:0,0:0:0:0:
448,113,242225,2,0,P|477:182|443:250,1,155.999995239258,2|8,0:1|0:0,0:0:0:0:
442,250,242684,1,0,0:0:0:0:
346,313,242837,2,0,L|268:307,1,77.999997619629,2|0,0:1|0:0,0:0:0:0:
93,263,243143,6,0,B|136:303|192:296|192:296|211:245,1,155.999995239258,2|2,0:1|0:0,0:0:0:0:
226,141,243603,1,2,0:1:0:0:
156,187,243756,2,0,P|221:224|290:194,1,155.999995239258,8|2,0:0|0:1,0:0:0:0:
357,134,244215,1,2,0:1:0:0:
198,110,244368,2,0,P|159:108|120:105,1,77.999997619629,2|2,0:0|0:1,0:0:0:0:
293,36,244674,2,0,P|299:74|302:113,1,77.999997619629,2|2,0:1|0:1,0:0:0:0:
232,219,244980,2,0,P|302:190|374:216,1,155.999995239258,8|8,0:0|0:0,0:0:0:0:
374,216,245439,1,8,0:0:0:0:
236,314,245592,6,0,P|158:308|80:303,2,155.999995239258,4|2|8,0:0|0:0|0:0,0:0:0:0:
466,188,246511,2,0,P|462:229|456:270,1,77.999997619629,2|2,0:1|0:1,0:0:0:0:
317,336,246817,2,0,P|311:297|307:258,1,77.999997619629,2|2,0:0|0:1,0:0:0:0:
364,86,247123,2,0,P|376:122|379:161,1,77.999997619629,2|0,0:1|0:0,0:0:0:0:
181,334,247429,2,0,P|183:295|196:258,1,77.999997619629,8|0,0:0|0:0,0:0:0:0:
393,258,247735,2,0,L|315:249,1,77.999997619629,2|0,0:1|0:0,0:0:0:0:
116,232,248041,6,0,P|192:238|249:188,2,155.999995239258,2|2|8,0:1|0:0|0:0,0:0:0:0:
198,331,248807,2,0,P|275:327|353:325,1,155.999995239258,2|2,0:1|0:1,0:0:0:0:
435,257,249266,2,0,P|446:294|453:332,1,77.999997619629,2|0,0:0|0:0,0:0:0:0:
338,181,249572,2,0,P|375:169|413:162,1,77.999997619629,2|0,0:1|0:0,0:0:0:0:
226,89,249878,1,8,0:0:0:0:
251,163,250031,1,0,0:0:0:0:
216,232,250184,2,0,P|173:224|136:221,1,77.999997619629,2|0,0:1|0:0,0:0:0:0:
233,338,250490,6,0,P|309:320|386:311,1,155.999995239258,6|2,0:0|0:0,0:0:0:0:
386,311,250950,1,0,0:1:0:0:
464,352,251103,2,0,P|470:313|474:274,1,77.999997619629,8|0,0:0|0:0,0:0:0:0:
451,183,251409,1,2,0:1:0:0:
451,183,251562,2,0,P|384:194|299:140,1,155.999995239258,2|8,0:0|0:0,0:0:0:0:
271,269,252021,2,0,P|205:230|129:239,1,155.999995239258,2|8,0:1|0:0,0:0:0:0:
60,284,252480,1,0,0:0:0:0:
23,193,252633,1,2,0:1:0:0:
82,113,252786,5,8,0:0:0:0:
82,113,252863,1,8,0:0:0:0:
82,113,252939,2,0,L|163:106,1,77.999997619629,12|0,0:2|0:0,0:0:0:0:
345,177,253246,2,0,L|267:170,1,77.999997619629,8|0,0:0|0:0,0:0:0:0:
400,114,253552,2,0,P|425:184|384:247,1,155.999995239258,6|2,0:0|0:1,0:0:0:0:
300,271,254011,1,8,0:3:0:0:
327,384,254164,1,8,0:3:0:0:
460,317,254317,5,8,0:0:0:0:
460,317,254393,1,8,0:0:0:0:
460,317,254470,2,0,L|380:312,1,77.999997619629,2|0,0:1|0:0,0:0:0:0:
189,237,254776,2,0,P|180:274|190:312,1,77.999997619629,4|0,0:0|0:0,0:0:0:0:
402,207,255082,1,8,0:0:0:0:
294,186,255235,1,8,0:0:0:0:
402,207,255388,6,0,P|423:146|436:38,1,155.999995239258,6|2,0:0|0:0,0:0:0:0:
294,186,255848,1,2,0:1:0:0:
204,253,256001,2,0,P|214:290|228:326,1,77.999997619629,8|0,0:0|0:0,0:0:0:0:
353,353,256307,1,2,0:1:0:0:
135,335,256460,2,0,B|77:324|25:351|25:351|44:304,1,155.999995239258,2|8,0:1|0:0,0:0:0:0:
143,193,256919,2,0,P|153:145|157:108,1,77.999997619629,2|0,0:1|0:0,0:0:0:0:
307,269,257225,2,0,P|297:221|293:184,1,77.999997619629,8|0,0:0|0:0,0:0:0:0:
471,66,257531,1,2,0:1:0:0:
333,58,257684,1,0,0:0:0:0:
488,154,257837,6,0,B|502:199|502:199|501:257|460:309,1,155.999995239258,2|2,0:1|0:0,0:0:0:0:
303,348,258297,1,2,0:1:0:0:
399,262,258450,2,0,P|348:270|302:270,1,77.999997619629,8|0,0:0|0:0,0:0:0:0:
120,214,258756,2,0,P|158:216|197:222,1,77.999997619629,0|2,0:0|0:1,0:0:0:0:
287,360,259062,2,0,P|284:310|288:173,1,155.999995239258,2|2,0:0|0:1,0:0:0:0:
340,114,259521,1,0,0:0:0:0:
202,287,259674,2,0,P|199:337|196:367,1,77.999997619629,8|2,0:0|0:1,0:0:0:0:
137,85,259980,1,2,0:1:0:0:
137,85,260286,5,2,0:1:0:0:
260,222,260439,2,0,P|316:229|416:197,1,155.999995239258,2|2,0:1|0:1,0:0:0:0:
469,337,260899,2,0,P|426:322|381:314,1,77.999997619629,8|0,0:0|0:0,0:0:0:0:
165,280,261205,2,0,P|156:235|154:194,1,77.999997619629,2|2,0:1|0:1,0:0:0:0:
237,49,261511,1,2,0:0:0:0:
245,200,261664,1,8,0:0:0:0:
109,133,261817,2,0,L|17:131,1,77.999997619629,2|0,0:1|0:0,0:0:0:0:
294,124,262123,2,0,P|333:139|451:119,1,155.999995239258,8|2,0:0|0:1,0:0:0:0:
477,39,262582,1,0,0:0:0:0:
372,226,262735,6,0,B|358:294|381:352|381:352|394:325,1,155.999995239258,2|0,0:1|0:0,0:0:0:0:
456,233,263195,1,2,0:1:0:0:
290,315,263348,2,0,P|245:320|203:320,1,77.999997619629,8|0,0:0|0:0,0:0:0:0:
8,339,263654,2,0,P|53:344|95:344,1,77.999997619629,0|2,0:0|0:1,0:0:0:0:
240,235,263960,2,0,P|185:197|92:241,1,155.999995239258,2|2,0:0|0:1,0:0:0:0:
265,355,264419,1,2,0:1:0:0:
389,307,264572,2,0,P|401:260|406:219,1,77.999997619629,8|0,0:0|0:0,0:0:0:0:
258,40,264878,1,8,0:0:0:0:
319,192,265031,1,8,0:0:0:0:
348,18,265184,5,6,0:0:0:0:
161,31,265337,2,0,P|108:49|45:135,1,155.999995239258,2|2,0:1|0:1,0:0:0:0:
323,109,265797,2,0,B|393:128|404:82|477:114,1,155.999995239258,8|0,0:0|0:0,0:0:0:0:
444,221,266256,1,2,0:1:0:0:
237,165,266409,2,0,P|194:165|145:180,1,77.999997619629,2|8,0:0|0:0,0:0:0:0:
70,357,266715,2,0,L|49:182,2,155.999995239258,2|8|2,0:1|0:0|0:1,0:0:0:0:
70,357,267633,6,0,P|114:348|150:344,1,77.999997619629,2|0,0:1|0:0,0:0:0:0:
344,332,267939,2,0,P|285:329|210:248,1,155.999995239258,2|8,0:1|0:0,0:0:0:0:
294,79,268399,2,0,B|304:126|304:126|290:245,1,155.999995239258,2|2,0:1|0:1,0:0:0:0:
207,132,268858,1,2,0:0:0:0:
391,156,269011,1,0,0:0:0:0:
273,324,269164,2,0,P|226:324|187:327,1,77.999997619629,2|0,0:1|0:0,0:0:0:0:
22,192,269470,1,8,0:0:0:0:
188,237,269623,1,2,0:1:0:0:
22,192,269776,2,0,P|10:145|6:107,1,77.999997619629,2|0,0:1|0:0,0:0:0:0:
245,52,270082,5,6,0:0:0:0:
302,156,270235,2,0,P|348:168|468:130,1,155.999995239258,2|2,0:1|0:1,0:0:0:0:
216,78,270695,2,0,L|45:92,1,155.999995239258,8|0,0:0|0:0,0:0:0:0:
279,248,271154,2,0,P|328:260|356:262,1,77.999997619629,2|2,0:1|0:0,0:0:0:0:
179,193,271460,1,8,0:0:0:0:
123,289,271613,2,0,P|161:317|276:348,1,155.999995239258,2|8,0:1|0:0,0:0:0:0:
435,189,272225,1,0,0:0:0:0:
439,211,272302,1,8,0:0:0:0:
445,233,272378,1,8,0:0:0:0:
307,129,272531,6,0,P|299:85|298:36,1,77.999997619629,12|0,0:0|0:0,0:0:0:0:
175,199,272837,2,0,P|167:243|166:292,1,77.999997619629,8|0,0:0|0:0,0:0:0:0:
417,244,273143,2,0,P|363:233|252:262,1,155.999995239258,6|0,0:0|0:0,0:0:0:0:
256,275,273526,1,8,0:3:0:0:
246,296,273603,1,8,0:3:0:0:
92,192,273756,5,8,0:3:0:0:
157,368,273909,1,8,0:0:0:0:
159,344,273985,1,8,0:0:0:0:
161,320,274062,2,0,P|157:257|158:229,1,77.999997619629,2|0,0:1|0:0,0:0:0:0:
278,29,274368,2,0,P|288:71|291:114,1,77.999997619629,12|0,0:0|0:0,0:0:0:0:
235,344,274674,2,0,P|238:305|247:267,1,77.999997619629,8|0,0:0|0:0,0:0:0:0:
310,180,274980,6,0,P|264:191|218:175,1,97.50000371933,2|2,0:1|0:1,0:0:0:0:
155,129,275439,1,2,0:1:0:0:
155,129,275592,2,0,L|123:73,1,48.750001859665,2|0,0:1|0:0,0:0:0:0:
272,56,275899,1,2,0:1:0:0:
272,56,276052,2,0,P|320:49|366:63,1,97.50000371933,2|2,0:1|0:1,0:0:0:0:
428,173,276664,2,0,L|437:116,1,48.750001859665,2|2,0:1|0:1,0:0:0:0:
379,269,277123,6,0,P|333:256|285:260,1,97.50000371933,2|2,0:1|0:1,0:0:0:0:
226,311,277582,2,0,L|176:328,2,48.750001859665,2|2|2,0:1|0:1|0:1,0:0:0:0:
101,295,278041,2,0,L|90:236,1,48.750001859665,2|2,0:1|0:1,0:0:0:0:
120,104,278348,1,2,0:1:0:0:
120,104,278501,2,0,P|167:93|215:99,1,97.50000371933,2|2,0:1|0:1,0:0:0:0:
341,190,279113,1,0,0:0:0:0:
341,190,279266,2,0,P|293:178|245:184,1,97.50000371933,2|2,0:1|0:1,0:0:0:0:
333,277,279878,6,0,L|400:271,2,48.750001859665,2|2|2,0:1|0:1|0:1,0:0:0:0:
265,316,280337,2,0,L|256:369,1,48.750001859665,2|2,0:1|0:1,0:0:0:0:
228,246,280643,2,0,L|219:197,1,48.750001859665,2|2,0:1|0:1,0:0:0:0:
208,119,280950,2,0,P|254:106|301:114,1,97.50000371933,2|2,0:1|0:1,0:0:0:0:
143,195,281562,1,2,0:1:0:0:
142,195,281715,2,0,P|94:187|46:186,1,97.50000371933,2|2,0:1|0:1,0:0:0:0:
137,331,282327,6,0,L|125:276,2,48.750001859665,2|2|2,0:1|0:1|0:1,0:0:0:0:
213,275,282786,2,0,L|226:217,1,48.750001859665,2|2,0:1|0:1,0:0:0:0:
246,152,283092,1,0,0:0:0:0:
304,210,283246,1,2,0:1:0:0:
304,210,283399,2,0,P|348:227|395:215,1,97.50000371933,2|2,0:1|0:1,0:0:0:0:
464,64,284011,2,0,L|457:120,1,48.750001859665,0|2,0:0|0:1,0:0:0:0:
329,23,284470,2,0,L|327:89,1,48.750001859665,2|0,0:1|0:0,0:0:0:0:
237,69,284776,6,0,P|191:57|142:58,1,97.50000371933,2|2,0:1|0:1,0:0:0:0:
83,110,285235,2,0,L|69:167,2,48.750001859665,2|2|2,0:1|0:1|0:1,0:0:0:0:
129,204,285695,2,0,L|137:260,1,48.750001859665,2|0,0:1|0:0,0:0:0:0:
242,351,286154,2,0,P|287:336|335:344,1,97.50000371933,2|2,0:1|0:1,0:0:0:0:
498,285,286613,2,0,P|451:298|404:288,1,97.50000371933,2|2,0:1|0:1,0:0:0:0:
467,98,287225,6,0,L|450:155,1,48.750001859665,2|0,0:1|0:0,0:0:0:0:
377,80,287531,2,0,L|367:33,1,48.750001859665,2|0,0:1|0:0,0:0:0:0:
302,140,287837,2,0,L|292:191,1,48.750001859665,2|2,0:1|0:1,0:0:0:0:
222,69,288143,1,2,0:1:0:0:
222,69,288297,2,0,P|175:62|127:72,1,97.50000371933,2|2,0:1|0:1,0:0:0:0:
129,195,288909,1,2,0:1:0:0:
129,195,289062,2,0,P|176:205|224:197,1,97.50000371933,2|2,0:1|0:1,0:0:0:0:
383,146,289674,6,0,L|319:137,1,48.750001859665,2|2,0:1|0:1,0:0:0:0:
458,228,289980,2,0,L|522:219,1,48.750001859665,2|2,0:1|0:1,0:0:0:0:
325,293,290286,2,0,L|261:284,1,48.750001859665,2|2,0:1|0:1,0:0:0:0:
378,355,290592,1,2,0:1:0:0:
378,355,290746,2,0,P|402:313|385:246,1,97.50000371933,2|2,0:1|0:1,0:0:0:0:
208,185,291358,2,0,L|268:195,1,48.750001859665,2|2,0:1|0:1,0:0:0:0:
468,120,291817,2,0,P|423:104|375:110,1,97.50000371933,2|2,0:1|0:1,0:0:0:0:
299,116,292293,6,0,L|231:106,1,65,2|2,0:1|0:1,0:0:0:0:
57,185,292634,1,2,0:1:0:0:
57,185,292804,2,0,P|116:207|175:185,1,130,2|2,0:1|0:1,0:0:0:0:
177,298,293486,6,0,P|263:256|352:290,1,195.00000743866,2|2,0:1|0:0,0:0:0:0:
455,119,294986,6,0,B|370:145|358:67|267:113,1,195.00000743866,2|2,0:0|0:1,0:0:0:0:
114,271,296434,6,0,P|137:213|114:154,1,130,2|2,0:0|0:1,0:0:0:0:
307,343,297879,6,0,B|331:306|402:302|402:302|457:222|457:222|402:138|402:138|376:120|324:128|324:128|255:13|255:13|186:128|186:128|134:120|108:138|108:138|53:222|53:222|108:302|108:302|179:306|205:343,1,1040,2|2,0:0|0:0,0:0:0:0:
316,195,304905,6,0,P|258:220|198:198,1,130,2|2,0:1|0:0,0:0:0:0:
415,133,306386,6,0,P|441:190|424:251,1,130,2|2,0:0|0:1,0:0:0:0:
311,72,307998,6,0,L|181:64,1,130,2|2,0:0|0:1,0:0:0:0:
81,197,309556,6,0,B|175:148|213:273|326:185,1,260,2|0,0:1|0:0,0:0:0:0:
256,192,312601,12,0,318285,0:0:0:0:
256,192,319850,5,0,0:0:0:0:
