osu file format v9

[General]
AudioFilename: Nijiiro.mp3
AudioLeadIn: 0
PreviewTime: 468
Countdown: 0
SampleSet: Soft
StackLeniency: 0.5
Mode: 0
LetterboxInBreaks: 0
StoryFireInFront: 0
EpilepsyWarning: 1

[Editor]
DistanceSpacing: 1.1
BeatDivisor: 4
GridSize: 4

[Metadata]
Title:Nijiiro
Artist:Chata
Creator:Astom
Version:Normal
Source:Lovekami
Tags:

[Difficulty]
HPDrainRate:2
CircleSize:3
OverallDifficulty:2
ApproachRate:4
SliderMultiplier:0.999999999999999
SliderTickRate:1

[Events]
//Background and Video events
0,0,"BG.png"
//Break Periods
2,13808,16732
2,19733,22658
2,89363,92288
2,95289,97658
2,166400,175251
2,230104,234880
2,243437,247843
//Storyboard Layer 0 (Background)
//Storyboard Layer 1 (Fail)
//Storyboard Layer 2 (Pass)
//Storyboard Layer 3 (Foreground)
//Storyboard Sound Samples
//Background Colour Transformations
3,100,163,162,255

[TimingPoints]
275,370.37037037037,4,2,0,70,1,0
1756,-100,4,2,0,70,0,1
2034,-100,4,2,2,70,0,1
2219,-100,4,2,0,70,0,1
4626,-100,4,2,2,70,0,1
5923,-100,4,2,0,70,0,1
7960,-100,4,2,2,70,0,1
8145,-100,4,2,0,70,0,1
9441,-100,4,2,2,70,0,1
9626,-100,4,2,0,70,0,1
13515,-100,4,2,0,70,0,0
13608,-100,4,2,0,70,0,1
13700,-100,4,2,1,60,0,0
29071,-100,4,2,0,60,0,0
29256,-100,4,2,1,60,0,0
32219,-100,4,2,0,60,0,0
32404,-100,4,2,1,60,0,0
38145,-100,4,2,0,60,0,0
38330,-100,4,2,1,60,0,0
41108,-100,4,2,0,60,0,0
41293,-100,4,2,1,60,0,0
43886,-100,4,2,0,60,0,0
44071,-100,4,2,1,60,0,0
49163,-100,4,2,1,60,0,1
49256,-100,4,2,1,60,0,0
54256,-100,4,2,0,60,0,0
54441,-100,4,2,1,60,0,0
55737,-100,4,2,0,60,0,0
55923,-100,4,2,1,60,0,0
57219,-100,4,2,0,60,0,0
57404,-100,4,2,1,60,0,0
62497,-100,4,2,1,60,0,1
74256,-100,4,2,1,60,0,0
74349,-100,4,2,1,60,0,1
80923,-100,4,2,0,60,0,1
81108,-100,4,2,1,60,0,1
82404,-100,4,2,0,60,0,1
82589,-100,4,2,1,60,0,1
86108,-100,4,2,1,60,0,0
86200,-100,4,2,1,60,0,1
86293,-100,4,2,1,60,0,0
104812,-100,4,2,0,60,0,0
104997,-100,4,2,1,60,0,0
124719,-100,4,2,1,60,0,1
124812,-100,4,2,1,60,0,0
128330,-100,4,2,0,60,0,0
128515,-100,4,2,1,60,0,0
138052,-100,4,2,1,60,0,1
149812,-100,4,2,1,60,0,0
149904,-100,4,2,1,60,0,1
156478,-100,4,2,0,60,0,1
156663,-100,4,2,1,60,0,1
157960,-100,4,2,0,60,0,1
158145,-100,4,2,1,60,0,1
161663,-100,4,2,1,60,0,0
161756,-100,4,2,1,60,0,1
161849,-100,4,2,1,60,0,0
182497,-100,4,2,1,60,0,1
188330,-100,4,2,1,60,0,0
188423,-100,4,2,1,60,0,1
188515,-100,4,2,1,60,0,0
189071,-100,4,2,0,60,0,0
189256,-100,4,2,1,60,0,0
191478,-100,4,2,0,60,0,0
191663,-100,4,2,1,60,0,0
201756,-100,4,2,1,60,0,1
213515,-100,4,2,1,60,0,0
213608,-100,4,2,1,60,0,1
220182,-100,4,2,0,60,0,1
220367,-100,4,2,1,60,0,1
225367,-100,4,2,1,60,0,0
225460,-100,4,2,1,60,0,1
225552,-100,4,2,1,60,0,0
249071,-100,4,2,1,0,0,0
252960,-100,4,2,1,50,0,0
253886,-100,4,2,0,30,0,0
258145,-133.333333333333,4,2,1,0,0,0

[Colours]
Combo1 : 198,252,86
Combo2 : 255,255,128
SliderBorder : 251,183,183

[HitObjects]
120,284,1756,2,0,B|204:360|324:360|404:264,1,300,4|8
500,280,3237,1,0
448,184,3608,2,0,B|408:140|452:88,2,99.9999999999999,8|0|8
336,188,4719,5,2
288,88,5089,1,8
188,132,5460,2,0,B|112:132|56:60,2,150,2|8|8
168,240,6941,5,0
168,240,7312,1,8
68,288,7682,2,0,B|208:184|352:304,1,300,4|8
304,192,9163,2,0,B|416:236|496:132,1,200,4|0
484,146,10274,1,8
256,192,10460,12,4,13608
384,252,18052,6,0,B|284:232|244:324,1,150,2|2
256,192,18978,2,0,B|196:192,3,50,2|8|8|4
256,192,23978,12,4,25460
256,192,25830,5,8
256,192,26015,2,0,B|192:212|188:276,1,99.9999999999999
192,316,26571,1,8
300,316,26941,2,0,B|348:268,3,50,0|0|8|0
444,280,27867,2,0,B|488:236,3,50,0|8|8|4
412,156,28793,6,0,B|356:64|232:88,1,200,8|8
312,168,29904,2,0,B|224:148|180:216,1,150,0|8
180,324,30830,2,0,B|180:384,3,50,0|8|8|4
88,264,31756,5,8
88,264,31941,2,8,B|148:196|84:128,1,150,0|8
196,129,32867,2,0,B|196:74|271:56,2,99.9999999999999,0|8|0
196,240,33978,2,0,B|196:292,2,50,8|8|4
308,188,34719,5,8
264,88,35089,2,0,B|312:48|364:96,1,99.9999999999999,2|8
444,24,35830,2,0,B|512:92|440:168,1,150,2|2
448,268,36756,2,0,B|448:336,3,50,0|8|8|4
336,320,37682,5,8
336,320,37867,2,0,B|308:240|212:244,1,150,0|8
108,244,38793,2,0,B|164:220|164:144,1,99.9999999999999,2|8
164,112,39349,1,8
56,112,39719,2,0,B|8:64,3,50,0|8|8|4
164,112,40645,5,8
164,112,40830,2,0,B|248:112|292:40,1,150,0|8
300,152,41756,2,0,B|396:136|428:224,1,150,2|8
424,324,42682,2,0,B|424:380,3,50,0|8|8|4
328,324,43608,6,0,B|280:228|144:228,1,200,8|8
76,296,44719,2,0,B|16:224|88:144,1,150,2|8
185,159,45645,2,0,B|229:115,3,50,0|8|8|4
332,124,46571,5,8
332,124,46756,2,0,B|424:124|448:224,1,150,0|8
444,316,47682,1,4
336,316,48052,6,0,B|224:316,1,99.9999999999999,2|2
124,316,48793,2,0,B|52:316,2,50,8|8|4
180,220,49534,5,8
180,220,49719,2,0,B|92:220|56:140,1,150,0|8
60,92,50460,1,4
168,92,50830,5,0
168,92,51015,2,0,B|280:12|404:96,1,250,8|4
511,93,52312,1,0
511,93,52497,2,0,B|456:116|456:192,2,99.9999999999999,8|0|8
511,93,53423,1,4
400,92,53793,5,8
400,92,53978,2,0,B|376:232|216:244,1,250,8|8
172,244,55089,1,4
252,320,55460,6,0,B|220:232|116:212|48:288,1,250,8|4
72,176,56756,5,8
72,176,56941,2,0,B|208:200|292:80,1,250,8|8
288,84,58052,1,4
400,84,58423,5,8
348,180,58793,2,0,B|352:260|440:296,1,150,0|4
256,192,59441,12,4,60830
80,192,61386,5,8
148,276,61756,1,8
256,296,62126,1,8
256,296,62497,6,0,B|328:216|456:256,1,200,4|2
500,160,63608,1,8
436,72,63978,6,0,B|388:160|264:160,1,200,2|2
156,160,65089,1,8
80,80,65460,6,0,B|184:128|156:248,1,200,4|4
48,244,66571,1,8
48,244,66941,2,0,B|40:308|112:324,1,99.9999999999999,4|8
212,320,67682,6,0,B|296:320|328:224,1,150,0|8
324,180,68423,1,4
432,180,68793,5,8
484,276,69163,2,0,B|412:204|432:144|432:72,1,200,0|4
328,128,70274,5,8
240,60,70645,2,0,B|192:160|64:144,1,200,0|4
148,228,71756,5,8
148,228,72126,2,0,B|16:228|-12:352,1,200
104,328,73237,5,8
216,328,73608,1,8
312,276,73978,1,8
312,276,74349,6,0,B|372:188|504:220,1,200,4|2
428,124,75460,1,8
428,124,75830,6,0,B|352:204|244:156,1,200,2|0
324,80,76941,1,8
324,80,77312,6,0,B|204:24|136:124,1,200,4|4
36,112,78423,1,8
36,112,78793,2,0,B|96:140|88:208,1,99.9999999999999,4|8
44,292,79534,6,0,B|128:316|184:256,1,150,0|8
188,312,80274,2,0,B|300:192|476:240,1,300,4|8
376,168,81756,6,0,B|208:204|96:68,1,300,4|8
105,79,83237,1,4
256,192,83330,12,4,86200
132,252,86571,5,8
132,252,86941,2,0,B|228:180|324:256,1,200,0|4
292,144,88052,1,4
292,144,88423,2,0,B|412:164|484:76,1,200,8|4
128,132,93608,6,0,B|228:152|268:60,1,150,2|2
256,192,94534,2,0,B|316:192,3,50,2|8|8|4
256,192,98978,12,4,101015
256,112,101386,2,0,B|312:112|340:160,1,99.9999999999999,8|0
448,157,102126,1,8
448,157,102497,2,0,B|360:169|336:269,1,150,2|8
344,364,103423,2,0,B|276:364,3,50,0|8|8|4
184,364,104349,5,8
184,364,104534,2,0,B|152:284|48:296,1,150,0|8
64,184,105460,2,0,B|16:136,3,50,2|0|8|8
68,44,106386,2,0,B|112:88,3,50,0|8|8|4
212,80,107312,5,8
320,80,107682,2,0,B|408:80|440:164,1,150,2|8
436,268,108608,2,8,B|436:336,2,50,0|8|8
340,212,109349,2,0,B|268:212,3,50,0|8|8|2
340,312,110274,6,0,B|284:344|240:308,1,99.9999999999999,8|2
136,312,111015,1,8
188,216,111386,2,0,B|144:152|44:152,1,150,0|2
4,56,112312,2,0,B|64:56,3,50,2|8|8|4
164,56,113237,5,8
112,156,113608,2,0,B|64:192|64:240,1,99.9999999999999,0|8
68,348,114349,6,0,B|140:304|216:348,1,150,2|8
320,344,115274,2,0,B|376:344,3,50,0|8|8|4
452,272,116200,5,8
452,272,116571,2,0,B|416:168|280:168,1,200,0|2
216,244,117682,1,8
216,244,117867,2,0,B|160:232|160:172,1,99.9999999999999
160,116,118423,2,0,B|160:52,2,50,8|8|4
52,140,119163,5,8
52,252,119534,2,0,B|108:252|128:308,1,99.9999999999999,0|8
236,304,120274,6,0,B|276:212|416:212,1,200,2|0
512,212,121386,1,8
512,212,121756,6,0,B|400:168|400:60,1,200,4|0
332,148,122867,1,8
332,256,123237,6,0,B|300:212|248:212,1,99.9999999999999,2|2
244,324,123978,2,0,B|188:300|152:348,2,99.9999999999999,8|8|4
172,240,125089,5,8
172,240,125274,2,0,B|96:240|44:164,1,150,0|8
48,112,126015,1,4
92,12,126386,5,8
92,12,126571,2,0,B|152:24|156:92,1,99.9999999999999,8|0
156,136,127126,2,0,B|156:200,2,50,8|8|4
264,136,127867,5,0
264,136,128052,2,0,B|264:272|400:356,1,250,8|4
492,342,129349,2,0,B|492:286,2,50,8|8|8
492,176,130274,6,0,B|492:108,2,50,8|8|4
384,148,131015,1,8
452,60,131386,2,0,B|380:12|304:64,1,150,0|4
200,60,132312,5,0
148,60,132497,1,8
40,60,132867,2,0,B|-8:112,4,50,0|0|8|8|4
92,156,133978,5,8
204,156,134349,2,0,B|300:156|316:252,1,150,0|4
256,192,134997,12,4,136386
444,228,136941,5,8
408,124,137312,1,8
304,88,137682,1,8
344,196,138052,6,0,B|252:148|140:200,1,200,4|2
244,252,139163,1,8
244,252,139534,6,0,B|176:252|112:300|112:384,1,200,2|2
48,284,140645,1,8
48,284,141015,6,0,B|132:212|68:92,1,200,4|4
176,148,142126,1,8
176,148,142497,2,0,B|188:88|264:76,1,99.9999999999999,4|8
284,184,143237,6,0,B|372:172|416:264,1,150,2|8
408,304,143978,1,4
504,248,144349,5,8
504,248,144719,2,0,B|412:184|456:52,1,200,2|4
352,120,145830,5,8
352,120,146200,2,0,B|288:28|152:76,1,200,2|4
248,152,147312,5,8
248,152,147682,2,0,B|120:152|88:268,1,200,2|2
0,316,148793,5,8
92,376,149163,1,8
184,316,149534,1,8
184,208,149904,6,0,B|208:108|344:92,1,200,4|2
240,32,151015,1,8
240,32,151386,6,0,B|332:96|428:32,1,200,2|2
500,116,152497,1,8
468,220,152867,6,0,B|348:220|288:320,1,200,4|4
296,196,153978,1,8
296,196,154349,2,0,B|244:232|184:188,1,99.9999999999999,4|8
92,200,155089,6,0,B|112:120|200:100,1,150,0|8
156,64,155830,2,0,B|312:-8|448:88,1,300,2|8
336,120,157312,2,0,B|468:156|472:296|416:360,1,300,2|8
417,357,158793,1,4
256,192,158886,12,4,161756
352,264,162126,5,8
308,364,162497,2,0,B|268:256|148:252|152:252,1,200,0|4
240,184,163608,1,4
240,184,163978,2,0,B|132:176|76:76,1,200,8|4
256,192,164812,12,4,166200
80,192,176571,6,0,B|200:192|264:292,1,200,4|0
364,276,177682,1,8
336,384,178052,6,0,B|328:292|428:200,1,200,2|0
488,124,179163,1,8
488,124,179534,6,0,B|392:196|296:124,1,200,2|0
216,64,180645,1,8
216,64,181015,6,0,B|100:64|64:192,1,200,4|2
16,272,182126,1,8
128,272,182497,6,0,B|152:336|248:352|284:268,1,200,4|0
392,272,183608,1,8
340,176,183978,6,0,B|352:64|488:44,1,200,2|0
472,156,185089,1,8
416,248,185460,6,0,B|392:312|296:328|260:244,1,200,2|0
152,248,186571,1,8
256,192,186941,12,4,188423
448,192,188793,6,0,B|304:272|216:136,1,250,8|4
220,264,190089,1,0
220,264,190274,2,0,B|180:192|92:212,1,150,8|8
24,124,191200,6,0,B|104:152|160:76,1,150,4|8
240,12,192126,2,0,B|308:12,3,50,2|8|8|4
240,112,193052,2,0,B|308:112,3,50,8|8|0|0
400,108,193978,6,0,B|436:60,2,50,8|8|4
476,188,194719,2,0,B|384:204|360:296,1,150,8|8
276,212,195645,2,0,B|252:296|160:316,1,150,4|8
64,192,196756,6,0,B|20:148,3,50,0|8|8|4
132,116,197682,1,8
236,84,198052,2,0,B|280:160|384:120,1,150,0|4
256,192,198700,12,4,200089
444,312,200645,5,8
336,312,201015,1,8
260,232,201386,1,8
364,196,201756,6,0,B|296:96|176:156,1,200,4|2
100,84,202867,1,8
100,84,203237,6,0,B|184:184|80:268,1,200,2|2
160,344,204349,1,8
236,264,204719,6,0,B|344:320|440:256,1,200,4|4
488,172,205830,1,8
380,168,206200,2,0,B|328:136|284:168,1,99.9999999999999,4|8
220,76,206941,6,0,B|184:156|88:156,1,150,2|8
48,156,207682,1,4
120,240,208052,5,8
56,328,208423,2,0,B|172:292|252:384,1,200,2|4
232,260,209534,5,8
232,260,209904,2,0,B|344:292|432:204,1,200,2|4
404,328,211015,5,8
404,328,211386,2,0,B|416:228|524:160,1,200,2|2
448,80,212497,5,8
380,168,212867,1,8
272,196,213237,1,8
348,276,213608,6,0,B|288:172|184:176,1,200,4|2
256,88,214719,1,8
256,88,215089,6,0,B|156:152|64:84,1,200,2|2
28,192,216200,1,8
80,288,216571,6,0,B|208:256|252:372,1,200,4|4
356,360,217682,1,8
356,360,218052,2,0,B|368:304|440:292,1,99.9999999999999,4|8
464,192,218793,6,0,B|436:108|348:108,1,150,0|8
380,60,219534,2,0,B|196:28|112:152,1,300,2|8
112,40,221015,2,0,B|-16:136|40:312,1,300,2|8
39,308,222497,1,4
256,192,222589,12,4,223978
256,192,224349,5,8
256,192,224719,1,8
256,192,225089,1,8
256,192,225460,12,4,229904
88,336,236200,5,8
196,348,236571,1,8
296,304,236941,1,8
196,260,237312,6,0,B|268:176|388:228,1,200,4|2
468,160,238423,1,8
468,160,238793,6,0,B|364:200|276:116,1,200,2|2
256,228,239904,1,8
256,228,240274,6,0,B|232:152|128:152,1,150,2|2
84,152,241015,1,2
20,244,241386,1,8
84,332,241756,6,0,B|184:408|284:320,1,200,0|8
380,332,242867,2,0,B|424:288,2,50,8|8|4
256,192,249163,12,0,252867
196,356,253978,5,2
196,356,254349,2,0,B|172:300|116:300,1,99.9999999999999,0|2
120,244,254904,2,0,B|28:252|-4:164,1,150,2|2
104,140,255830,5,0
196,200,256200,1,0
196,200,256386,2,0,B|284:60|428:168,1,250,2|0
384,48,257682,2,0,B|432:88|488:40,1,99.9999999999999,2|4
256,192,258145,12,0,263978
