osu file format v9

[General]
AudioFilename: 1.mp3
AudioLeadIn: 500
PreviewTime: 75820
Countdown: 0
SampleSet: Soft
StackLeniency: 0.7
Mode: 0
LetterboxInBreaks: 0

[Editor]
DistanceSpacing: 1
BeatDivisor: 4
GridSize: 4

[Metadata]
Title:Nagareboshi
Artist:Chata
Creator:Nymph
Version:Normal
Source:
Tags:Nanairo shooting star

[Difficulty]
HPDrainRate:3
CircleSize:3
OverallDifficulty:3
ApproachRate:4
SliderMultiplier:1.1
SliderTickRate:2

[Events]
//Background and Video events
0,0,"1231231234123.jpg"
//Break Periods
//Storyboard Layer 0 (Background)
//Storyboard Layer 1 (Fail)
//Storyboard Layer 2 (Pass)
//Storyboard Layer 3 (Foreground)
//Storyboard Sound Samples
//Background Colour Transformations
3,100,163,162,255

[TimingPoints]
1990,468.75,4,2,1,35,1,0
16990,-100,4,2,1,50,0,0
32458,-100,4,2,1,35,0,0
76990,-100,4,2,1,50,0,1
105115,-100,4,2,1,35,0,0

[Colours]
Combo1 : 179,255,179
Combo2 : 89,172,255
Combo3 : 255,185,255
Combo4 : 186,117,255

[HitObjects]
114,63,1990,2,0,B|130:117|109:171,1,110,2|0
74,214,2693,2,0,B|152:260|168:345,1,165,2|0
276,359,3865,2,0,B|302:309|355:286,1,110,2|0
411,280,4568,2,0,B|388:192|437:120,1,165,2|0
352,51,5740,5,2
248,20,6208,1,0
152,76,6677,2,0,B|149:139|109:174,1,110,2|0
100,285,7615,2,0,B|151:303|178:364,1,110,2|0
228,376,8318,2,0,B|292:328|384:325,1,165,2|0
471,260,9490,5,2
471,150,9958,1,0
407,60,10427,2,0,B|353:36|299:60,1,110,2|0
266,103,11130,2,0,B|209:121|155:103,1,110,2|0
108,128,11833,2,0,B|108:194,1,55,0|0
65,217,12302,2,0,B|65:284,1,55,2|0
117,290,12771,2,0,B|117:356,1,55,0|0
171,351,13240,6,0,B|225:337|280:351,1,110,2|0
321,315,13943,2,0,B|375:329|430:315,1,110,2|0
465,272,14646,2,0,B|465:214,1,55,0|0
465,161,15115,5,2
428,56,15583,1,0
320,32,16052,1,2
256,124,16521,1,8
256,236,16990,6,0,B|234:290|179:314,1,110,4|8
126,319,17693,2,0,B|71:297|47:242,1,110,0|0
32,191,18396,1,8
101,105,18865,2,0,B|121:52|172:22,1,110,2|8
223,40,19568,2,0,B|273:67|329:68,1,110,0|0
383,72,20271,1,8
437,167,20740,6,0,B|444:224|409:273,1,110,2|8
366,304,21443,2,0,B|308:311|259:276,1,110,0|0
220,240,22146,1,8
110,248,22615,2,0,B|119:192|90:140,1,110,2|8
118,94,23318,2,0,B|174:92|223:65,1,110,0|0
274,44,24021,1,8
376,85,24490,6,0,B|373:144|381:197,1,110,2|8
435,189,25193,2,0,B|438:248|430:301,1,110,0|0
409,349,25896,1,8
310,300,26365,2,0,B|251:297|198:305,1,110,2|8
206,359,27068,2,0,B|147:362|94:354,1,110,0|0
46,333,27771,1,8
76,227,28240,6,0,B|75:168|33:126,1,110,2|8
64,81,28943,2,0,B|104:40|163:39,1,110,0|0
213,62,29646,1,8
258,162,30115,2,0,B|313:186|371:185,1,110,2|8
419,182,30818,2,0,B|470:221|490:277,1,110,0|0
487,322,31521,2,0,B|438:350,1,55,8|0
384,352,31990,5,4
291,293,32458,1,8
198,353,32927,2,0,B|144:366|81:363,1,110,2|8
41,335,33630,1,0
50,280,33865,2,0,B|53:221|39:171,1,110,2|8
114,90,34802,2,0,B|166:97|226:92,1,110,2|8
330,120,35740,6,0,B|351:94|358:74,2,55,2|0|8
426,172,36677,2,0,B|453:152|465:134,2,55,2|0|8
412,281,37615,2,0,B|443:293|459:307,2,55,2|0|8
303,297,38552,2,0,B|303:333|294:359,2,55,2|0|8
256,196,39490,5,2
180,275,39958,1,8
107,357,40427,2,0,B|49:340|17:292,1,110,2|8
24,239,41130,1,0
35,185,41365,2,0,B|39:130|22:77,1,110,2|8
126,43,42302,2,0,B|163:84|213:108,1,110,2|8
308,52,43240,6,0,B|334:63|353:84,2,55,2|0|8
315,161,44177,2,0,B|334:182|360:193,2,55,2|0|8
423,140,45115,2,0,B|449:151|468:172,2,55,2|0|8
441,248,46052,2,0,B|460:269|486:280,2,55,2|0|8
365,328,46990,5,4
256,347,47458,1,8
163,287,47927,2,0,B|127:321|68:343,1,110,2|8
19,318,48630,1,0
10,263,48865,2,0,B|16:208|15:150,1,110,2|8
113,104,49802,2,0,B|155:143|210:164,1,110,2|8
212,272,50740,6,0,B|196:296|189:329,2,55,2|0|8
311,318,51677,2,0,B|331:344|359:356,2,55,2|0|8
403,257,52615,2,0,B|432:273|461:276,2,55,2|0|8
487,186,53552,2,0,B|497:154|498:128,2,55,2|0|8
398,120,54490,5,2
331,32,54958,1,8
239,92,55427,2,0,B|175:104|122:101,1,110,2|8
58,186,56365,2,0,B|122:198|175:195,1,110,2|8
95,278,57302,2,0,B|155:286|215:274,1,110,2|8
291,343,58240,6,0,B|264:353|231:354,2,55,2|0|8
401,339,59177,2,0,B|428:349|461:350,2,55,2|0|8
328,256,60115,2,0,B|301:266|268:267,2,55,2|0|8
438,253,61052,2,0,B|465:263|498:264,2,55,2|0|8
491,156,61990,5,4
429,65,62458,1,8
330,113,62927,2,0,B|256:124|202:116,1,110,2|8
117,157,63865,2,0,B|75:119|57:59,2,110,2|8|2
55,248,65271,1,8
109,343,65740,6,0,B|158:313|184:246,1,110,2|8
242,170,66677,2,0,B|299:183|353:179,1,110,2|8
404,275,67615,2,0,B|429:326|483:351,2,110,2|8|2
458,179,69021,1,8
404,82,69490,6,0,B|353:71|287:78,1,110,4|8
257,118,70193,1,0
226,163,70427,2,0,B|175:152|109:159,1,110,2|8
64,255,71365,2,0,B|122:261|173:250,1,110,2|8
198,299,72068,1,0
236,340,72302,2,0,B|294:346|345:335,1,110,2|8
431,266,73240,6,0,B|445:209|444:151,1,110,2|8
395,58,74177,1,2
315,133,74646,1,8
257,39,75115,1,4
256,258,76052,6,0,B|252:295|261:319|256:369,1,110,2|8
146,357,76990,6,0,B|93:332|71:276,1,110,4|8
93,228,77693,2,0,B|108:165|104:111,1,110,2|0
112,64,78396,2,0,B|131:39|162:20,1,55,8|0
208,20,78865,6,0,B|264:30|321:32,1,110,2|8
326,87,79568,2,0,B|383:97|439:96,1,110,2|0
490,99,80271,2,0,B|498:137|500:175,1,55,8|0
496,208,80740,5,2
388,231,81208,1,8
278,244,81677,2,0,B|272:279|272:302,1,55,2|0
217,293,82146,2,0,B|218:330|199:364,1,55,8|0
152,355,82615,6,0,B|98:362|39:356,1,110,2|8
24,304,83318,2,0,B|26:256|20:194,1,110,2|0
36,140,84021,2,0,B|77:146|102:140,1,55,8|0
113,91,84490,6,0,B|172:70|228:69,1,110,2|8
243,119,85193,2,0,B|299:136|354:139,1,110,2|0
397,105,85896,2,0,B|433:104|461:111,1,55,8|0
477,157,86365,6,0,B|487:209|478:278,1,110,2|8
441,307,87068,2,0,B|384:316|328:307,1,110,2|0
300,352,87771,2,0,B|263:360|230:359,1,55,8|0
194,338,88240,6,0,B|153:306|145:243,1,110,2|8
140,187,88943,2,0,B|94:215|35:223,1,110,2|0
6,176,89646,2,0,B|9:140|6:109,1,55,8|0
10,66,90115,5,2
111,24,90583,1,8
210,70,91052,1,2
316,41,91521,1,8
416,86,91990,6,0,B|406:144|418:201,1,110,4|8
469,210,92693,2,0,B|477:267|466:323,1,110,2|0
420,349,93396,2,0,B|389:356|359:353,1,55,8|0
325,315,93865,6,0,B|270:308|209:312,1,110,2|8
204,257,94568,2,0,B|149:265|94:260,1,110,2|0
57,219,95271,2,0,B|49:184|57:143,1,55,8|0
54,109,95740,5,2
130,29,96208,1,8
230,74,96677,2,0,B|261:82|295:77,1,55,2|0
327,113,97146,2,0,B|359:116|386:115,1,55,8|0
436,119,97615,6,0,B|469:157|496:221,1,110,2|8
453,251,98318,2,0,B|445:309|406:351,1,110,2|0
352,347,99021,2,0,B|324:343|293:346,1,55,8|0
242,348,99490,5,2
207,243,99958,1,8
119,310,100427,2,0,B|87:297|67:281,1,55,2|0
43,236,100896,1,8
36,181,101130,6,0,B|55:112|101:80,1,110,2|0
145,82,101833,2,0,B|181:95|213:95,1,55,8|0
243,125,102302,2,0,B|279:134|314:126,1,55,2|0
348,106,102771,2,0,B|382:114|411:109,1,55,8|0
443,147,103240,6,0,B|441:212|443:260,1,110,2|8
432,311,103943,2,0,B|376:303|319:308,1,110,2|0
273,332,104646,2,0,B|239:336|209:334,1,55,8|0
256,192,105115,12,4,106990
