osu file format v9

[General]
AudioFilename: 1.mp3
AudioLeadIn: 500
PreviewTime: 75820
Countdown: 0
SampleSet: Soft
StackLeniency: 0.7
Mode: 0
LetterboxInBreaks: 0

[Editor]
DistanceSpacing: 1
BeatDivisor: 4
GridSize: 4

[Metadata]
Title:Nagareboshi
Artist:Chata
Creator:Nymph
Version:Hard
Source:
Tags:Nanairo shooting star

[Difficulty]
HPDrainRate:6
CircleSize:4
OverallDifficulty:7
ApproachRate:8
SliderMultiplier:1.6
SliderTickRate:2

[Events]
//Background and Video events
0,0,"1231231234123.jpg"
//Break Periods
//Storyboard Layer 0 (Background)
//Storyboard Layer 1 (Fail)
//Storyboard Layer 2 (Pass)
//Storyboard Layer 3 (Foreground)
//Storyboard Sound Samples
//Background Colour Transformations
3,100,163,162,255

[TimingPoints]
1990,468.75,4,2,1,35,1,0
16990,-100,4,2,1,50,0,0
32458,-100,4,2,1,35,0,0
76052,-200,4,2,1,35,0,0
76990,-100,4,2,1,50,0,1
105115,-100,4,2,1,35,0,0

[Colours]
Combo1 : 179,255,179
Combo2 : 89,172,255
Combo3 : 255,185,255
Combo4 : 186,117,255

[HitObjects]
88,64,1990,2,0,B|80:148|148:204,1,160,2|0
227,189,2693,2,0,B|216:276|141:318,1,160,2|0
209,362,3396,1,0
289,361,3630,1,0
443,313,3865,2,0,B|500:265|502:170,1,160,2|0
480,21,4568,2,0,B|423:69|421:165,1,160,2|0
379,233,5271,1,0
315,282,5505,1,0
176,358,5740,5,2
20,224,6208,1,2
124,102,6677,2,0,B|106:62|62:51,2,80,2|0|0
196,65,7380,1,0
270,36,7615,2,0,B|348:13|429:38,1,160,2|0
484,171,8318,2,0,B|406:194|325:169,1,160,2|0
262,120,9021,1,0
223,190,9255,1,0
50,256,9490,6,0,B|71:344|153:368,1,160,2|0
455,311,10427,2,0,B|438:351|393:360,1,80,2|0
384,280,10896,1,0
259,361,11130,2,0,B|177:337|156:249,1,160,2|0
81,220,11833,2,0,B|95:180|137:167,1,80
167,93,12302,2,0,B|154:51|114:37,2,80,2|0|0
237,131,13005,1,0
287,69,13240,6,0,B|364:99|444:70,1,160,2|0
485,138,13943,2,0,B|455:215|484:295,1,160,2|0
434,357,14646,1,0
381,296,14880,1,0
328,355,15115,6,0,B|244:348,1,80,2|0
216,274,15583,2,0,B|146:225,1,80,2|0
91,174,16052,2,0,B|55:97,1,80,2|0
119,51,16521,2,0,B|152:85,2,40,8|0|0
260,45,16990,6,0,B|318:32|378:57,1,120,4|0
411,78,17458,1,8
480,117,17693,1,0
450,191,17927,1,2
487,261,18161,1,0
444,328,18396,1,8
444,328,18513,1,0
444,328,18630,1,0
277,364,18865,6,0,B|217:349|181:294,1,120,2|0
141,293,19333,2,0,B|122:328|78:337,1,80,8|0
8,297,19802,2,0,B|-9:261|8:220,1,80,2|0
88,217,20271,1,8
88,217,20388,1,0
88,217,20505,1,0
181,77,20740,6,0,B|241:100|300:78,1,120,2|0
338,77,21208,1,8
405,34,21443,1,0
463,88,21677,2,0,B|419:164,1,80,2|0
486,205,22146,1,8
486,205,22263,1,0
486,205,22380,1,0
349,311,22615,6,0,B|308:361|241:362,1,120,2|0
219,330,23083,1,8
148,368,23318,1,0
69,353,23552,2,0,B|29:335|24:293,1,80,2|0
41,155,24021,2,0,B|35:198|69:226,1,80,8|0
219,330,24490,6,0,B|271:364|331:368,1,120,2|0
371,367,24958,1,8
413,299,25193,1,0
490,320,25427,2,0,B|505:280|506:241,1,80,2|0
482,165,25896,1,8
482,165,26013,1,0
482,165,26130,1,0
344,27,26365,6,0,B|308:73|318:141,1,120,2|0
342,172,26833,2,0,B|349:216|330:254,1,80,8|0
287,316,27302,2,0,B|250:339|208:334,1,80,2|0
137,301,27771,1,8
137,301,27888,1,0
137,301,28005,1,0
15,141,28240,6,0,B|66:103|129:114,1,120,2|0
153,146,28708,2,0,B|181:173|227:175,1,80,8|0
297,140,29177,1,2
335,69,29411,1,0
404,108,29646,1,8
404,108,29763,1,0
404,108,29880,1,0
471,224,30115,6,0,B|489:281|461:343,1,120,2|0
423,351,30583,2,0,B|383:345|346:363,1,80,8|0
274,326,31052,2,0,B|258:287|259:237,1,80,2|0
183,295,31521,2,0,B|183:334|167:373,1,80,8|0
95,338,31990,1,4
14,136,32458,5,8
206,37,32927,2,0,B|239:65|282:65,1,80,2|0
357,83,33396,1,8
309,147,33630,2,0,B|317:191|345:223,1,80,0|2
446,339,34333,2,0,B|414:358|366:354,1,80,8|0
290,338,34802,1,2
212,316,35036,1,0
148,364,35271,2,0,B|119:340|106:293,1,80,8|0
18,196,35740,5,2
21,116,35974,1,0
88,73,36208,2,0,B|109:35,2,40,8|0|0
161,181,36677,1,2
164,101,36911,1,0
231,58,37146,2,0,B|252:20,2,40,8|0|0
387,64,37615,5,2
454,107,37849,1,0
457,187,38083,2,0,B|477:221,2,40,8|0|0
327,189,38552,1,2
394,232,38786,1,0
397,312,39021,1,8
401,318,39138,1,0
405,324,39255,1,0
409,330,39372,1,0
413,336,39490,1,4
255,366,39958,5,8
96,343,40427,2,0,B|71:314|63:270,1,80,2|0
139,245,40896,1,8
136,164,41130,2,0,B|95:164|62:136,1,80,0|2
183,31,41833,2,0,B|220:52|260:46,1,80,8|0
295,118,42302,1,2
357,67,42536,1,0
394,137,42771,2,0,B|426:156|471:152,1,80,8|0
481,231,43240,5,2
492,310,43474,1,0
419,274,43708,2,0,B|381:251,2,40,8|0|0
301,277,44177,1,2
270,350,44411,1,0
225,283,44646,2,0,B|203:244,2,40,8|0|0
135,207,45115,5,2
72,254,45349,1,0
66,174,45583,2,0,B|66:129,2,40,8|0|0
152,44,46052,2,0,B|191:58|234:50,1,80,2|0
292,102,46521,1,8
299,102,46638,1,0
307,102,46755,1,0
314,102,46872,1,0
321,102,46990,1,4
453,192,47458,5,8
420,348,47927,2,0,B|395:319|387:275,1,80,2|0
313,244,48396,1,8
259,303,48630,2,0,B|226:331|185:331,1,80,0|2
32,182,49333,2,0,B|64:201|109:197,1,80,8|0
104,117,49802,1,2
168,69,50036,1,0
181,147,50271,2,0,B|213:166|258:162,1,80,8|0
311,101,50740,6,0,B|346:108|392:106,1,80,2|0
470,107,51208,1,8
470,107,51325,1,0
470,107,51443,1,0
300,229,51677,2,0,B|335:236|381:234,1,80,2|0
459,235,52146,1,8
459,235,52263,1,0
459,235,52380,1,0
220,333,52615,6,0,B|255:340|301:338,1,80,2|0
379,339,53083,1,8
379,339,53200,1,0
379,339,53318,1,0
139,310,53552,2,0,B|132:275|134:229,1,80,2|0
133,151,54021,1,8
133,143,54138,1,0
133,134,54255,1,0
133,126,54372,1,0
133,118,54490,1,4
256,15,54958,5,8
401,80,55427,2,0,B|409:124|434:153,1,80,2|0
483,214,55896,1,8
479,294,56130,2,0,B|446:322|405:322,1,80,0|2
246,340,56833,2,0,B|214:359|169:355,1,80,8|0
187,277,57302,1,2
108,292,57536,1,0
40,334,57771,2,0,B|21:302|25:257,1,80,8|0
139,165,58240,6,0,B|122:127|87:104,1,80,2|0
143,46,58708,2,0,B|109:26,2,40,8|0|0
287,177,59177,2,0,B|270:139|235:116,1,80,2|0
291,58,59646,2,0,B|257:38,2,40,8|0|0
452,164,60115,6,0,B|435:202|400:225,1,80,2|0
456,283,60583,2,0,B|422:303,2,40,8|0|0
294,257,61052,2,0,B|277:295|242:318,1,80,2|0
173,357,61521,1,8
165,356,61638,1,0
156,356,61755,1,0
148,356,61872,1,0
140,356,61990,1,4
34,235,62458,5,8
88,84,62927,2,0,B|96:128|121:157,1,80,2|0
184,108,63396,1,8
233,171,63630,2,0,B|274:171|307:143,1,80,0|2
452,78,64333,2,0,B|420:97|375:93,1,80,8|0
384,172,64802,1,2
348,243,65036,1,0
389,311,65271,2,0,B|357:330|312:326,1,80,8|0
174,346,65740,6,0,B|130:352|90:347,2,80,2|0|8
134,276,66443,1,0
88,210,66677,2,0,B|44:216|4:211,2,80,2|0|8
48,140,67380,1,0
179,56,67615,2,0,B|220:67|264:60,1,80,2|0
278,138,68083,2,0,B|314:116|340:80,1,80,8|0
402,131,68552,2,0,B|424:162|461:183,1,80,2|0
406,242,69021,2,0,B|436:266|477:277,1,80,8|0
445,351,69490,1,4
256,298,69958,5,8
67,351,70427,2,0,B|38:319|35:275,1,80,2|0
90,220,70896,1,8
53,148,71130,2,0,B|86:120|127:120,1,80,0|2
323,38,71833,2,0,B|291:57|246:53,1,80,8|0
229,131,72302,1,2
309,131,72536,1,0
333,206,72771,2,0,B|378:210|410:191,1,80,8|0
490,323,73240,6,0,B|430:364|338:361,1,160,2|8
277,307,73943,1,0
212,354,74177,2,0,B|173:362|131:358,1,80,2|0
118,279,74646,2,0,B|79:287|37:283,2,80,8|0|4
256,125,75818,5,0
256,125,76052,2,0,B|254:80|256:67|256:43,1,80,2|8
456,164,76990,6,0,B|483:212|478:282,1,120,4|0
466,318,77458,1,8
388,299,77693,1,0
259,361,77927,2,0,B|218:368|174:368,1,80,2|0
31,331,78396,2,0,B|69:332|111:325,1,80,8|0
50,252,78865,2,0,B|24:207|27:136,1,120,2|0
27,95,79333,1,8
82,37,79568,1,0
219,53,79802,2,0,B|249:80|290:87,1,80,2|0
214,142,80271,2,0,B|192:175|154:193,1,80,8|0
300,316,80740,6,0,B|366:369|449:360,1,160,2|8
510,142,81677,2,0,B|483:111|443:101,1,80,2|0
373,60,82146,1,8
370,140,82380,1,0
246,123,82615,2,0,B|200:156|131:159,1,120,2|0
92,158,83083,1,8
38,98,83318,1,0
22,283,83552,2,0,B|17:327|21:365,2,80,2|0|8
26,205,84255,1,0
176,298,84490,6,0,B|216:343|281:350,1,120,2|0
321,352,84958,1,8
384,303,85193,1,0
497,245,85427,2,0,B|502:288|501:333,2,80,2|0|8
495,164,86130,1,0
362,86,86365,2,0,B|357:43|358:-2,2,80,2|0|8
364,167,87068,1,0
322,298,87302,2,0,B|300:333|262:348,1,80,2|0
189,312,87771,2,0,B|152:331|112:325,1,80,8|0
35,222,88240,6,0,B|10:174|14:102,1,120,2|0
14,65,88708,1,8
86,32,88943,1,0
204,109,89177,2,0,B|231:141|272:149,1,80,2|0
290,70,89646,1,8
349,123,89880,1,0
487,226,90115,2,0,B|479:289|433:331,1,120,2|0
395,343,90583,1,8
316,357,90818,1,0
116,349,91052,2,0,B|77:344|34:349,2,80,2|2|8
196,357,91755,1,0
257,207,91990,6,0,B|324:219|388:216,1,120,4|0
416,215,92458,1,8
473,159,92693,1,0
374,32,92927,2,0,B|331:37|295:31,2,80,2|0|8
454,35,93630,1,0
277,116,93865,2,0,B|219:106|153:112,1,120,2|0
117,112,94333,1,8
59,167,94568,1,0
118,290,94802,2,0,B|115:336|105:371,2,80,2|0|8
175,233,95505,1,0
335,287,95740,6,0,B|389:348|478:360,1,160,2|8
493,111,96677,2,0,B|467:78|425:65,1,80,2|0
286,43,97146,2,0,B|312:76|351:88,1,80,8|0
429,237,97615,2,0,B|415:300|361:334,1,120,2|0
323,344,98083,1,8
262,291,98318,1,0
110,354,98552,2,0,B|70:363|32:359,2,80,2|0|8
69,284,99255,1,0
29,89,99490,6,0,B|107:54|185:87,1,160,4|8
214,282,100427,2,0,B|254:294|292:283,1,80,2|0
344,220,100896,1,8
410,358,101130,2,0,B|481:314|491:225,1,160,2|0
485,91,101833,2,0,B|479:134|446:159,1,80,8|0
333,66,102302,2,0,B|307:38|263:34,2,80,2|0|8
270,116,103005,1,0
171,219,103240,6,0,B|87:216|34:144,1,160,2|8
93,295,103943,2,0,B|176:297|229:369,1,160,2|0
308,362,104646,1,8
355,297,104880,1,0
256,192,105115,12,4,106990
