osu file format v9

[General]
AudioFilename: Chata - Miren.mp3
AudioLeadIn: 0
PreviewTime: 107568
Countdown: 0
SampleSet: Soft
StackLeniency: 0.6
Mode: 0
LetterboxInBreaks: 1

[Editor]
DistanceSpacing: 0.8
BeatDivisor: 4
GridSize: 4

[Metadata]
Title:Miren
Artist:Chata
Creator:Apricot
Version:Normal
Source:
Tags:m_i_z_u_k_i mizuki Pokie rakujitsu usagi kinoko

[Difficulty]
HPDrainRate:3
CircleSize:3
OverallDifficulty:2
ApproachRate:4
SliderMultiplier:1
SliderTickRate:2

[Events]
//Background and Video events
0,0,"BG.jpg"
//Break Periods
2,21574,23636
2,68589,74233
2,136649,149457
//Storyboard Layer 0 (Background)
//Storyboard Layer 1 (Fail)
//Storyboard Layer 2 (Pass)
//Storyboard Layer 3 (Foreground)
//Storyboard Sound Samples
//Background Colour Transformations
3,100,163,162,255

[TimingPoints]
330,447.761194029851,4,2,1,50,1,0
31896,-100,4,2,1,30,0,0
32344,-100,4,2,1,50,0,0
107792,-100,4,1,0,60,0,1
121896,-100,4,1,0,50,0,0
122568,-100,4,1,0,60,0,1
136449,-100,4,2,1,60,0,0
183016,-100,4,1,0,60,0,1
197120,-100,4,1,0,50,0,0
197792,-100,4,1,0,60,0,1
210777,-100,4,2,1,50,0,0

[Colours]
Combo1 : 255,255,128
Combo2 : 255,255,255
Combo3 : 119,173,217

[HitObjects]
104,120,7494,6,0,B|152:88|200:120,1,100,0|2
276,120,8389,2,0,B|328:120,2,50,0|0|2
276,200,9285,2,0,B|308:248|276:296,1,100,0|2
196,296,10180,2,0,B|144:296,2,50,0|0|2
196,216,11076,6,0,B|164:168|196:120,1,100,0|2
276,124,11971,2,0,B|308:172|276:220,1,100,0|2
224,280,12867,2,0,B|176:312|128:280,1,100,0|2
72,224,13762,2,0,B|40:176|72:128,1,100,0|2
152,112,14658,6,0,B|192:96|224:128|256:112,2,100,0|2|0
152,192,16001,1,2
152,272,16449,2,0,B|112:288|80:256|48:272,2,100,0|2|0
152,192,17792,1,2
208,136,18240,6,0,B|248:88|312:96,1,100,0|2
364,136,19135,2,0,B|416:136,2,50,0|0|2
296,176,20031,2,0,B|256:224|192:216,1,100,0|2
136,180,20927,2,0,B|84:180,2,50,0|0|2
312,192,24956,5,8
256,128,25404,2,0,B|224:80|168:80,2,100,4|8|0
200,192,26747,1,8
256,256,27195,2,0,B|288:304|344:304,2,100,0|8|0
312,192,28538,1,8
248,144,28986,6,0,B|168:80,1,100,0|8
96,120,29882,2,0,B|176:184,1,100,0|8
236,232,30777,1,0
296,284,31225,2,0,B|376:348,2,100,8|0|12
256,216,32568,6,0,B|224:168|256:120,2,100,4|8|0
336,216,33912,1,8
416,216,34359,2,0,B|448:168|416:120,2,100,0|8|0
336,216,35703,1,8
256,192,36150,12,0,38837
112,80,39732,6,0,B|160:48|208:80,1,100,0|8
272,120,40628,2,0,B|376:120,1,100,0|8
368,200,41524,2,0,B|320:232|272:200,1,100,0|8
200,168,42419,2,0,B|96:168,1,100,0|8
120,248,43315,6,0,B|136:296|200:312,1,100,0|8
272,312,44210,1,0
352,312,44658,1,8
432,288,45106,2,0,B|416:240|352:224,1,100,0|8
280,224,46001,1,0
200,224,46449,1,8
200,144,46897,6,0,B|216:112|176:80|208:40,2,100,0|8|0
280,148,48240,1,8
360,148,48688,2,0,B|344:180|384:212|352:252,2,100,0|8|0
280,148,50031,1,8
200,148,50479,6,0,B|136:156|120:220,2,100,0|8|0
208,228,51822,1,8
284,208,52270,2,0,B|348:200|360:136,2,100,0|8|0
276,128,53613,1,8
200,96,54061,6,0,B|152:56|104:96,2,100,4|8|0
152,160,55404,1,8
104,224,55852,2,0,B|148:264|196:228,2,100,0|8|0
52,160,57195,1,8
104,96,57643,6,0,B|192:16|296:96,1,200,0|0
284,168,58986,1,8
284,248,59434,2,0,B|196:328|92:248,1,200,0|0
140,184,60777,1,8
196,128,61225,6,0,B|172:80|108:72,2,100,4|8|0
248,192,62568,1,8
192,248,63016,2,0,B|168:296|104:304,2,100,0|8|0
136,192,64359,1,8
256,192,64807,12,4,68389
192,80,75553,6,0,B|144:48|96:80,2,100,4|8|0
256,128,76897,2,0,B|256:232,1,100,8|0
312,288,77792,2,0,B|360:320|408:288,2,100,8|0|8
360,224,79135,6,0,B|344:176|280:160,1,100,0|8
212,132,80031,2,0,B|116:80|16:132,1,200,0|0
44,208,81374,1,8
68,284,81822,2,0,B|180:284,1,100,0|8
248,284,82718,6,0,B|264:332|328:348,2,100,0|8|0
288,216,84061,1,8
248,148,84509,2,0,B|344:92|440:148,1,200,0|0
476,216,85852,1,8
432,284,86300,6,0,B|383:327|337:301,2,100,0|8|0
371,231,87643,1,8
308,182,88091,2,0,B|353:136|413:163,2,100,0|8|0
156,128,89882,6,0,B|212:88|260:136,2,100,4|8|0
204,192,91225,1,8
252,256,91673,2,0,B|196:296|148:248,2,100,0|8|0
332,256,93016,1,8
412,256,93464,6,0,B|444:208|412:160,1,100,0|8
412,80,94359,2,0,B|412:32,2,50,0|0|8
332,80,95255,2,0,B|284:48|236:80,1,100,0|8
236,160,96150,2,0,B|236:208,2,50,0|0|8
316,160,97046,6,0,B|348:200|408:188,2,100,0|8|0
256,108,98389,1,8
196,160,98837,2,0,B|164:200|104:188,2,100,0|8|0
256,108,100180,1,8
308,172,100628,6,0,B|340:220|300:276,1,100,0|8
352,332,101524,2,0,B|304:364|248:324,1,100,0|8
192,376,102419,2,0,B|160:328|200:272,1,100,0|8
148,216,103315,2,0,B|196:184|252:224,1,100,0|8
307,264,104210,6,0,B|340:220|308:172,2,100,0|4|4
242,217,105553,1,4
160,216,106001,2,0,B|112:216,2,50,0|4|4
242,217,106897,1,4
208,60,107792,6,2,B|256:32|304:60,1,100
256,124,108688,1,8
256,124,109135,1,8
256,204,109583,2,2,B|256:316,2,100,2|10|8
160,76,111374,6,2,B|256:28|352:76,1,200,2|8
352,156,112718,1,8
352,236,113165,2,2,B|256:284|160:236,1,200,2|8
304,164,114956,6,2,B|352:132|400:164,2,100,2|10|2
224,180,116300,1,8
188,252,116747,2,2,B|140:284|92:252,2,100,2|10|2
188,92,118538,6,0,B|236:60|284:92,1,100,8|2
364,92,119434,2,0,B|412:92,2,50,0|0|10
364,172,120330,2,0,B|316:204|268:172,1,100,0|10
188,172,121225,2,0,B|140:172,2,50,0|0|2
188,252,122121,6,2,B|284:300|388:252,1,200,6|2
436,196,123464,1,8
412,120,123912,2,2,B|392:68|340:56,1,100,2|10
284,116,124807,2,2,B|304:168|356:180,1,100,2|10
436,196,125703,6,2,B|492:220|508:300,2,100,2|8|2
372,244,127046,1,8
308,196,127494,2,2,B|252:220|236:300,2,100,2|8|2
372,148,128837,1,8
440,104,129285,6,2,B|476:56|444:12,1,100,2|10
376,56,130180,1,2
376,56,130628,1,8
296,56,131076,2,2,B|184:56,2,100,2|10|0
296,136,132419,5,8
255,205,132867,2,2,B|223:253|255:301,1,100,2|8
335,301,133762,2,2,B|367:253|335:205,1,100,2|8
256,192,134658,12,4,136449
320,304,150777,6,0,B|368:336|416:304,2,100,0|8|0
256,256,152121,2,0,B|256:152,1,100,8|0
200,96,153016,2,0,B|152:64|104:96,2,100,8|0|8
152,160,154359,6,0,B|168:208|232:224,1,100,0|8
296,256,155255,2,0,B|392:312|488:256,1,200,0|0
464,184,156598,1,8
432,112,157046,2,0,B|320:112,1,100,0|8
256,104,157941,6,0,B|240:56|176:40,2,100,0|8|0
256,184,159285,1,8
256,264,159732,2,0,B|160:320|64:264,1,200,0|0
88,192,161076,1,8
120,120,161524,6,0,B|128:56|192:40,2,100,0|8|0
200,120,162867,1,8
280,120,163315,2,0,B|272:184|208:200,2,100,0|8|0
368,256,165106,6,0,B|312:296|264:248,2,100,4|8|0
320,192,166449,1,8
272,128,166897,2,0,B|328:88|376:136,2,100,0|8|0
192,128,168240,1,8
112,128,168688,6,0,B|80:176|112:224,1,100,0|8
112,304,169583,2,0,B|112:352,2,50,0|0|8
192,304,170479,2,0,B|240:336|288:304,1,100,0|8
288,224,171374,2,0,B|288:176,2,50,0|0|8
208,224,172270,6,0,B|184:176|120:168,2,100,0|8|0
280,264,173613,1,8
208,304,174061,2,0,B|240:352|296:344,2,100,0|8|0
136,264,175404,1,8
96,192,175852,6,0,B|64:144|104:88,1,100,0|8
160,48,176748,2,0,B|208:16|264:56,1,100,0|8
316,100,177643,2,0,B|348:148|308:204,1,100,0|8
252,244,178539,2,0,B|204:276|148:236,1,100,0|8
92,196,179434,6,0,B|59:240|91:288,2,100,0|4|4
157,242,180777,1,4
240,244,181225,2,0,B|288:244,2,50,0|4|4
157,242,182121,1,4
8,188,183016,6,2,B|56:156|112:188,1,100,2|2
136,256,183912,1,8
136,256,184359,1,8
200,204,184807,2,2,B|200:92,2,100,2|10|2
344,272,186598,6,2,B|248:320|136:264,1,200,2|8
176,192,187941,1,8
216,120,188389,2,2,B|312:72|424:128,1,200,2|8
312,248,190180,6,2,B|280:296|312:344,2,100,2|10|10
256,192,191524,1,8
200,136,191971,2,2,B|232:88|200:40,2,100,2|10|2
144,288,193762,6,0,B|192:320|240:288,1,100,0|2
320,288,194658,2,0,B|368:288,2,50,0|0|2
320,208,195553,2,0,B|272:176|224:208,1,100,0|2
144,208,196449,2,0,B|96:208,2,50,0|0|2
176,136,197344,6,2,B|272:88|384:144,1,200,2|2
424,192,198688,1,8
376,256,199135,2,2,B|352:312|272:328,1,100,2|10
240,264,200031,2,2,B|264:208|344:192,1,100,2|10
384,168,200927,6,2,B|440:144|456:64,2,100,2|8|2
312,128,202270,1,8
240,168,202718,2,2,B|184:144|168:64,2,100,2|8|2
312,208,204061,1,8
376,256,204509,6,2,B|408:304|376:352,1,100,2|2
312,304,205404,1,8
312,304,205852,1,8
232,304,206300,2,2,B|120:304,2,100,2|10|0
232,224,207643,5,8
192,152,208091,2,2,B|160:104|192:48,1,100,2|10
264,56,208986,2,2,B|296:104|264:160,1,100,2|10
232,224,209882,1,0
256,96,211673,6,0,B|352:32|448:96,1,200,4|0
440,176,213016,1,2
440,256,213464,2,0,B|344:320|248:256,1,200,4|0
192,208,214807,1,2
128,160,215255,6,0,B|88:120|32:120,2,100,0|8|0
192,112,216598,1,8
272,112,217046,2,0,B|384:112,1,100,0|8
400,192,217941,2,0,B|288:192,1,100,8|12
232,232,218837,5,4
160,192,219285,2,0,B|48:192,2,100,8|0|8
232,152,220628,1,0
304,112,221076,2,0,B|416:112,2,100,8|0|8
232,152,222419,5,0
168,104,222867,1,8
100,144,223315,1,0
36,96,223762,1,8
256,192,224210,12,4,225553
360,296,226001,5,4
284,268,226449,2,0,B|252:316|196:316,2,100,8|0|8
256,192,227792,1,4
228,116,228240,2,0,B|260:68|316:68,2,100,8|0|8
256,192,229583,6,0,B|212:224|164:192,1,100,4|8
212,128,230479,2,0,B|256:96|304:128,1,100,0|8
256,192,231374,2,0,B|256:296,2,100,0|8|8
256,112,232718,1,4
184,152,233165,6,0,B|72:152,1,100,4|8
32,88,234061,1,0
32,88,234509,1,8
104,48,234956,2,0,B|216:48,1,100,0|8
272,92,235852,1,0
272,92,236300,1,8
256,192,236747,12,4,240329
