osu file format v9

[General]
AudioFilename: Chata - Miren.mp3
AudioLeadIn: 0
PreviewTime: 107568
Countdown: 0
SampleSet: Soft
StackLeniency: 0.6
Mode: 0
LetterboxInBreaks: 1

[Editor]
DistanceSpacing: 1
BeatDivisor: 4
GridSize: 4

[Metadata]
Title:Miren
Artist:Chata
Creator:Apricot
Version:Hard
Source:
Tags:m_i_z_u_k_i mizuki Pokie rakujitsu usagi kinoko

[Difficulty]
HPDrainRate:5
CircleSize:4
OverallDifficulty:5
ApproachRate:7
SliderMultiplier:1.6
SliderTickRate:2

[Events]
//Background and Video events
0,0,"BG.jpg"
//Break Periods
2,68589,73758
2,136649,148982
//Storyboard Layer 0 (Background)
//Storyboard Layer 1 (Fail)
//Storyboard Layer 2 (Pass)
//Storyboard Layer 3 (Foreground)
//Storyboard Sound Samples
//Background Colour Transformations
3,100,163,162,255

[TimingPoints]
330,447.761194029851,4,2,1,50,1,0
74994,-100,4,1,0,50,0,0
75217,-100,4,2,1,50,0,0
106113,-100,4,2,1,30,0,0
106785,-100,4,2,1,40,0,0
107232,-100,4,2,1,50,0,0
107792,-100,4,1,0,60,0,1
121896,-100,4,1,0,50,0,0
122568,-100,4,1,0,60,0,1
136449,-100,4,2,1,60,0,0
181337,-100,4,2,1,30,0,0
182008,-100,4,2,1,40,0,0
182456,-100,4,2,1,50,0,0
183016,-100,4,1,0,60,0,1
197120,-100,4,1,0,50,0,0
197792,-100,4,1,0,60,0,1
210777,-200,4,2,1,50,0,0

[Colours]
Combo1 : 255,255,128
Combo2 : 255,255,255
Combo3 : 119,173,217

[HitObjects]
56,272,7494,5,0
56,272,7718,1,0
56,272,7941,2,0,B|72:232|120:232,1,80,0|2
136,312,8389,1,0
136,312,8613,2,0,B|240:288|184:176,1,160,0|2
200,112,9285,2,0,B|224:56|264:64|264:64|288:104|352:104,1,160
376,168,9956,1,2
304,208,10180,1,0
304,208,10404,2,0,B|256:224|248:280,2,80,0|0|2
280,128,11076,6,0,B|232:136|184:104,1,80
120,112,11524,2,0,B|104:160|136:208,1,80,0|2
88,260,11971,1,0
88,260,12195,2,0,B|120:340|232:340,1,160,0|2
296,340,12867,2,0,B|391:340|423:260,1,160,0|0
368,204,13538,1,2
308,256,13762,2,0,B|276:224|288:180,1,80
292,104,14210,2,0,B|248:104|224:140,1,80,0|2
168,196,14658,6,0,B|104:260|20:228,2,160,0|2|0
112,136,15777,2,0,B|160:72|256:96,1,160,0|2
324,140,16449,2,0,B|388:188|364:292,1,160,0|0
308,340,17121,1,2
228,324,17344,2,0,B|196:292|212:244,1,80
236,176,17792,2,0,B|264:140|304:140,1,80,0|2
304,220,18240,5,0
304,220,18464,1,0
304,220,18688,2,0,B|280:260|312:308,1,80,0|2
208,164,19135,1,0
208,164,19359,1,0
208,164,19583,2,0,B|232:124|200:76,1,80,0|2
256,192,20031,12,0,21822
256,192,24956,5,12
360,72,25404,1,2
368,88,25516,1,0
376,104,25628,1,2
384,120,25740,1,0
392,136,25852,2,0,B|384:184|336:192,1,80,8|4
280,136,26300,1,0
232,200,26524,1,4
288,264,26747,2,0,B|376:240,1,80,0|4
440,224,27195,6,0,B|464:192|472:152|472:152|464:112|440:76,2,160,0|8|0
360,80,28538,1,8
280,224,28986,2,0,B|256:192|248:152|248:152|256:112|280:76,2,160,0|8|0
352,368,30330,1,8
352,368,30777,6,0,B|360:320|392:304,1,80
472,304,31225,2,0,B|464:256|432:240,1,80,8|0
352,232,31673,2,0,B|360:184|392:168,1,80,0|0
472,160,32121,2,0,B|464:112|432:96,1,80,8|0
360,56,32568,5,2
352,72,32680,1,0
344,88,32792,1,2
336,104,32904,1,0
328,120,33016,2,0,B|352:160|400:160,1,80,8|4
328,208,33464,2,0,B|304:248|256:248,1,80,0|4
192,208,33912,2,0,B|216:168|264:168,1,80,0|4
336,160,34359,6,0,B|360:192|368:232|368:232|360:272|336:308,2,160,0|8|0
256,304,35703,1,8
176,160,36150,2,0,B|152:192|144:232|144:232|152:272|176:308,2,160,0|8|0
256,192,37270,12,0,38389
64,224,38837,6,0,B|96:264|160:272,1,80,2|0
208,248,39285,1,0
256,312,39509,1,2
256,312,39956,1,0
256,312,40180,2,0,B|304:312|336:280,1,80,8|0
400,320,40628,2,0,B|416:272|384:224,1,80
464,200,41076,2,0,B|424:160|360:160,1,80,8|0
312,176,41524,1,0
232,160,41747,1,0
176,104,41971,1,8
152,24,42195,6,0,B|112:40|88:88,1,80,0|2
16,56,42643,2,0,B|8:104|32:152,1,80,2|8
96,168,43091,2,0,B|140:144|180:164,1,80,2|0
196,236,43538,2,0,B|292:208|336:152,1,160,2|0
408,128,44210,2,0,B|416:176|384:232,1,80
472,232,44658,2,0,B|448:272|392:280,1,80,8|0
352,336,45106,1,0
280,296,45330,1,0
224,352,45553,1,8
160,304,45777,6,0,B|128:272|72:272,1,80,0|2
120,200,46225,2,0,B|72:184|24:216,1,80,2|8
24,128,46673,2,0,B|32:80|64:60,1,80,2|0
136,32,47121,2,0,B|144:120|248:160,1,160,2|0
192,224,47792,2,0,B|136:280,1,80
160,360,48240,2,0,B|224:296,1,80,8|0
296,288,48688,1,0
376,304,48912,1,0
432,360,49135,1,8
352,368,49359,6,0,B|336:328|344:264,1,80,0|2
432,208,49807,2,0,B|440:248|440:304,1,80,2|8
352,368,50255,2,0,B|296:296|200:320,1,160,2|2
256,192,50927,12,0,52718
464,80,53165,6,0,B|432:40|368:24,1,80,2|0
320,24,53613,1,8
240,48,53837,1,2
240,48,54285,1,2
240,48,54509,2,0,B|200:72|184:112,1,80,8|0
224,224,54956,2,0,B|264:200|288:152,1,80
352,192,55404,2,0,B|392:216|448:200,1,80,8|0
448,280,55852,1,0
408,352,56076,1,0
328,368,56300,1,8
248,352,56524,6,0,B|176:320,1,80
224,256,56971,2,0,B|328:304,1,80,0|8
344,224,57419,2,0,B|372:192|372:152,1,80,2|0
352,72,57867,2,0,B|288:128|192:112,1,160,2|0
152,56,58538,2,0,B|104:120,2,80,0|0|8
232,40,59210,1,0
312,24,59434,2,0,B|400:40,1,80
432,152,59882,2,0,B|344:136,1,80,8|0
272,128,60330,5,2
200,168,60553,1,2
168,240,60777,1,8
176,320,61001,2,8,B|216:296|264:296,1,80,2|0
236,216,61449,2,0,B|140:192|124:104,1,160,2|0
128,32,62121,2,0,B|88:16|40:16,1,80
200,80,62568,2,0,B|232:96|280:104,1,80,8|0
344,152,63016,1,0
272,192,63240,1,0
336,232,63464,1,8
288,296,63688,6,0,B|368:328,2,80,0|2|2
216,256,64359,1,8
216,256,64583,2,0,B|56:304,1,160,2|0
256,192,65255,12,4,68389
96,192,74658,6,0,B|80:152|32:136,2,80,2|0|4
152,248,75329,2,0,B|232:296|312:248,1,160,2|2
360,192,76001,2,0,B|376:152|424:136,2,80,8|0|0
304,252,76673,1,0
248,312,76897,2,0,B|224:352|184:352,1,80,8|0
176,272,77344,1,0
104,232,77568,2,0,B|128:192|168:192,1,80,0|8
176,272,78016,5,0
104,232,78240,1,2
176,272,78464,1,2
256,264,78688,1,8
316,208,78912,2,0,B|346:175|331:134,1,80,2|0
252,152,79359,2,0,B|180:96|92:104,1,160,2|0
40,152,80031,5,0
88,216,80255,2,0,B|32:288,1,80,0|8
112,312,80703,1,0
192,296,80927,2,0,B|248:224,1,80
320,88,81374,2,0,B|264:160,1,80,8|0
200,192,81822,6,0,B|112:192,2,80,0|2|8
272,152,82494,2,0,B|356:208|292:288,1,160,2|0
212,296,83165,2,0,B|168:280|164:232,1,80,8|0
248,224,83613,1,0
192,168,83837,1,0
208,88,84061,2,0,B|240:64|288:64,1,80,8|0
352,104,84509,6,0,B|352:216,1,80
280,216,84956,2,2,B|280:104,1,80,8|0
208,168,85404,1,2
208,168,85628,1,2
148,220,85852,2,0,B|117:257|75:247,1,80,8|2
256,192,86300,12,0,88538
152,264,88986,6,0,B|128:304|88:304,2,80,0|2|8
208,320,89658,2,2,B|216:336|216:336|232:328|232:328|288:352|352:312,1,160
408,256,90329,1,8
456,192,90553,1,0
408,256,90777,2,0,B|360:248|344:208,1,80
248,88,91225,2,0,B|296:96|312:136,1,80,8|0
240,168,91673,1,0
176,216,91897,2,0,B|144:248|104:240,2,80,0|8|0
120,160,92568,5,0
168,312,92792,1,2
120,160,93016,1,8
168,312,93240,2,0,B|248:336|336:296,1,160
368,232,93912,5,8
328,160,94135,2,0,B|304:128|320:84,2,80
288,232,94807,1,8
288,232,95031,1,0
252,304,95255,2,0,B|196:304|188:256,1,80
188,224,95591,1,0
188,184,95703,2,0,B|194:144|250:144,1,80,8|0
276,220,96150,5,0
420,284,96374,1,2
276,220,96598,1,8
220,276,96822,2,0,B|188:308|144:320,1,80,2|0
76,344,97270,2,0,B|28:272|32:192,1,160,2|2
96,144,97941,6,0,B|184:112,1,80
328,112,98389,2,0,B|240:144,1,80,8|0
216,208,98837,1,0
300,244,99061,2,0,B|328:320,2,80,0|8|0
240,304,99732,5,0
240,304,99956,1,0
168,272,100180,2,0,B|96:216|128:120,1,160,8|0
200,168,100852,1,0
256,112,101076,2,0,B|320:64|408:72,1,160,8|0
408,152,101747,1,0
464,208,101971,2,0,B|464:296|368:336,1,160,8|0
328,264,102643,5,0
256,304,102867,2,0,B|168:304,1,80,8|0
144,232,103315,1,0
144,232,103538,1,0
216,192,103762,2,0,B|296:192,1,80,8|0
256,120,104210,5,8
188,76,104434,2,4,B|256:8|328:76,2,160
256,120,105553,2,0,B|256:216,1,80,8|4
328,240,106001,5,8
256,280,106225,1,0
184,240,106449,1,0
112,280,106673,1,2
184,240,106897,5,0
148,168,107121,1,2
180,96,107344,1,2
252,60,107568,1,0
328,80,107792,6,2,B|368:108|356:152,1,80,6|0
276,164,108240,2,2,B|276:220|340:256|395:220,2,160
224,104,109359,2,2,B|196:68|152:72,2,80,2|0|2
160,152,110031,1,2
188,228,110255,2,2,B|220:268|260:260,1,80,0|2
252,180,110703,1,0
252,180,110815,1,0
252,180,110927,1,8
324,216,111150,1,0
256,260,111374,6,0,B|220:284|176:272,1,80,8|0
208,196,111822,2,0,B|220:152|196:120,1,80,8|0
132,168,112270,1,8
84,104,112494,2,0,B|64:64|80:24,2,80,0|8|8
152,60,113165,1,8
212,112,113389,1,0
212,112,113613,1,8
240,188,113837,2,0,B|316:228|408:192,2,160,8|8|0
188,252,114956,6,2,B|148:328|52:316,1,160,6|2
80,240,115628,2,2,B|52:204|12:196,1,80,0|2
68,136,116076,2,2,B|96:96|144:96,1,80,0|2
144,176,116524,2,2,B|188:260|280:244,1,160
352,220,117195,2,2,B|392:188|376:144,2,80,2|0|2
296,160,117867,1,0
296,160,117979,1,0
296,160,118091,1,8
256,228,118315,5,0
196,176,118538,2,2,B|120:132|44:176,2,160,6|2|2
256,228,119658,1,0
256,228,119882,1,8
316,176,120106,2,2,B|392:132|468:176,2,160,6|2|2
256,132,121225,1,0
256,132,121449,1,0
256,132,121561,1,0
256,132,121673,1,8
204,192,121897,6,2,B|128:236|52:192,1,160,2|2
52,112,122568,2,2,B|128:68|204:112,2,160,6|2|2
88,184,123688,2,2,B|104:224|84:260,1,80,2|8
108,336,124135,1,0
160,276,124359,2,2,B|236:320|312:276,1,160,2|2
380,232,125031,2,0,B|424:204,2,40,0|0|8
380,232,125479,1,0
332,168,125703,6,2,B|296:140|256:152,1,80
180,216,126150,2,0,B|216:244|256:232,1,80,8|0
319,143,126598,2,2,B|275:129|242:154,1,80
192,240,127046,2,0,B|236:254|269:229,1,80,8|0
298,124,127494,2,2,B|253:126|230:161,1,80
213,259,127941,2,0,B|258:257|281:222,1,80,8|0
273,114,128389,5,2
273,114,128613,1,2
238,269,128837,1,8
238,269,129061,1,0
176,220,129285,6,2,B|96:176|20:220,2,160,6|2|2
238,269,130404,1,8
296,324,130628,2,2,B|320:360|368:364,1,80,2|2
368,284,131076,1,0
308,232,131300,1,2
364,176,131524,2,2,B|408:96|364:20,1,160
308,80,132195,1,0
308,80,132307,1,0
308,80,132419,1,8
232,52,132643,1,0
160,92,132867,6,0,B|120:112|120:156,1,80,8|0
240,232,133315,2,0,B|280:212|280:168,1,80,8|0
200,160,133762,1,8
156,228,133986,2,0,B|108:296,2,80,0|8|0
256,192,134658,12,4,136449
416,192,149882,6,0,B|432:232|480:248,2,80,0|2|0
360,136,150553,2,0,B|280:88|200:136,1,160,0|2
152,192,151225,2,0,B|136:232|88:248,2,80,8|0|0
208,132,151897,1,0
264,72,152121,2,0,B|288:32|328:32,1,80,8|0
336,112,152568,1,0
408,152,152792,2,0,B|384:192|344:192,1,80,0|8
336,112,153240,5,0
408,152,153464,1,0
336,112,153688,1,2
256,120,153912,1,8
192,168,154135,2,0,B|152:192|152:232,1,80,2|0
232,240,154583,2,0,B|304:296|392:288,1,160,2|0
456,256,155255,1,0
416,184,155479,2,0,B|472:112,1,80,0|8
400,72,155927,1,0
320,88,156150,2,0,B|264:160,1,80
192,296,156598,2,0,B|248:224,1,80,8|0
312,192,157046,6,0,B|400:192,2,80,0|2|8
240,232,157718,2,0,B|160:184|200:92,1,160,2|0
280,88,158389,2,0,B|328:88|336:136,1,80,8|0
264,160,158837,1,0
320,216,159061,1,0
304,296,159285,2,0,B|272:320|224:320,1,80,8|0
160,280,159732,6,0,B|160:152,1,120,2|2
192,128,160180,2,2,B|192:240,1,80,8|0
264,248,160628,1,2
264,248,160852,1,2
332,292,161076,2,0,B|371:323|411:305,1,80,8|2
256,192,161524,12,0,163762
48,304,164210,6,0,B|80:344|144:360,1,80,2|0
192,360,164658,1,8
272,336,164882,1,2
272,336,165329,1,0
272,336,165553,2,0,B|312:312|328:272,1,80,8|0
288,160,166001,2,0,B|248:184|224:232,1,80
160,192,166449,2,0,B|120:168|64:184,1,80,8|0
64,104,166897,1,0
104,32,167121,1,0
184,16,167344,1,8
264,32,167568,6,0,B|336:64,1,80
288,128,168016,2,0,B|184:80,1,80,0|8
168,160,168464,2,0,B|136:192|140:232,1,80,2|0
160,308,168912,2,0,B|224:252|320:268,1,160,2|0
360,328,169583,2,0,B|408:264,2,80,0|0|8
280,344,170255,1,0
200,360,170479,2,0,B|112:344,1,80
80,232,170927,2,0,B|168:248,1,80,8|0
240,256,171374,5,0
312,216,171598,1,2
344,144,171822,1,8
336,64,172046,2,0,B|300:92|256:84,1,80,2|0
192,124,172494,2,0,B|264:180|272:260,1,160,2|0
276,336,173165,2,0,B|316:352|364:352,1,80
204,288,173613,2,0,B|172:272|124:264,1,80,8|0
100,188,174061,1,0
36,140,174285,1,0
108,108,174509,1,8
168,56,174732,6,0,B|100:16,2,80,0|0|0
240,96,175404,2,0,B|328:144|280:232,1,160,8|0
224,176,176076,1,0
240,96,176300,2,0,B|304:32|392:56,1,160,8|0
368,136,176971,1,0
424,192,177195,2,0,B|360:256|272:232,1,160,8|0
240,160,177867,5,0
304,112,178091,2,0,B|392:112,1,80,8|0
376,192,178538,1,0
376,192,178762,1,0
296,204,178986,2,0,B|216:204,1,80,8|0
256,276,179434,5,8
324,320,179658,2,4,B|256:388|183:320,2,160
256,276,180777,2,0,B|256:180,1,80,8|4
184,156,181225,5,0
256,116,181449,1,0
328,156,181673,1,0
400,116,181897,1,2
328,156,182121,5,0
360,228,182344,1,2
336,304,182568,1,2
260,328,182792,1,0
184,304,183016,6,2,B|144:276|156:232,1,80,6|0
236,220,183464,2,2,B|236:164|172:128|116:163,2,160,2|2|8
288,280,184583,2,2,B|316:316|368:316,2,80,2|0|2
352,232,185255,1,2
324,156,185479,2,2,B|292:116|252:124,1,80,0|2
260,204,185927,1,0
260,204,186038,1,0
260,204,186150,1,8
188,168,186374,1,0
256,124,186598,6,0,B|292:100|336:112,1,80,8|0
304,188,187046,2,0,B|292:232|316:264,1,80,8|0
380,216,187494,1,8
428,280,187718,2,0,B|448:320|432:360,2,80,0|8|8
360,324,188389,1,8
300,272,188613,1,0
300,272,188837,1,8
272,196,189061,2,0,B|196:156|104:192,2,160,8|8|0
324,132,190180,6,2,B|364:56|460:68,1,160,6|2
432,144,190852,2,2,B|460:180|500:188,1,80
444,248,191300,2,0,B|416:288|368:288,1,80,0|2
368,208,191747,2,2,B|324:124|232:140,1,160
160,164,192419,2,2,B|120:196|136:240,2,80,2|0|2
216,224,193091,1,0
216,224,193203,1,0
216,224,193315,1,8
256,156,193538,5,0
316,208,193762,2,2,B|392:252|468:208,2,160,6|2|2
256,156,194882,1,0
256,156,195106,1,8
192,204,195329,2,2,B|116:248|40:204,2,160,6|2|2
256,252,196449,1,0
256,252,196673,1,0
256,252,196785,1,0
256,252,196897,1,8
308,192,197121,6,2,B|384:148|460:192,1,160,2|2
460,272,197792,2,2,B|384:316|308:272,2,160,6|2|2
424,200,198912,2,2,B|408:160|428:124,1,80,2|8
404,48,199359,1,0
352,108,199583,2,2,B|276:64|200:108,1,160,2|2
132,152,200255,2,0,B|88:180,2,40,0|0|8
132,152,200703,1,0
180,216,200927,6,2,B|216:244|256:232,1,80
332,168,201374,2,0,B|296:140|256:152,1,80,8|0
193,241,201822,2,2,B|237:255|270:230,1,80
320,144,202270,2,0,B|276:130|243:155,1,80,8|0
214,260,202718,2,2,B|259:258|282:223,1,80
299,125,203165,2,0,B|254:127|231:162,1,80,8|0
239,270,203613,5,2
239,270,203837,1,2
274,115,204061,1,8
274,115,204285,1,0
336,164,204509,6,2,B|416:208|492:164,2,160,6|2|2
274,115,205628,1,0
216,60,205852,2,2,B|192:24|144:20,1,80,2|10
144,100,206300,1,0
204,152,206524,1,2
148,208,206747,2,2,B|104:288|148:364,1,160
204,304,207419,1,0
204,304,207531,1,0
204,304,207643,1,8
280,332,207867,1,0
352,292,208091,6,0,B|392:272|392:228,1,80,8|0
272,152,208539,2,0,B|232:172|232:216,1,80,8|0
312,224,208986,1,8
356,156,209210,2,0,B|404:88,2,80,0|8|0
256,192,209882,12,4,210777
104,100,211225,5,2
104,100,211449,2,2,B|184:48|220:144|296:96,1,200,2|0
408,284,213016,1,2
408,284,213240,2,2,B|328:336|292:240|216:288,1,200,2|0
144,256,214583,2,2,B|96:240|104:180,1,80
184,192,215255,5,0
184,192,215703,1,8
256,120,216150,1,0
256,120,216598,1,8
328,192,217046,1,0
328,192,217494,1,8
256,264,217941,1,0
256,264,218389,1,12
256,184,218837,6,0,B|264:152|240:132|256:104,2,80,4|8|0
256,264,220180,1,8
316,316,220628,2,0,B|344:332|341:364|372:372,2,80,0|8|0
256,264,221971,1,8
196,316,222419,2,0,B|167:332|170:364|139:372,2,80,0|8|0
256,264,223762,1,8
256,192,224210,12,4,225553
136,140,226001,5,0
136,140,226449,1,8
200,88,226897,2,0,B|260:35,1,80,0|8
240,192,227792,1,0
240,192,228240,1,8
180,244,228688,2,0,B|119:296,1,80,0|8
188,340,229583,5,0
268,348,230031,1,8
336,304,230479,1,0
352,224,230927,1,8
344,144,231374,2,0,B|332:104|288:92,2,80,0|8|8
268,168,232718,5,4
200,212,233165,2,0,B|120:268,2,80,4|8|0
268,252,234509,1,8
336,212,234956,2,0,B|416:268,2,80,0|8|0
268,168,236300,1,8
256,192,236747,12,4,240329
