osu file format v9

[General]
AudioFilename: rabu raisu.mp3
AudioLeadIn: 1511
PreviewTime: 124554
Countdown: 0
SampleSet: Soft
StackLeniency: 0.7
Mode: 0
LetterboxInBreaks: 1

[Editor]
Bookmarks: 21454,31054,82654,92254,145054
DistanceSpacing: 1.2
BeatDivisor: 6
GridSize: 4

[Metadata]
Title:Love Rice
Artist:Chata
Creator:xierbaliti
Version:Normal
Source:Yotsu no Ha
Tags:tsuka tsukamaete Alace

[Difficulty]
HPDrainRate:3
CircleSize:3
OverallDifficulty:3
ApproachRate:5
SliderMultiplier:1.2
SliderTickRate:0.5

[Events]
//Background and Video events
0,0,"bg.jpg"
//Break Periods
2,82934,91135
2,164535,172735
//Storyboard Layer 0 (Background)
//Storyboard Layer 1 (Fail)
//Storyboard Layer 2 (Pass)
//Storyboard Layer 3 (Foreground)
//Storyboard Sound Samples
//Background Colour Transformations
3,100,163,162,255

[TimingPoints]
1135,600,4,2,1,44,1,0
11335,-100,4,2,1,60,0,0
13435,-100,4,1,1,35,0,0
13635,-100,4,2,1,60,0,0
14635,-100,4,1,1,35,0,0
14835,-100,4,2,1,60,0,0
15835,-100,4,1,1,35,0,0
16035,-100,4,2,1,60,0,0
16435,-100,4,1,1,35,0,0
16635,-100,4,2,1,60,0,0
17635,-100,4,1,1,35,0,0
17835,-100,4,2,1,60,0,0
18835,-100,4,1,1,35,0,0
19135,-100,4,2,1,60,0,0
19835,-100,4,1,1,45,0,0
21535,600,4,1,1,50,1,0
30935,-100,4,2,1,60,0,0
33535,-100,4,1,1,40,0,0
35235,-100,4,2,1,60,0,0
38035,-100,4,1,1,40,0,0
40635,-100,4,2,1,60,0,0
43135,-100,4,1,1,40,0,0
44835,-100,4,2,1,60,0,0
47935,-100,4,1,1,40,0,0
52035,-100,4,2,1,45,0,0
52335,-100,4,2,1,60,0,0
53835,-100,4,1,1,40,0,0
56435,-100,4,2,1,60,0,0
56785,-100,4,2,1,45,0,0
57135,-100,4,2,1,30,0,0
57435,-100,4,2,1,60,0,0
62235,-100,4,2,1,40,0,0
63535,600,4,1,1,50,1,0
81335,-100,4,2,1,60,0,0
82035,-100,4,1,1,50,0,0
82135,-100,4,2,1,39,0,0
82885,-100,4,2,1,44,0,0
92335,-100,4,2,1,60,0,0
125935,-100,4,1,1,50,0,0
144685,-100,4,2,1,60,0,0
146935,-100,4,2,1,60,0,0
148735,-100,4,2,1,50,0,0
163285,-100,4,2,1,44,0,0
173935,-100,4,1,1,50,0,0
174235,-100,4,2,1,44,0,0
174835,-100,4,1,1,50,0,0
175435,-100,4,2,1,44,0,0
176035,-100,4,1,1,50,0,0
178885,-100,4,2,1,44,0,0
182185,-100,4,1,1,50,0,0
182785,-66.6666666666667,4,2,1,50,0,0
183535,-100,4,1,1,50,0,1
191072,-100,4,2,1,65,0,1
193135,-100,4,1,1,50,0,1
206635,-100,4,2,1,65,0,1
207535,-100,4,2,1,5,0,0

[Colours]
Combo1 : 128,255,255
Combo2 : 255,128,255
Combo3 : 255,255,255

[HitObjects]
92,172,1135,2,0,B|120:112|196:116,1,120,0|2
200,260,2335,2,0,B|256:300|320:256,1,120,0|2
376,132,3535,2,0,B|432:168,2,60,2|0|2
236,92,4735,2,0,B|200:156|136:140,1,120,2|2
216,260,5935,6,0,B|152:284,2,60,2|0|2
352,212,7135,2,0,B|408:232,2,60,2|0|2
240,124,8335,2,0,B|180:180|88:152,1,160,2|2
108,216,9435,1,2
164,260,9735,1,2
232,280,10035,1,2
304,288,10335,2,0,B|332:196,1,80,2|0
444,120,11335,5,0
348,12,11935,1,2
236,100,12535,1,0
96,68,13135,2,0,B|32:80,2,60,2|0|2
128,208,14335,2,0,B|120:272,2,60,2|0|2
272,188,15535,6,0,B|344:172,1,60,0|0
404,168,16135,2,0,B|476:172,2,60,2|0|2
208,96,17335,2,0,B|132:88,2,60,2|0|0
228,216,18435,6,0,B|196:244|144:240,1,80,2|0
168,172,19135,1,2
228,68,19635,2,0,B|256:96|312:100,1,80,2|0
372,92,20335,2,0,B|428:68|496:80,2,120
356,236,22135,5,4
236,160,22735,2,0,B|216:184|184:192,2,60
128,64,23935,5,0
96,204,24535,1,0
240,208,25135,2,0,B|272:232|304:236,2,60
372,148,26335,5,4
208,76,26935,1,0
104,224,27535,1,0
276,272,28135,1,0
372,148,28735,2,0,B|448:144,2,60
140,236,29935,2,0,B|64:240,2,60
320,236,31135,6,0,B|308:160|340:116,1,120
328,48,32035,1,8
328,48,32335,2,0,B|272:64|196:52,1,120
64,40,33535,5,4
96,180,34135,1,0
184,292,34735,1,0
328,312,35335,1,2
448,232,35935,6,0,B|464:308,2,60,0|8|0
432,160,36835,1,8
416,92,37135,2,0,B|360:128|288:100,1,120
172,40,38335,5,4
148,108,38635,1,0
76,116,38935,1,0
160,232,39535,1,0
200,172,39835,1,0
272,156,40135,1,0
384,68,40735,6,0,B|392:144|468:152,1,120,0|0
296,276,41935,2,0,B|288:200|212:192,1,120,0|0
260,132,42835,1,0
240,64,43135,5,0
156,184,43735,1,0
280,260,44335,1,0
352,136,44935,6,0,B|424:152,2,60,0|8|2
216,180,46135,2,0,B|144:168,2,60,2|8|2
320,280,47335,1,2
252,260,47635,1,8
184,284,47935,6,0,B|160:172,1,100,4|0
328,100,49135,2,0,B|352:212,1,100,4|0
164,264,50335,6,0,B|276:288,1,100
348,120,51535,2,0,B|232:96,1,120,4|2
160,80,52435,5,8
164,152,52735,2,0,B|88:164,2,60,0|8|0
296,276,53935,2,0,B|188:300,1,100,4|0
132,320,54735,2,0,B|120:280|100:232,1,80,0|4
188,88,55635,6,0,B|232:144|312:136,1,140,4|0
384,120,56635,1,8
408,188,56935,1,2
340,208,57235,1,8
276,176,57535,6,0,B|224:136|152:144,1,120,2|2
152,288,58735,2,0,B|88:304,2,60,0|8|0
220,268,59635,1,8
292,284,59935,6,0,B|348:248|424:248,1,120,2|2
412,68,61135,2,0,B|424:144,1,60,2|8
452,192,61735,2,0,B|432:252,1,60,2|8
432,320,62335,2,0,B|464:340|504:340,2,60,2|2|2
256,272,63535,6,0,B|248:208|176:192,1,120,4|0
48,128,64735,2,0,B|64:92|60:52,1,60
124,32,65335,2,0,B|188:48,1,60
252,60,65935,2,0,B|316:76|384:56,2,120
280,248,67635,6,0,B|292:160,1,80,4|0
300,96,68335,1,4
164,148,68935,1,0
224,112,69235,1,0
164,72,69535,2,0,B|140:44|108:48,2,60
176,216,70735,6,0,B|184:284,1,60
192,348,71335,2,0,B|248:328|328:336,1,120,0|4
360,344,72135,2,0,B|424:336,2,60,4|0|0
336,252,73135,6,0,B|284:280|216:272,1,120,4|0
116,172,74335,2,0,B|88:196|56:192,2,60
188,156,75235,1,0
260,164,75535,2,0,B|320:184|384:156,1,120
256,80,76735,5,4
288,228,77235,2,0,B|224:184|144:196,1,140,0|4
84,212,78235,1,0
84,212,78535,2,0,B|96:144,1,60
112,84,79135,2,0,B|164:104|224:88,1,100
300,56,80035,5,0
300,56,80335,2,0,B|352:112,1,60,4|0
392,152,80935,2,0,B|368:200|376:252,1,100,0|4
248,320,82035,2,0,B|224:252|136:240,1,140,4|2
224,164,92335,6,0,B|288:160,1,60,0|2
304,92,92935,1,0
400,200,93535,2,0,B|388:272,1,60,0|2
444,304,94135,1,0
304,264,94735,6,0,B|300:332,1,60,2|2
236,352,95335,2,0,B|192:364,2,30,2|0|2
240,280,95935,2,0,B|228:196,1,60,0|2
220,148,96535,1,2
432,68,97135,6,0,B|348:52,1,60,0|2
328,112,97735,1,0
212,28,98335,2,0,B|236:96,1,60,0|2
252,156,98935,2,0,B|252:228|208:276,1,120,2|2
156,308,99835,1,2
136,240,100135,2,0,B|92:248,2,30,0|0|2
204,216,100735,2,0,B|260:240|336:228,1,120,0|4
296,44,101935,6,0,B|228:52,1,60,0|8
164,40,102535,1,0
64,144,103135,2,0,B|136:136,1,60,0|8
192,164,103735,1,0
172,308,104335,6,0,B|232:300,1,60,0|8
296,268,104935,2,0,B|360:280,1,60,0|8
424,256,105535,2,0,B|432:188,1,60,0|8
448,124,106135,1,4
296,68,106735,6,0,B|228:80,1,60,0|8
164,88,107335,1,0
164,88,107635,2,0,B|100:76,2,60,8|0|8
236,104,108535,1,2
168,232,109135,6,0,B|224:224|284:240,1,100,2|8
372,140,110335,2,0,B|316:148|256:132,1,100,2|8
192,20,111535,2,0,B|236:12|308:28,1,90,2|4
372,192,112735,6,0,B|408:136,1,60,4|8
384,72,113335,2,0,B|316:64,1,60,0|8
252,56,113935,2,0,B|228:112|152:104,1,120,2|2
68,304,115135,2,0,B|88:252|160:248,1,100,4|8
216,248,115935,1,0
312,232,116335,6,0,B|428:224,1,100,8|4
192,76,117535,2,0,B|264:88,1,60,4|8
320,100,118135,1,2
392,100,118435,1,8
464,116,118735,2,0,B|452:240,1,120,2|2
240,264,119935,6,0,B|304:248,1,60,0|8
372,248,120535,2,0,B|440:240,1,60,0|8
504,248,121135,2,0,B|512:120,1,120,2|2
380,72,122335,5,2
328,124,122635,1,8
260,144,122935,1,8
188,132,123235,1,10
328,284,124735,2,0,B|400:300,2,60,0|2|2
328,284,125935,5,4
188,248,126535,1,0
232,112,127135,1,0
360,176,127735,2,0,B|288:200,1,60
236,216,128335,2,0,B|164:184,1,60
116,160,128935,1,0
224,64,129535,5,0
316,144,130035,2,0,B|332:64,1,80
400,60,130735,6,0,B|464:72,1,60,4|0
488,136,131335,1,0
432,268,131935,2,0,B|368:240,1,60
356,176,132535,1,0
212,196,133135,6,0,B|152:208,1,60,0|0
88,180,133735,2,0,B|108:248|100:308,1,120,0|4
112,344,134535,2,0,B|144:360|188:352,2,60,4|0|0
188,284,135535,6,0,B|232:240|312:248,1,120
408,152,136735,2,0,B|436:216|516:220,2,120
264,160,138535,1,0
264,160,138835,1,0
288,88,139135,6,0,B|328:128|404:112,2,120,4|0|4
216,80,140635,1,0
148,100,140935,2,0,B|116:92|84:92,2,60
188,264,142035,2,0,B|220:240|272:236,1,80
332,248,142735,1,0
400,220,143035,1,0
472,224,143335,2,0,B|468:124,1,100,0|4
332,80,144435,6,0,B|272:112|192:96,1,140,4|2
196,240,145735,2,0,B|236:292|316:276,1,120,2|0
364,148,146935,6,0,B|440:136,2,60
224,116,148135,2,0,B|192:168|120:160,1,120,2|0
176,292,149335,5,0
176,292,149635,1,0
176,292,149935,1,2
320,264,150535,2,0,B|340:208|420:200,1,120,2|0
324,88,151735,6,0,B|256:72,2,60
420,192,152935,2,0,B|352:208|320:276,1,120,2|0
184,276,154135,5,0
184,276,154435,1,0
184,276,154735,1,2
152,136,155335,2,0,B|184:84|268:88,1,120,2|0
352,196,156535,6,0,B|436:192,2,60
228,120,157735,2,0,B|212:192|140:200,1,120,2|0
244,308,158935,5,0
244,308,159235,1,0
244,308,159535,1,2
352,212,160135,2,0,B|292:220|232:196,1,120,2|0
176,156,161035,5,0
148,92,161335,2,0,B|124:112|84:108,2,60
212,60,162235,1,0
280,84,162535,1,0
352,72,162835,1,8
256,192,163135,12,0,164335
140,52,173935,6,0,B|224:48,1,60
272,44,174535,1,0
344,144,175135,6,0,B|260:140,1,60
212,136,175735,1,2
200,240,176335,6,0,B|284:236,1,60
332,232,176935,1,0
280,336,177535,6,0,B|168:332,1,100,4|4
84,336,178435,2,0,B|104:284|76:208,1,120
52,152,179335,5,0
68,80,179635,1,2
136,52,179935,2,0,B|168:88|232:84,1,100,0|2
320,64,180835,1,0
388,44,181135,2,0,B|384:116|448:160,1,120,2|2
376,252,182235,2,0,B|320:220|248:240,1,120,0|4
156,104,183535,6,0,B|128:128|84:120,2,60
224,84,184435,1,0
296,96,184735,2,0,B|352:120|416:104,1,120
480,80,185635,1,0
472,152,185935,2,0,B|456:216|472:288,2,120
372,220,187635,6,0,B|308:248|228:224,1,140,4|0
176,184,188635,1,0
160,116,188935,2,0,B|128:108|100:116,2,60
368,60,190135,2,0,B|320:100,1,60
264,140,190735,1,0
196,164,191035,1,0
132,132,191335,2,0,B|88:176|16:160,1,120,0|4
16,112,192135,2,4,B|24:52,2,60
16,232,193135,6,0,B|84:188|192:200,1,180,0|0
252,236,194335,2,0,B|328:192|440:208,1,180
496,224,195535,1,0
300,312,196135,6,0,B|376:296,1,60
428,284,196735,1,4
408,164,197235,2,0,B|344:188|252:172,1,140,4|0
204,148,198235,5,0
204,148,198535,2,0,B|132:140,1,60
72,132,199135,2,0,B|76:188|40:240,1,100
68,320,200035,2,0,B|112:276|188:284,1,120
248,288,200935,1,4
368,268,201435,6,0,B|384:184,1,80,0|0
392,140,202035,2,0,B|328:160|244:140,1,140,0|4
128,72,203335,1,0
124,144,203635,2,0,B|120:200,1,40
304,68,204435,6,0,B|328:160,1,80,4|0
344,216,205135,1,0
212,272,205735,1,0
208,200,206035,2,0,B|204:152,1,40
324,104,206785,2,0,B|264:112|216:100,1,90
256,192,207535,12,0,209935
