osu file format v9

[General]
AudioFilename: rabu raisu.mp3
AudioLeadIn: 1511
PreviewTime: 124554
Countdown: 0
SampleSet: Soft
StackLeniency: 0.7
Mode: 0
LetterboxInBreaks: 1

[Editor]
Bookmarks: 21454,31054,82654,92254,145054
DistanceSpacing: 1.2
BeatDivisor: 8
GridSize: 4

[Metadata]
Title:Love Rice
Artist:Chata
Creator:xierbaliti
Version:Collab
Source:Yotsu no Ha
Tags:tsuka tsukamaete Alace

[Difficulty]
HPDrainRate:5
CircleSize:5
OverallDifficulty:5
ApproachRate:7
SliderMultiplier:1.6
SliderTickRate:1

[Events]
//Background and Video events
0,0,"bg.jpg"
//Break Periods
2,82935,91435
//Storyboard Layer 0 (Background)
//Storyboard Layer 1 (Fail)
//Storyboard Layer 2 (Pass)
//Storyboard Layer 3 (Foreground)
Sprite,Foreground,Centre,"tsuka.png",320,240 F,0,1135,1735,0.05791997,1 M,0,1135,20935,506,343 S,0,20935,21535,1,0.1 R,0,20935,21535,0,6.28736
Sprite,Foreground,Centre,"Alace.png",320,240 S,0,21535,,1 M,0,21535,82735,510,342 F,0,82735,83335,1,0
Sprite,Foreground,Centre,"xier.png",320,240 M,0,92135,92935,-63,167,110,168 M,0,92935,144435,110,168 F,0,144435,145035,1,0.05792 M,0,144435,145135,110,168,108,-124
Sprite,Foreground,Centre,"tsuka+.png",320,240 M,0,144835,145135,111,161 F,0,144835,145135,0,1 M,0,145135,217135,111,161 F,0,145135,217135,1 F,0,217135,220135,1,0
//Storyboard Sound Samples
//Background Colour Transformations
3,100,163,162,255

[TimingPoints]
1135,600,4,2,1,44,1,0
11035,-100,4,1,0,35,0,0
11135,-100,4,2,1,60,0,0
11635,-100,4,1,0,35,0,0
11735,-100,4,2,1,60,0,0
12235,-100,4,1,0,35,0,0
12335,-100,4,2,1,60,0,0
12835,-100,4,1,0,35,0,0
12935,-100,4,2,1,60,0,0
13435,-100,4,1,0,35,0,0
13635,-100,4,2,1,60,0,0
14035,-100,4,1,0,35,0,0
14235,-100,4,2,1,60,0,0
14635,-100,4,1,0,35,0,0
14835,-100,4,2,1,60,0,0
15235,-100,4,1,0,35,0,0
15435,-100,4,2,1,60,0,0
15835,-100,4,1,0,35,0,0
16035,-100,4,2,1,60,0,0
16435,-100,4,1,0,35,0,0
16635,-100,4,2,1,60,0,0
17035,-100,4,1,0,35,0,0
17135,-100,4,2,1,60,0,0
17635,-100,4,1,0,35,0,0
17835,-100,4,2,1,60,0,0
19835,-100,4,1,0,35,0,0
21535,600,4,1,0,40,1,0
30935,-100,4,2,1,60,0,0
33535,-100,4,1,0,40,0,0
35235,-100,4,2,0,60,0,0
37835,-100,4,2,0,45,0,0
38035,-100,4,2,0,30,0,0
38235,-100,4,1,0,40,0,0
39035,-100,4,2,0,60,0,0
39235,-100,4,1,0,40,0,0
39335,-100,4,2,0,60,0,0
39535,-100,4,1,0,40,0,0
39635,-100,4,2,0,60,0,0
39835,-100,4,1,0,40,0,0
39935,-100,4,2,0,60,0,0
40135,-100,4,1,0,40,0,0
40235,-100,4,2,0,60,0,0
40435,-100,4,1,0,40,0,0
40635,-100,4,2,0,60,0,0
43135,-100,4,1,0,40,0,0
44835,-100,4,2,0,60,0,0
47935,-100,4,1,0,40,0,0
51735,-100,4,2,0,60,0,0
52035,-100,4,2,0,45,0,0
52335,-100,4,2,0,30,0,0
52635,-100,4,2,0,60,0,0
53835,-100,4,1,0,40,0,0
56435,-100,4,2,0,60,0,0
56785,-100,4,2,0,45,0,0
57135,-100,4,2,0,30,0,0
57435,-100,4,2,0,60,0,0
62235,-100,4,2,0,40,0,0
63235,-58.8235294117647,4,2,1,60,0,0
63535,600,4,1,0,50,1,0
81335,-100,4,2,0,60,0,0
82585,-100,4,2,0,39,0,0
82885,-100,4,2,1,44,0,0
92335,-100,4,2,1,60,0,0
125935,-100,4,1,0,50,0,0
144685,-100,4,2,1,60,0,0
145285,-66.6666666666667,4,2,1,60,0,0
146935,-100,4,2,1,60,0,0
147685,-66.6666666666667,4,2,1,60,0,0
148735,-100,4,2,0,50,0,0
150385,-66.6666666666667,4,2,0,50,0,0
151135,-100,4,2,0,50,0,0
151735,-100,4,2,0,50,0,0
152485,-66.6666666666667,4,2,0,50,0,0
153535,-100,4,2,0,50,0,0
155035,-66.6666666666667,4,2,0,50,0,0
155935,-100,4,2,0,50,0,0
157585,-66.6666666666667,4,2,0,50,0,0
158335,-100,4,2,0,50,0,0
159985,-66.6666666666667,4,2,0,50,0,0
160735,-100,4,2,0,50,0,0
163735,-100,4,2,1,44,0,0
167940,-100,4,2,1,44,0,0
170040,-100,4,2,1,44,0,0
173935,-100,4,1,0,50,0,0
174235,-100,4,2,1,44,0,0
174835,-100,4,1,0,50,0,0
175435,-100,4,2,1,44,0,0
176035,-100,4,1,0,50,0,0
177235,-66.6666666666667,4,1,0,50,0,0
178885,-100,4,2,1,44,0,0
182185,-100,4,1,0,50,0,0
182785,-66.6666666666667,4,2,0,50,0,0
183535,-100,4,1,0,50,0,1
187035,-100,4,2,0,50,0,1
188035,-100,4,1,0,50,0,1
191072,-100,4,2,1,65,0,1
193135,-100,4,1,0,50,0,1
196585,-66.6666666666667,4,1,0,50,0,1
197935,-100,4,1,0,50,0,1
200185,-66.6666666666667,4,1,0,50,0,1
202735,-100,4,1,0,50,0,1
203785,-66.6666666666667,4,1,0,50,0,1
206635,-133.333333333333,4,2,1,65,0,1
207391,-100,4,2,1,45,0,0
215035,-133.333333333333,4,2,1,45,0,0
215335,-133.333333333333,4,2,1,45,0,0
215635,-200,4,2,1,45,0,0
216985,-200,4,2,1,5,0,0

[Colours]
Combo1 : 128,255,255
Combo2 : 255,128,255
Combo3 : 255,255,255

[HitObjects]
96,64,1135,1,0
48,184,1735,1,0
168,232,2335,1,0
224,120,2935,2,0,B|288:152|328:96|400:128,1,160
480,128,4135,1,0
416,240,4735,1,0
296,192,5335,1,0
416,240,5935,6,0,B|312:240|320:352,1,160
240,240,7135,2,0,B|240:344|128:336,1,160
24,288,8335,1,2
104,192,8935,1,2
104,192,9135,5,2
172,232,9435,1,2
224,176,9735,1,2
188,104,10035,1,2
120,128,10335,2,2,B|112:160,4,20
120,128,10735,5,0
136,80,10935,2,0,B|144:48,1,26.6666666666667
208,104,11335,5,0
224,56,11535,2,0,B|232:24,1,26.6666666666667
296,80,11935,5,0
312,128,12135,2,0,B|320:160,1,26.6666666666667
384,104,12535,5,0
400,152,12735,2,0,B|408:184,1,26.6666666666667
360,248,13135,5,2
298,285,13335,1,0
298,285,13435,1,0
256,248,13735,5,2
184,255,13935,1,0
184,255,14035,1,0
200,200,14335,5,2
128,207,14535,1,0
128,207,14635,1,0
105,156,14935,5,2
37,131,15135,1,0
37,131,15235,1,0
88,80,15535,6,0,B|102:25|166:34,1,80,0|0
219,57,16135,2,0,B|249:98|221:140,1,80,2|0
310,147,16735,2,0,B|360:143|377:82,1,80,0|0
424,95,17235,1,0
424,95,17335,2,0,B|452:111|472:99|509:117,1,80,2|0
408,256,17935,5,0
340,260,18135,1,2
340,260,18235,1,0
368,196,18435,1,2
104,128,19135,5,0
172,124,19335,1,2
172,124,19435,1,0
144,188,19635,1,2
240,352,19935,5,0
240,352,20035,1,0
272,280,20335,1,0
232,216,20535,1,0
232,216,20635,1,0
272,152,20835,1,0
272,152,20935,1,0
248,80,21135,1,0
248,80,21235,1,0
248,80,21335,1,0
248,80,21435,1,0
248,80,21535,6,0,B|168:48,1,80,4|0
184,128,22135,2,0,B|104:96,1,80,0|0
72,168,22735,1,0
96,248,23035,1,0
168,216,23335,1,0
192,296,23635,1,0
264,240,23935,6,0,B|312:232|336:192,1,80
352,152,24435,1,0
352,152,24535,1,0
352,96,24735,1,0
352,96,24835,1,0
280,120,25135,1,0
248,168,25335,1,0
248,168,25435,1,0
200,192,25635,1,0
200,192,25735,1,0
144,200,25935,1,0
144,200,26035,1,0
152,320,26335,6,0,B|64:344,1,80,4|0
104,264,26935,2,0,B|16:288,1,80
32,208,27535,1,0
56,136,27835,1,0
128,176,28135,1,0
152,104,28435,1,0
224,64,28735,5,0
488,192,29335,1,0
224,320,29935,1,0
180,288,30135,1,0
180,288,30235,1,0
128,304,30435,1,0
128,304,30535,1,0
80,280,30735,1,0
80,280,30835,1,0
24,216,31135,5,2
40,56,31735,1,2
48,216,32335,1,2
64,56,32935,1,2
112,88,33135,1,2
112,88,33235,1,2
160,120,33435,1,2
160,120,33535,6,0,B|200:192,1,80
288,304,34135,2,0,B|248:232,1,80,0|0
256,112,34735,2,0,B|296:184,1,80
376,176,35335,1,2
432,176,35535,2,0,B|472:176,1,26.6666666666667,2|2
440,264,35935,5,2
312,360,36535,1,2
184,264,37135,1,2
56,360,37735,2,0,B|0:360,2,53.3333333333333,2|2|2
120,344,38335,5,4
184,328,38535,1,0
184,328,38635,1,0
248,304,38835,1,0
248,304,38935,1,0
296,256,39135,1,2
296,256,39235,1,0
392,240,39435,6,0,B|424:240,1,26.6666666666667,2|0
352,184,39735,2,0,B|374:161,1,26.6666666666667,2|0
288,144,40035,2,0,B|288:112,1,26.6666666666667,2|0
216,160,40335,2,0,B|193:137,1,26.6666666666667,2|0
168,216,40735,5,2
173,313,41035,1,0
80,349,41335,1,2
18,272,41635,1,0
72,189,41935,2,0,B|80:128|112:80|168:48,1,160,2|2
216,56,42735,1,2
216,56,42835,1,2
280,56,43035,1,2
280,56,43135,6,0,B|360:56,1,80,4|0
328,144,43735,2,0,B|408:144,1,80
376,232,44335,2,0,B|456:232,1,80
424,320,44935,1,2
360,320,45135,2,0,B|328:320,1,26.6666666666667,2|2
272,264,45535,5,2
206,336,45835,1,0
115,295,46135,1,2
126,197,46435,1,0
223,177,46735,1,2
264,128,46935,1,2
264,128,47035,1,2
304,80,47235,1,2
304,80,47335,2,0,B|408:56|440:144,1,160,2|4
437,136,48435,5,0
437,136,49135,6,0,B|376:208,1,80
336,264,49635,1,4
336,264,50335,6,0,B|274:192,1,80
234,136,50835,1,0
234,136,51535,5,4
176,208,51835,1,2
112,136,52135,1,2
48,208,52435,1,2
112,280,52735,2,0,B|184:288|224:320|240:368,1,160
238,363,53635,1,0
320,320,53935,5,0
376,288,54135,1,0
296,208,54435,1,0
216,128,54735,1,0
136,48,55035,1,0
136,48,55135,2,0,B|64:88,1,80,4|0
16,128,55635,1,4
16,128,55735,1,0
72,160,55935,1,0
72,160,56035,1,0
16,192,56235,1,0
16,192,56335,5,4
56,280,56635,1,2
144,240,56935,1,2
184,328,57235,1,2
272,288,57535,2,0,B|336:288|384:248|384:192,1,160
383,196,58435,1,0
480,176,58735,1,0
408,112,59035,1,0
312,136,59335,2,0,B|224:128|208:24,1,160,0|2
209,30,60535,5,2
209,30,61135,5,2
168,120,61435,1,2
136,208,61735,1,2
104,296,62035,1,2
192,296,62335,5,2
256,296,62635,1,2
320,296,62935,1,2
384,296,63235,2,0,B|432:280|416:240|432:200|472:200,1,135.999994325638,0|4
496,128,63835,5,0
424,96,64135,2,0,B|384:64|352:96,1,80
328,208,64735,2,0,B|335:157|292:145,1,80
208,264,65335,2,0,B|255:245|244:201,1,80
176,328,65935,5,0
112,288,66135,2,0,B|128:256,1,26.6666666666667
56,232,66435,2,0,B|85:212,1,26.6666666666667
16,160,66735,2,0,B|51:157,1,26.6666666666667
64,80,67135,5,0
128,56,67335,1,0
128,56,67435,1,0
192,32,67635,2,0,B|232:80|288:64,1,106.666666666667,4|0
400,208,68335,5,4
344,136,68635,2,0,B|384:64,2,80
400,208,69535,2,0,B|360:280,1,80
304,280,70035,1,0
304,280,70135,1,0
248,280,70335,1,0
248,280,70435,1,0
176,224,70735,5,0
248,280,71035,1,0
176,224,71335,2,0,B|152:160|96:152|40:184,1,160
8,232,72135,2,0,B|16:272|40:288|72:280,1,80
56,368,72735,2,0,B|104:320|152:328,1,106.666666666667,0|4
224,352,73435,5,0
288,288,73735,2,0,B|240:288|224:240,1,80
352,232,74335,2,0,B|318:198|340:152,1,80
440,216,74935,2,0,B|440:168|487:152,1,80
488,56,75535,5,0
392,72,75735,2,0,B|384:112,1,26.6666666666667
304,144,76035,2,0,B|312:104,1,26.6666666666667
240,64,76335,2,0,B|232:104,1,26.6666666666667
112,96,76735,5,0
144,144,76935,1,0
144,144,77035,1,0
176,192,77235,2,0,B|216:208|224:256,1,80,4|0
248,264,77635,2,0,B|304:288,1,53.3333333333333
328,296,77935,1,4
392,216,78235,6,0,B|472:216,2,80
328,160,79135,2,0,B|248:160,1,80
192,160,79635,1,0
192,160,79735,1,4
40,208,80035,5,0
3,297,80335,1,4
76,360,80635,1,0
159,310,80935,1,0
137,216,81235,1,0
112,160,81435,2,0,B|80:112|128:56,1,106.666666666667
184,72,82035,2,0,B|288:104,1,106.666666666667
368,128,82735,1,0
400,104,92335,6,0,B|352:96|328:48,1,80,0|2
252,84,92935,2,0,B|212:108|152:96,1,80,0|2
104,152,93535,2,0,B|140:188|136:240,1,80,0|2
172,304,94135,2,0,B|208:276|272:280,1,80,0|2
260,252,94585,2,0,B|264:300|308:332,1,80,2|0
352,308,95035,5,2
352,308,95185,1,0
412,312,95335,2,0,B|456:316,1,40,0|2
480,264,95635,1,0
480,264,95785,1,2
468,204,95935,2,0,B|432:156,1,40,0|2
388,196,96235,1,0
388,196,96385,1,2
340,228,96535,2,0,B|304:256|248:248,1,80,0|0
172,204,97135,6,0,B|160:152|100:144,1,80,0|2
156,52,97735,2,0,B|184:72|236:64,1,80,0|2
328,24,98335,2,0,B|332:72|368:100,1,80,0|2
452,148,98935,2,0,B|436:192|372:196,1,80,0|2
312,180,99385,1,0
312,180,99535,6,0,B|260:172,1,40,2|0
260,232,99835,2,0,B|204:256,1,40,2|0
168,272,100135,2,0,B|164:216,1,40,2|0
108,216,100435,2,0,B|96:156,1,40,2|0
92,116,100735,2,0,B|136:128,1,40,2|0
192,128,101035,2,0,B|244:116,1,40,2|0
292,112,101335,1,4
84,236,101935,6,0,B|116:200|176:196,1,80,0|8
216,232,102435,1,0
216,232,102535,2,0,B|224:180|272:156,1,80,0|8
328,180,103035,1,0
328,180,103135,2,0,B|320:132|352:96,1,80,0|8
416,112,103635,1,0
416,112,103735,2,0,B|460:144|504:136,1,80,0|8
492,68,104235,1,0
492,68,104335,6,0,B|500:152,1,80,0|8
396,136,104835,1,0
396,136,104935,2,0,B|376:232,1,80,0|8
276,204,105435,1,0
276,204,105535,2,0,B|200:256,1,80,0|8
108,232,106035,1,0
108,232,106135,5,4
304,56,106735,6,0,B|268:76|216:64,1,80,2|8
156,56,107235,1,0
156,56,107335,1,2
168,160,107635,1,8
168,160,107835,2,0,B|216:176,1,26.6666666666667,0|2
288,120,108235,2,0,B|296:176,1,53.3333333333333,2|0
295,172,108535,1,0
312,276,108835,1,8
216,316,109135,6,0,B|200:244|104:224,1,133.333333333333,2|4
296,68,110335,2,0,B|312:140|408:160,1,133.333333333333,8|4
216,316,111535,6,0,B|240:276|312:276,1,80,8|8
344,276,111985,1,4
284,76,112635,2,0,B|244:88,1,26.6666666666667,0|2
258,83,113035,5,8
192,160,113335,1,2
228,260,113635,1,8
332,276,113935,2,0,B|360:240|432:232,1,80,2|8
472,164,114535,2,0,B|424:172|376:144,1,80,2|8
340,148,114985,1,0
312,104,115135,6,0,B|256:112,1,53.3333333333333,2|8
156,128,115635,1,2
144,232,115935,2,0,B|188:248|224:284,1,80,2|8
212,272,116335,2,0,B|256:248|296:256,1,80,4|0
360,260,116835,1,4
444,200,117135,1,0
444,200,117235,1,2
460,132,117435,1,0
460,132,117535,5,8
464,64,117735,2,0,B|504:44,1,26.6666666666667,0|8
428,20,118035,2,0,B|384:16,1,26.6666666666667,0|2
364,76,118335,2,0,B|324:96,1,26.6666666666667,0|8
264,160,118735,6,0,B|232:188|164:180,1,80,2|8
120,168,119235,1,0
120,168,119335,2,0,B|112:216|112:248,1,80,2|8
336,332,119935,2,0,B|332:288|288:248,1,80,2|8
256,212,120435,1,0
256,212,120535,2,0,B|280:140|376:128,1,133.333333333333,2|0
388,132,121135,6,0,B|300:84,1,80,8|2
244,168,121735,2,0,B|156:152,1,80,8|2
116,244,122335,1,2
188,340,122635,1,2
300,296,122935,1,8
416,320,123235,2,0,B|288:208|436:108|520:324|332:288|340:144,1,320,2|0
344,36,124735,5,2
232,76,125035,1,2
112,76,125335,1,2
144,288,125935,5,0
144,288,126135,2,0,B|180:264,1,26.6666666666667
148,156,126535,1,0
148,156,126735,2,0,B|100:148,1,26.6666666666667
208,68,127135,1,0
208,68,127335,2,0,B|252:52,1,26.6666666666667
340,116,127735,1,0
340,116,127935,2,0,B|300:136,1,26.6666666666667
412,200,128335,6,0,B|444:268,1,53.3333333333333
434,248,128635,1,0
292,256,128935,2,0,B|220:272,1,53.3333333333333
239,267,129235,1,0
208,128,129535,2,0,B|256:68,1,53.3333333333333
241,86,129835,1,0
328,40,130035,2,0,B|348:108|420:120,1,106.666666666667,4|0
456,248,130735,6,0,B|424:216|368:228,1,80,4|0
244,268,131335,2,0,B|212:236|244:176,1,80
320,76,131935,2,0,B|280:44|224:56|224:52,1,80
152,72,132435,1,0
152,72,132535,2,0,B|156:132|136:160,1,80
48,260,133135,6,0,B|88:284|144:280,1,80
224,216,133735,2,0,B|268:176|352:184,1,133.333333333333
384,200,134335,1,4
384,200,134535,2,4,B|412:232|468:228,2,80
284,52,135435,5,0
284,52,135535,2,0,B|264:92|200:88,1,80
264,172,136135,2,0,B|300:200|360:192,1,80
276,268,136735,2,0,B|248:304|196:292,2,80
340,276,137535,1,0
340,276,137635,1,0
400,256,137835,1,0
400,256,137935,6,0,B|400:208|448:176,1,80
448,92,138535,2,0,B|384:96,1,53.3333333333333
364,96,138835,1,0
268,100,139135,2,0,B|244:136|192:132,1,80,4|0
136,124,139635,1,0
136,124,139735,1,0
72,136,139935,1,0
72,136,140035,2,0,B|80:200,1,53.3333333333333
84,220,140335,1,4
152,288,140635,5,0
248,272,140935,1,0
284,184,141235,1,0
228,104,141535,2,0,B|280:88,1,53.3333333333333
308,80,141835,1,0
372,64,142035,2,0,B|380:132|460:140,1,106.666666666667
480,208,142635,5,0
480,208,142735,2,0,B|408:228,1,53.3333333333333,4|0
392,232,143035,1,0
276,256,143335,2,0,B|296:164,1,80
216,152,143835,2,0,B|176:196|108:192,1,106.666666666667
44,176,144435,1,4
120,72,144835,1,0
208,104,145135,1,0
256,64,145335,5,2
456,96,145735,2,0,B|408:111|368:63|248:104,1,199.999994039536,2|0
188,196,146535,1,0
188,196,146635,1,2
120,208,146835,1,0
120,208,146935,2,0,B|80:240|112:304,2,80,0|2|0
140,136,147735,5,0
56,40,148135,2,0,B|160:112|64:224,1,199.999994039536,2|0
8,184,148935,5,0
8,184,149035,2,0,B|0:128,1,40
24,216,149335,1,0
120,192,149635,1,2
216,216,149935,1,0
272,188,150135,5,0
40,208,150535,2,0,B|87:223|160:176|240:224,1,199.999994039536,2|0
220,324,151335,1,0
220,324,151435,1,2
280,360,151635,1,0
280,360,151735,2,0,B|320:328|384:352,2,80,0|2|0
276,288,152535,5,0
344,160,152935,2,0,B|240:232|336:344,1,199.999994039536,2|0
432,288,153735,5,0
432,288,153835,2,0,B|496:296,1,53.3333333333333
508,268,154135,1,0
472,168,154435,1,2
432,64,154735,2,0,B|364:76,1,53.3333333333333
248,64,155335,6,0,B|200:136|240:184|344:176|368:120,1,199.999994039536,2|0
432,112,156135,1,0
432,112,156235,2,0,B|492:120,1,53.3333333333333,2|0
496,152,156535,1,0
432,248,156835,1,2
320,240,157135,2,0,B|292:216|304:180,1,53.3333333333333
320,56,157735,6,0,B|248:8|200:48|208:152|264:168,1,199.999994039536,2|0
272,240,158535,1,0
272,240,158635,2,0,B|260:308,1,53.3333333333333,2|0
232,304,158935,1,0
136,240,159235,1,2
160,128,159535,2,0,B|148:160|180:192,1,53.3333333333333
160,312,160135,6,0,B|232:360|280:320|272:216|216:200,1,199.999994039536
239,215,160735,1,0
208,128,160935,1,0
208,128,161035,2,0,B|216:68,1,53.3333333333333,2|0
248,64,161335,1,0
344,128,161635,1,2
256,192,161935,1,0
256,192,162010,12,4,163135
96,64,164335,5,0
176,112,164935,1,2
256,64,165535,1,0
336,112,166135,1,2
416,64,166735,1,0
496,112,167335,1,2
448,192,167935,5,0
464,256,168135,1,2
384,240,168385,2,2,B|312:216|264:272,1,120
256,328,169135,5,0
184,296,169735,1,2
208,224,170335,1,0
136,192,170935,1,2
168,120,171535,1,0
200,48,172135,1,2
272,72,172735,5,0
328,48,172935,1,2
408,64,173235,1,2
480,24,173535,2,0,B|476:41|476:41|488:54|488:54|484:72|484:72|496:85|496:85|492:103|492:103|504:116|504:116,1,106.666666666667,2|0
416,264,174535,5,0
328,224,175135,1,0
288,312,175735,1,0
376,352,176335,1,0
288,312,176935,1,0
184,336,177535,6,0,B|112:360|88:288,1,119.999996423721
120,232,178035,2,0,B|192:208|216:280,1,119.999996423721
184,336,178435,2,0,B|268:316,1,79.9999976158143
261,317,178735,1,0
296,232,179035,5,2
304,176,179335,1,0
312,120,179635,1,2
320,64,179935,2,2,B|368:40|400:72|440:32,1,120
464,136,180835,6,0,B|480:224,1,80,2|0
440,304,181435,1,2
344,288,181735,1,0
336,192,182035,1,2
272,164,182235,2,0,B|200:196|164:156,1,106.666666666667,0|0
104,176,182835,6,2,B|64:208|96:248|96:248|56:272|88:344,1,159.999995231629
208,336,183535,6,0,B|248:296|216:248,1,80
312,312,184135,2,0,B|331:258|282:228,1,80
280,144,184735,2,0,B|284:87|342:81,1,80
400,152,185335,2,0,B|395:208|337:214,1,80
224,248,185935,5,0
168,240,186135,1,0
168,240,186235,1,0
136,200,186435,1,0
136,200,186535,2,0,B|136:152|136:104,1,80
112,48,187135,5,2
52,76,187335,1,2
80,168,187635,2,0,B|48:216|72:284,1,106.666666666667
168,288,188335,5,0
224,296,188535,1,0
224,296,188635,1,0
272,272,188835,1,0
272,272,188935,1,0
288,224,189135,1,0
288,224,189235,1,0
272,176,189435,1,0
272,176,189535,2,0,B|360:136,1,80
376,232,190135,2,0,B|464:192,1,80
424,288,190735,6,0,B|416:384,1,80
328,304,191335,2,0,B|296:296|280:320|232:312,1,80
168,304,191935,1,2
112,268,192135,5,4
16,260,192435,1,4
112,268,192735,2,0,B|88:228|136:204|112:148,1,106.666666666667,4|0
272,112,193335,5,0
272,112,193435,2,0,B|368:88,1,80
424,128,193935,1,0
424,128,194035,1,0
232,200,194335,2,0,B|240:264,1,53.3333333333333
224,288,194635,1,0
320,352,194935,2,0,B|312:288,1,53.3333333333333
328,264,195235,1,0
432,224,195535,2,0,B|408:152|464:112,2,120
384,312,196735,6,0,B|288:256|184:336,1,199.999994039536
128,256,197535,1,0
128,256,197635,2,0,B|176:256|212:216,1,79.9999976158143
204,196,197935,5,0
188,100,198235,1,0
284,108,198535,2,0,B|364:116,1,80
372,212,199135,2,0,B|272:200,1,80
240,236,199635,2,0,B|192:284|228:344,1,106.666666666667
432,320,200335,5,0
384,240,200635,1,0
304,296,200935,1,0
224,240,201235,1,0
156,280,201435,2,0,B|100:344|44:332|28:232,1,159.999995231629
96,120,202035,2,0,B|144:48|208:64|224:164,1,159.999995231629,4|0
331,160,202735,6,0,B|381:154|389:115,1,80,4|0
344,56,203335,2,0,B|297:51|278:104,1,80
331,160,203835,2,0,B|360:232|304:256|336:332,1,159.999995231629
272,360,204435,1,4
156,328,204735,1,0
156,328,204835,2,0,B|76:320|92:232,1,119.999996423721,0|4
120,128,205435,5,4
228,72,205735,1,4
264,188,206035,1,4
324,220,206235,2,0,B|412:300|460:208,1,159.999995231629,0|0
448,152,206785,6,0,B|432:120|464:104|448:56,1,89.9999973177911,0|0
384,56,207535,5,0
352,48,207685,1,0
320,48,207835,1,2
288,56,207985,5,0
256,64,208135,1,0
224,64,208285,1,2
192,56,208435,5,0
160,48,208585,1,0
128,48,208735,1,2
96,56,208885,5,0
64,64,209035,1,0
32,64,209185,1,2
40,96,209335,6,2,B|32:128|56:152,1,40
40,168,209635,2,2,B|48:200|24:224,1,40
72,224,209935,5,0
104,232,210085,1,0
136,224,210235,1,2
160,200,210385,1,0
184,176,210535,5,0
216,168,210685,1,0
248,176,210835,1,2
272,200,210985,1,0
296,184,211135,5,0
304,152,211285,1,0
296,120,211435,1,2
272,96,211585,1,0
248,112,211735,5,0
240,144,211885,1,0
248,176,212035,1,2
272,200,212185,1,0
304,216,212335,6,0,B|328:232|336:256,3,40,0|0|2|0
344,272,212935,5,0
336,304,213085,1,0
312,328,213235,1,2
280,336,213385,1,0
248,320,213535,6,0,B|232:296|208:288,3,40,0|0|2|0
192,280,214135,5,0
160,288,214285,1,0
136,312,214435,1,2
128,344,214585,1,0
72,328,214735,6,2,B|16:312,1,40
72,256,215035,6,2,B|112:248,1,29.9999991059304
56,200,215335,6,2,B|24:192,1,29.9999991059304
64,160,215635,6,2,B|80:144,1,20
60,88,216085,5,6
256,80,216685,5,2
256,72,216760,1,0
256,64,216835,1,2
256,56,216910,1,4
256,192,216985,12,0,219635
