osu file format v9

[General]
AudioFilename: 01.mp3
AudioLeadIn: 0
PreviewTime: 43801
Countdown: 0
SampleSet: Normal
StackLeniency: 0.7
Mode: 0
LetterboxInBreaks: 1

[Editor]
Bookmarks: 20551,65738,143551,197542
DistanceSpacing: 1.2
BeatDivisor: 4
GridSize: 4

[Metadata]
Title:Kozakai San Chi wa Bobu no Ie
Artist:Chata
Creator:BinJip
Version:REMAP
Source:Sinya no Kaidan
Tags:Mapper 31

[Difficulty]
HPDrainRate:7
CircleSize:4
OverallDifficulty:8
ApproachRate:8
SliderMultiplier:1.6
SliderTickRate:2

[Events]
//Background and Video events
0,0,"BG.jpg"
//Break Periods
2,61100,64850
2,103300,119975
//Storyboard Layer 0 (Background)
//Storyboard Layer 1 (Fail)
//Storyboard Layer 2 (Pass)
//Storyboard Layer 3 (Foreground)
//Storyboard Sound Samples
//Background Colour Transformations
3,100,255,128,128

[TimingPoints]
1100,375,4,1,1,50,1,0
6350,-100,4,1,1,10,0,0
6537,-100,4,1,1,20,0,0
6725,-100,4,1,1,30,0,0
6912,-100,4,1,1,40,0,0
7100,-100,4,1,1,50,0,0
7475,-100,4,1,1,30,0,0
11600,-200,4,1,1,30,0,0
12537,-100,4,2,1,30,0,0
13100,-100,4,1,1,30,0,0
16006,-100,4,2,1,30,0,0
18725,-100,4,1,1,40,0,0
23787,-100,4,1,2,40,0,0
25100,-100,4,1,1,40,0,0
28100,-100,4,1,1,30,0,0
32225,-100,4,1,2,30,0,0
32600,-100,4,2,1,40,0,0
38787,-100,4,2,1,30,0,0
40287,-100,4,1,1,30,0,0
45725,-100,4,1,2,40,0,0
46100,-100,4,2,2,60,0,1
57912,-100,4,1,1,40,0,0
65787,-100,4,2,1,20,0,0
65975,-100,4,2,1,25,0,0
66162,-100,4,2,1,30,0,0
66350,-100,4,2,1,35,0,0
66537,-100,4,2,1,40,0,0
66725,-100,4,2,1,40,0,0
66912,-100,4,2,1,40,0,0
67100,-100,4,1,1,30,0,0
68600,-100,4,1,2,30,0,0
70100,-100,4,1,1,40,0,0
73100,-100,4,1,1,30,0,0
77225,-100,4,2,1,30,0,0
77600,-100,4,1,1,40,0,0
78725,-100,4,2,1,40,0,0
82100,-100,4,1,1,40,0,0
85287,-100,4,1,1,40,0,0
90725,-100,4,1,1,60,0,0
91100,-100,4,2,2,60,0,1
103100,-100,4,1,1,60,0,0
120725,-100,4,2,2,30,0,0
142943,-100,4,1,0,40,0,0
143600,-100,4,1,1,40,0,0
149600,-100,4,1,1,30,0,0
149787,-100,4,1,1,30,0,0
155225,-100,4,2,1,40,0,0
158600,-100,4,1,1,40,0,0
166287,-100,4,1,2,50,0,0
167225,-100,4,1,2,60,0,0
167600,-100,4,2,2,60,0,1
176600,-100,4,2,2,40,0,1
181850,-100,4,1,2,60,0,1
194787,-100,4,1,1,40,0,1
194975,-100,4,1,1,40,0,0
195162,-100,4,1,1,35,0,0
197412,-100,4,2,0,45,0,0
197787,-100,4,2,0,35,0,0
197975,-100,4,2,0,30,0,0
198162,-100,4,1,1,25,0,0
198350,-100,4,1,1,20,0,0
198537,-100,4,1,1,15,0,0
198725,-100,4,1,1,20,0,0
200412,-100,4,2,0,20,0,0
202100,631.578947368421,4,2,0,20,1,0
203678,666.666666666667,4,2,0,20,1,0
205094,600,4,1,0,20,1,0
205106,-100,4,1,0,20,0,0
205706,-100,4,1,0,35,0,0
206406,-100,4,1,0,40,0,0
206906,-100,4,1,0,45,0,0
207506,-100,4,1,0,50,0,0
208206,-100,4,1,0,55,0,0
210494,-100,4,1,0,5,0,0
210644,-100,4,1,0,30,0,0
211506,-100,4,1,0,35,0,0
211706,-100,4,1,0,40,0,0
211906,-100,4,1,0,45,0,0
212106,-100,4,1,0,50,0,0
212306,-100,4,1,0,55,0,0
212506,-100,4,1,0,60,0,0
212706,-100,4,1,0,65,0,0
212906,-100,4,1,0,70,0,0
213006,-100,4,1,0,75,0,0
213206,-100,4,1,0,80,0,0
213406,-100,4,1,0,85,0,0
213794,-100,4,1,0,5,0,0

[Colours]
Combo1 : 128,255,128
Combo2 : 255,255,128
Combo3 : 170,170,255
Combo4 : 255,128,255

[HitObjects]
72,264,6350,1,0
80,264,6443,1,0
88,264,6537,1,0
96,264,6631,1,0
104,264,6725,1,0
112,264,6818,1,0
120,264,6912,1,0
128,264,7006,1,0
136,264,7100,2,0,B|179:248|191:209,1,80
184,72,7475,5,0
184,72,7568,1,0
184,72,7662,1,0
344,152,7850,5,0
344,152,7943,1,0
344,152,8037,1,0
260,312,8225,5,0
260,312,8318,1,0
260,312,8412,1,0
60,192,8600,5,0
60,192,9350,1,0
188,92,10100,6,0,B|188:144|260:168,1,80
164,224,10475,1,0
304,96,10662,1,0
368,164,10850,2,0,B|368:268,1,80
464,224,11225,1,0
428,312,11412,1,0
256,344,11600,6,0,B|258:342|258:342|246:341|253:336|253:336|241:335|247:329|247:329|236:328|242:323|242:323|231:322|237:317|237:317|226:316|232:311|232:311|221:310|227:305|227:305|216:304|222:299|222:299|210:298|217:293|217:293|205:292|211:286|211:286|200:285|206:280|206:280|195:279|201:274|201:274|190:273|196:268|196:268|185:267|191:262|191:267,1,160
184,124,12537,5,0
256,188,12725,1,0
328,124,12912,1,0
440,192,13100,6,0,B|503:259|439:339,1,160
72,192,13850,2,0,B|8:259|72:339,1,160
256,44,14600,2,0,B|256:212,1,160
404,304,15350,1,0
136,188,15725,1,0
392,92,16006,5,0
392,92,16100,1,0
392,92,16193,1,0
172,304,16662,5,0
172,304,16756,1,0
172,304,16850,1,0
60,68,17412,5,0
60,68,17506,1,0
60,68,17600,1,0
432,224,18162,5,0
432,224,18256,1,0
432,224,18350,1,0
324,76,18725,5,0
320,84,18818,1,0
316,92,18912,1,0
312,100,19006,1,0
308,108,19100,2,0,B|260:200,1,80
128,272,19475,2,0,B|200:236,1,80
132,168,19850,1,0
192,96,20037,1,0
276,140,20225,2,0,B|312:112|380:148,1,80
412,60,20600,5,0
324,224,20787,1,0
252,288,20975,2,0,B|206:290|171:221,1,80
112,312,21350,1,0
52,240,21537,1,0
96,156,21725,2,0,B|172:108,1,80
256,36,22100,5,0
336,88,22287,2,0,B|309:126|264:116,1,80
208,256,22662,2,0,B|320:256,1,80
368,308,23037,1,0
232,176,23225,1,0
136,176,23412,1,0
188,96,23600,2,0,B|312:64|332:208|332:208|432:152,1,320
420,252,24537,1,0
368,332,24725,1,0
272,332,24912,1,0
100,200,25100,6,0,B|187:246|174:369,2,160
88,296,26037,1,0
232,224,26225,2,0,B|332:172,1,80
256,104,26600,1,0
256,320,26787,2,0,B|308:356|308:356|352:304|420:320,1,160
485,89,27350,2,0,B|401:135|412:220,2,160
396,56,28287,5,0
344,136,28475,1,0
336,232,28662,1,0
180,292,28850,2,0,B|260:292,1,80
36,188,29225,1,0
124,148,29412,1,0
200,88,29600,2,0,B|236:116|300:76,1,80
276,296,30162,2,0,B|240:268|172:308,1,80
457,166,31287,6,0,B|484:132|457:92,1,80
392,236,31662,1,0
256,64,31850,1,0
256,256,32225,2,0,B|256:352,1,80
204,192,32600,5,0
308,192,32787,1,0
128,192,32975,1,0
384,192,33162,1,0
256,72,33350,1,0
64,76,33725,6,0,B|136:116,1,80
56,172,34100,1,0
120,244,34287,1,0
128,240,34381,1,0
136,236,34475,1,0
144,232,34568,1,0
152,228,34662,1,0
160,224,34756,1,0
168,220,34850,1,0
256,184,35037,5,0
348,152,35225,2,0,B|346:106|271:80,2,80
428,100,35787,1,0
428,108,35881,1,0
428,116,35975,1,0
428,124,36068,1,0
428,132,36162,1,0
428,140,36256,1,0
428,148,36350,1,0
52,80,37100,6,0,B|92:148|188:212,1,160
444,304,37850,1,0
456,72,38225,2,0,B|375:45|299:77,1,160
132,236,38787,5,0
48,160,38975,1,0
132,84,39162,1,0
216,160,39350,1,0
482,214,39725,5,0
476,220,39818,1,0
470,225,39912,1,0
465,231,40006,1,0
459,237,40100,1,0
340,312,40287,6,0,B|264:264,2,80
248,344,40850,1,0
296,192,41037,1,0
176,68,41225,2,0,B|222:82|224:128,1,80
136,164,41600,1,0
48,204,41787,1,0
92,292,41975,1,0
176,244,42162,1,0
296,326,42350,2,0,B|258:297|272:256,2,80
456,56,43287,5,0
352,184,43475,2,0,B|264:184,1,80
372,96,43850,1,0
372,96,44037,1,0
276,112,44225,1,0
276,112,44412,1,0
132,236,44600,2,0,B|208:280,1,80
440,224,44975,2,0,B|440:144,1,80
256,60,45350,1,0
256,288,45725,5,0
436,92,45912,1,0
168,248,46100,2,0,B|124:240|96:208,1,80
304,168,46475,1,0
72,124,46662,2,0,B|144:164|248:112,1,160
304,64,47225,1,0
448,188,47412,1,0
336,168,47600,6,0,B|331:260|260:302,1,160
116,272,48162,2,0,B|192:224,1,80
248,100,48537,2,0,B|172:148,1,80
308,56,48912,1,0
152,192,49100,5,0
220,192,49287,1,0
288,192,49475,1,0
356,192,49662,1,0
260,264,49850,2,0,B|306:278|308:324,1,80
132,328,50225,2,0,B|212:328,1,80
96,264,50600,1,0
136,196,50787,2,0,B|164:160|208:148,1,80
256,72,51162,6,0,B|272:156|383:187,1,160
362,181,51725,1,0
362,181,51912,1,0
140,104,52100,6,0,B|99:98|72:64,1,80
64,160,52475,1,0
424,80,52850,2,0,B|405:64|375:75|338:99|335:144|346:173|377:191,1,160
256,300,53600,1,0
152,192,53787,1,0
360,192,53975,1,0
360,192,54162,1,0
184,64,54725,6,0,B|48:176,1,160
152,192,55287,1,0
256,120,55475,1,0
256,224,55662,1,0
352,120,55850,1,0
352,256,56037,1,0
440,120,56225,1,0
440,288,56412,1,0
224,308,56600,6,0,B|268:288|332:312,1,80
104,160,56975,2,0,B|168:224,1,80
256,84,57350,1,0
456,192,57912,6,0,B|356:192,1,80
56,84,58475,2,0,B|100:56|140:112|140:112|224:84,1,160
387,267,59037,2,0,B|272:156,1,160
256,308,59600,1,0
216,64,59975,2,0,B|256:44|312:68,1,80
256,196,60350,1,0
256,196,60725,1,0
124,288,65600,5,0
96,196,65787,5,0
104,196,65881,1,0
112,196,65975,1,0
120,196,66068,1,0
128,196,66162,1,0
136,196,66256,1,0
144,196,66350,1,0
152,196,66443,1,0
160,196,66537,1,0
168,196,66631,1,0
176,196,66725,1,0
184,196,66818,1,0
192,196,66912,1,0
200,196,67006,1,0
208,196,67100,6,0,B|240:160|196:96,1,80,0|0
256,256,67475,1,0
445,273,67662,2,0,B|381:276|365:196|365:196|328:196,1,160
452,192,68225,1,0
363,67,68412,1,0
364,316,68600,2,0,B|297:192|210:242|210:242|110:300|32:165,1,400
88,96,69725,1,0
164,152,69912,1,0
260,152,70100,6,0,B|436:152,2,160
376,232,71037,2,0,B|376:280|312:308,1,80
334,296,71412,1,0
175,240,71600,1,0
240,304,71787,2,0,B|188:360|60:352,1,160
52,264,72350,5,0
52,256,72443,1,0
52,248,72537,1,0
52,240,72631,1,0
52,232,72725,1,0
168,80,73100,5,0
168,80,73287,2,0,B|272:80,1,80
324,140,73662,1,0
350,306,73850,2,0,B|364:272|364:228,1,80
132,324,74225,2,0,B|208:299,1,80
196,200,74600,1,0
100,188,74787,2,0,B|136:104|240:100,1,160
392,44,75350,2,0,B|349:66|365:166|365:166|301:194,1,200
84,288,76287,5,0
116,288,76475,1,0
152,288,76662,1,0
184,288,76850,2,0,B|206:191|334:219,1,160
306,215,77412,1,0
175,95,77600,2,0,B|236:148,1,80
403,137,77975,2,0,B|372:108|328:124,1,80
152,188,78350,1,0
416,312,78725,6,0,B|464:228,1,80
340,312,79100,1,0
252,272,79287,1,0
244,268,79381,1,0
236,264,79475,1,0
228,260,79568,1,0
220,256,79662,1,0
212,252,79756,1,0
204,248,79850,1,0
124,192,80037,5,0
252,48,80225,1,0
128,72,80412,1,0
284,136,80600,1,0
364,188,80787,1,0
368,180,80881,1,0
372,172,80975,1,0
376,164,81068,1,0
380,156,81162,1,0
384,148,81256,1,0
388,140,81350,1,0
124,192,82100,6,0,B|296:192,1,160
184,28,82850,1,0
470,193,83225,2,0,B|444:96|348:128,1,160
256,332,83787,5,0
256,300,83975,1,0
256,264,84162,1,0
256,228,84350,1,0
144,72,84725,1,0
140,76,84818,1,0
136,80,84912,1,0
132,84,85006,1,0
128,88,85100,6,0,B|76:92|56:172,1,80
160,164,85475,2,0,B|248:164,1,80
300,88,85850,1,0
200,252,86037,1,0
288,288,86225,2,0,B|324:260|368:260,1,80
428,188,86600,1,0
412,92,86787,1,0
328,48,86975,1,0
178,115,87162,2,0,B|232:56,1,80
252,148,87537,1,0
252,244,87725,1,0
96,288,88287,5,0
96,288,88475,1,0
96,288,88662,1,0
36,212,88850,2,0,B|116:172,1,80
266,174,89225,2,0,B|196:212,1,80
220,88,89600,1,0
316,88,89787,1,0
368,164,89975,1,0
332,252,90162,1,0
408,88,90350,1,0
256,308,90725,5,0
96,80,90912,1,0
109,180,91100,2,0,B|184:152,1,80
260,212,91475,1,0
308,296,91662,2,0,B|396:300|460:220|460:220|460:152,1,240
200,92,92600,6,0,B|280:92,1,80
128,92,92975,1,0
164,156,93162,2,0,B|164:232|280:232|280:232|328:308,1,240
456,88,94100,5,0
404,148,94287,1,0
352,208,94475,1,0
300,268,94662,1,0
56,88,94850,5,0
108,148,95037,1,0
160,208,95225,1,0
212,268,95412,1,0
300,268,95600,5,0
256,56,95787,2,0,B|256:152,1,80
256,136,96162,1,0
428,296,96537,1,0
428,296,96725,1,0
80,228,97100,6,0,B|80:320,2,80
204,128,97850,2,0,B|141:177,2,80
256,280,98600,1,0
444,176,98787,1,0
336,280,98975,2,0,B|340:228|371:211,1,80
256,64,99725,5,0
256,64,99912,1,0
212,128,100100,2,0,B|120:92|56:172,1,160
160,204,100662,1,0
256,296,100850,1,0
352,204,101037,1,0
256,108,101224,1,0
256,296,101412,1,0
340,132,101600,5,0
128,132,101881,1,0
128,132,101975,2,0,B|12:288,1,160
256,192,102725,1,0
256,192,103100,1,0
68,108,120725,6,0,B|36:292,2,160
340,96,121850,2,0,B|252:96|252:96|192:168,2,160
340,96,122975,1,0
116,312,123350,6,0,B|196:264|284:316,2,160
256,192,124287,1,0
176,192,124475,2,0,B|40:100,1,160
43,102,125225,1,0
116,68,125412,5,0
196,68,125600,2,0,B|268:128|364:60,2,160
304,184,126725,2,0,B|432:320,1,160
413,300,127475,1,0
256,192,127850,12,0,129350
256,192,129725,5,0
276,116,129912,1,0
72,92,130100,2,0,B|176:96|176:224,2,160
192,280,131225,2,0,B|88:276|88:148,1,160
89,178,131975,1,0
356,56,132350,6,0,B|316:104|316:104|324:160|356:220,1,160
424,196,132912,1,0
384,264,133100,1,0
304,272,133287,1,0
244,328,133475,1,0
88,76,133850,1,0
88,76,134225,1,0
64,152,134412,5,0
256,152,134600,2,0,B|165:118|117:206,1,160
212,228,135162,1,0
288,252,135350,2,0,B|392:256|428:144,1,160
256,44,136100,1,0
256,44,136475,1,0
72,84,136850,6,0,B|184:224,1,160
252,348,137600,1,0
440,84,137975,2,0,B|328:224,1,160
340,208,138725,1,0
256,192,138912,5,0
212,124,139100,2,0,B|140:164|140:164|140:100|84:76|84:76|16:100,1,240
156,240,139850,2,0,B|328:296,2,160
156,240,140975,1,0
40,192,141350,6,0,B|136:96|268:80|384:104|480:200,1,480
468,200,142568,1,0
464,208,142662,1,0
460,212,142756,1,0
456,216,142850,1,0
452,220,142943,1,0
448,224,143037,1,0
444,228,143131,1,0
440,232,143225,1,0
436,236,143318,1,0
432,240,143412,1,0
428,244,143506,1,0
420,248,143600,6,0,B|316:248,1,80
132,280,143975,1,0
116,61,144162,2,0,B|72:128|72:128|68:208,1,160
152,156,144725,1,0
236,112,144912,1,0
320,64,145100,2,0,B|384:64|320:144|320:144|320:208|388:212|388:212|392:276|460:324,1,320
112,84,146600,6,0,B|160:84|200:136,1,80
112,180,146975,2,0,B|112:348,1,160
184,280,147537,1,0
276,248,147725,1,0
372,244,147912,1,0
304,88,148100,5,0
304,88,148287,2,0,B|385:86|429:174,1,160
336,180,148850,1,0
172,112,149037,1,0
180,116,149131,1,0
188,120,149225,1,0
196,124,149318,1,0
204,128,149412,1,0
304,324,149787,6,0,B|388:280,1,80
208,324,150162,2,0,B|124:280,1,80
80,208,150537,1,0
280,116,150725,1,0
356,176,150912,1,0
452,176,151100,1,0
484,268,151287,2,0,B|428:320|428:320|312:320,1,160
344,320,151850,1,0
344,320,152037,1,0
344,320,152225,1,0
76,60,152787,5,0
156,112,152975,1,0
252,112,153162,1,0
348,108,153350,2,0,B|348:152|300:188,1,80
164,276,153725,2,0,B|164:232|212:196,1,80
104,212,154100,1,0
300,56,154287,1,0
256,276,154475,1,0
204,56,154662,1,0
408,212,154850,1,0
88,100,155225,5,0
88,100,155412,1,0
256,192,155600,1,0
340,148,155787,1,0
344,152,155881,1,0
348,156,155975,1,0
352,160,156068,1,0
356,164,156162,1,0
360,168,156256,1,0
176,300,156537,6,0,B|256:248|352:316,1,160
256,192,157100,1,0
172,148,157287,1,0
168,152,157381,1,0
164,156,157475,1,0
160,160,157568,1,0
156,164,157662,1,0
152,168,157756,1,0
256,40,158600,5,0
256,72,158974,1,0
256,108,159350,1,0
256,140,159725,1,0
256,180,160100,1,0
104,288,160287,5,0
180,228,160475,1,0
276,224,160662,1,0
340,152,160850,1,0
88,76,161225,5,0
92,80,161318,1,0
96,84,161412,1,0
100,88,161506,1,0
104,92,161600,1,0
276,72,161787,6,0,B|196:72,1,80
400,112,162162,2,0,B|440:168|448:212|448:212|400:280,1,160
344,312,162725,1,0
260,268,162912,1,0
99,236,163100,2,0,B|164:284,1,80
224,104,163475,1,0
320,104,163662,2,0,B|360:80|408:108,1,80
408,196,164037,1,0
408,196,164225,1,0
104,116,164787,5,0
104,148,164975,1,0
104,184,165162,1,0
212,272,165350,1,0
184,256,165537,1,0
152,236,165725,1,0
124,216,165912,1,0
140,192,166100,2,0,B|312:192,1,160
300,192,166662,1,0
300,192,166850,1,0
60,88,167225,5,0
256,300,167412,1,0
344,264,167600,2,0,B|436:200,2,80
170,113,168162,2,0,B|208:176|312:176,1,160
360,92,168725,2,0,B|428:32,1,80
432,260,169100,6,0,B|432:168,1,80
348,228,169475,1,0
368,320,169662,2,0,B|176:320,1,160
84,196,170225,2,0,B|140:252,1,80
216,48,170600,6,0,B|160:140,1,80
268,128,170975,1,0
384,308,171162,1,0
424,152,171350,1,0
400,180,171537,1,0
376,204,171725,1,0
352,232,171912,1,0
320,248,172100,2,0,B|284:264|284:264|232:240,1,80
247,246,172475,1,0
64,232,172662,2,0,B|208:120,1,160
190,133,173225,1,0
464,192,173600,5,0
212,64,173787,1,0
376,192,173975,2,0,B|360:96|280:64,1,160
64,156,174537,1,0
136,220,174725,1,0
372,48,174912,1,0
256,68,175100,2,0,B|256:164,1,80
428,120,175475,1,0
400,296,175662,2,0,B|344:260|344:260|280:264|220:300,1,160
253,282,176225,1,0
72,88,176600,6,0,B|128:156,1,80
204,60,176975,2,0,B|212:152,1,80
301,139,177350,2,0,B|308:60,1,80
389,149,177725,2,0,B|440:88,1,80
336,240,178100,5,0
280,316,178287,1,0
192,276,178475,1,0
96,276,178662,1,0
64,88,178850,6,0,B|136:40,1,80
156,136,179225,2,0,B|248:136,1,80
304,68,179600,1,0
396,88,179787,2,0,B|440:168|396:272,1,160
406,243,180350,1,0
100,280,180725,5,0
60,192,180912,1,0
256,56,181100,2,0,B|212:64|188:120,1,80
276,136,181475,1,0
276,136,181568,2,0,B|340:192,1,80
336,188,181850,5,0
60,192,182225,1,0
444,192,182600,6,0,B|444:252|376:272|376:272|372:352,1,160
368,196,183162,2,0,B|304:120|368:32,1,160
304,256,183725,1,0
208,256,183912,2,0,B|124:256,1,80
80,172,184287,1,0
80,172,184475,1,0
112,80,184662,2,0,B|184:24|284:96,1,160
352,48,185225,1,0
280,216,185412,1,0
432,104,185600,5,0
472,192,185787,1,0
376,196,185975,1,0
332,280,186162,1,0
236,280,186350,1,0
55,111,186537,2,0,B|80:188|80:188|156:228,1,160
168,132,187100,1,0
248,80,187287,1,0
324,140,187475,1,0
392,281,187662,2,0,B|450:218|450:218|462:122|400:80,1,240
401,80,188412,1,0
172,192,188600,6,0,B|344:192,1,160,0|0
76,192,189350,1,0
76,192,189537,1,0
401,80,189912,1,0
392,176,190100,1,0
316,236,190287,1,0
140,96,190475,1,0
236,96,190662,2,0,B|324:96|352:216,1,160
346,194,191225,1,0
100,292,191600,6,0,B|156:204,1,80
228,268,191975,1,0
104,72,192162,2,0,B|56:88|56:152,1,80
248,104,192725,2,0,B|344:104,1,80
412,60,193100,1,0
404,156,193287,1,0
368,244,193475,1,0
288,296,193662,1,0
196,324,193850,1,0
36,32,194225,1,0
256,196,194600,5,0
420,96,194975,2,0,B|384:152|376:196|376:196|416:264,1,160
92,96,195537,2,0,B|128:152|136:196|136:196|96:264,1,160
196,284,196100,1,0
252,204,196287,1,0
348,200,196475,1,0
424,140,196662,1,0
220,60,196850,2,0,B|300:60,1,80
256,316,197412,5,0
256,316,197600,2,0,B|256:268|340:256,1,80
378,40,197975,2,0,B|396:116|396:116|376:196,1,160
292,148,198537,2,0,B|132:148,1,160
92,236,199100,1,0
172,292,199287,1,0
300,72,199475,1,0
376,132,199662,1,0
380,228,199850,1,0
68,64,200412,5,0
164,64,200600,2,0,B|112:148|204:232,1,160
232,128,201350,1,0
400,280,201537,1,0
304,280,201725,1,0
232,220,201912,1,0
436,80,202731,6,0,B|440:184,2,80
76,80,203678,2,0,B|72:184,2,80
256,192,205094,12,0,210494
256,192,210644,12,0,213794
