osu file format v9

[General]
AudioFilename: 01.mp3
AudioLeadIn: 0
PreviewTime: 43801
Countdown: 0
SampleSet: Normal
StackLeniency: 0.7
Mode: 0
LetterboxInBreaks: 1

[Editor]
Bookmarks: 19988,20551,23363,65738,143551,151426
DistanceSpacing: 1
BeatDivisor: 4
GridSize: 8

[Metadata]
Title:Kozakai San Chi wa Bobu no Ie
Artist:Chata
Creator:BinJip
Version:Normal
Source:Sinya no Kaidan
Tags:Mapper 31

[Difficulty]
HPDrainRate:2
CircleSize:3
OverallDifficulty:2
ApproachRate:3
SliderMultiplier:1.00000000596046
SliderTickRate:1

[Events]
//Background and Video events
0,0,"BG.jpg"
//Break Periods
2,61042,64160
2,103300,119660
//Storyboard Layer 0 (Background)
//Storyboard Layer 1 (Fail)
//Storyboard Layer 2 (Pass)
//Storyboard Layer 3 (Foreground)
//Storyboard Sound Samples
//Background Colour Transformations
3,100,163,162,255

[TimingPoints]
1100,375,4,1,1,50,1,0
6350,-100,4,1,1,10,0,0
6537,-100,4,1,1,20,0,0
6725,-100,4,1,1,30,0,0
6912,-100,4,1,1,40,0,0
7100,-100,4,1,1,50,0,0
7475,-100,4,1,1,30,0,0
12537,-100,4,2,1,30,0,0
13100,-100,4,1,1,30,0,0
16006,-100,4,2,1,30,0,0
18725,-100,4,1,1,40,0,0
23787,-100,4,1,2,40,0,0
25100,-100,4,1,1,40,0,0
28100,-100,4,1,1,30,0,0
32225,-100,4,1,2,30,0,0
32600,-100,4,2,1,40,0,0
38787,-100,4,2,1,30,0,0
40287,-100,4,1,1,30,0,0
45725,-100,4,1,2,40,0,0
46100,-100,4,2,2,60,0,1
58850,-100,4,1,1,40,0,0
65787,-100,4,2,1,20,0,0
65975,-100,4,2,1,25,0,0
66162,-100,4,2,1,30,0,0
66350,-100,4,2,1,35,0,0
66537,-100,4,2,1,40,0,0
66725,-100,4,2,1,40,0,0
66912,-100,4,2,1,40,0,0
67100,-100,4,1,1,30,0,0
68600,-100,4,1,2,30,0,0
70100,-100,4,1,1,40,0,0
73100,-100,4,1,1,30,0,0
77225,-100,4,2,1,30,0,0
77600,-100,4,1,1,40,0,0
78725,-100,4,2,1,40,0,0
82100,-100,4,1,1,40,0,0
85287,-100,4,1,1,40,0,0
90725,-100,4,1,1,60,0,0
91100,-100,4,2,2,60,0,1
103100,-200,4,1,1,60,0,0
121100,-200,4,2,2,30,0,0
142568,-200,4,1,0,35,0,0
142756,-200,4,1,0,40,0,0
142943,-100,4,1,0,40,0,0
143600,-100,4,1,1,40,0,0
149600,-100,4,1,1,30,0,0
149787,-100,4,1,1,30,0,0
155225,-100,4,2,1,40,0,0
158600,-100,4,1,1,40,0,0
166287,-100,4,1,2,50,0,0
167225,-100,4,1,2,60,0,0
167600,-100,4,2,2,60,0,1
178475,-100,4,1,1,40,0,1
181850,-100,4,1,2,60,0,1
194787,-100,4,1,1,40,0,1
194975,-100,4,1,1,40,0,0
195162,-100,4,1,1,35,0,0
197412,-100,4,2,0,45,0,0
197787,-100,4,2,0,35,0,0
197975,-100,4,2,0,30,0,0
198162,-100,4,1,1,25,0,0
198350,-100,4,1,1,20,0,0
198537,-100,4,1,1,15,0,0
198725,-100,4,1,1,20,0,0
200412,-100,4,2,0,20,0,0
202100,631.578947368421,4,2,0,20,1,0
203678,666.666666666667,4,2,0,20,1,0
205094,600,4,1,0,20,1,0
205106,-100,4,1,0,20,0,0
205706,-100,4,1,0,35,0,0
206406,-100,4,1,0,40,0,0
206906,-100,4,1,0,45,0,0
207506,-100,4,1,0,50,0,0
208206,-100,4,1,0,55,0,0
210494,-100,4,1,0,5,0,0
210706,-100,4,1,0,30,0,0
211506,-100,4,1,0,35,0,0
211706,-100,4,1,0,40,0,0
211906,-100,4,1,0,45,0,0
212106,-100,4,1,0,50,0,0
212306,-100,4,1,0,55,0,0
212506,-100,4,1,0,60,0,0
212706,-100,4,1,0,65,0,0
212906,-100,4,1,0,70,0,0
213006,-100,4,1,0,75,0,0
213206,-100,4,1,0,80,0,0
213406,-100,4,1,0,85,0,0
213606,-100,4,1,0,5,0,0

[Colours]
Combo1 : 128,255,128
Combo2 : 255,255,128
Combo3 : 170,170,255
Combo4 : 255,128,255

[HitObjects]
88,312,6350,2,0,B|208:312|208:312|280:240,1,200.000001192092,4|4
360,232,7475,1,0
440,192,7850,1,0
360,136,8225,1,0
264,136,8600,2,0,B|160:136|160:136|72:208,1,200.000001192092,4|0
256,304,10100,5,8
304,216,10475,1,0
352,304,10850,1,0
448,304,11225,1,0
448,208,11600,2,0,B|448:88,2,100.000000596046
264,136,13100,6,0,B|160:136,1,100.000000596046,8|0
168,240,13850,2,0,B|272:240,1,100.000000596046,8|0
368,240,14600,2,0,B|424:240|424:240|448:200,1,100.000000596046,8|0
368,136,15350,2,8,B|424:136|424:136|448:176,1,100.000000596046,8|0
344,192,16100,5,8
152,248,16850,1,0
40,88,17600,1,8
240,88,18350,1,0
440,88,19100,6,0,B|360:160,1,100.000000596046,4|0
440,220,19850,2,0,B|360:148,1,100.000000596046,0|0
264,144,20600,2,0,B|176:144|144:144,1,100.000000596046
160,248,21350,2,0,B|280:248,1,100.000000596046
352,192,22100,6,0,B|464:192,2,100.000000596046,8|0|0
264,144,23225,2,0,B|168:96,2,100.000000596046,0|8|0
264,240,24350,2,0,B|168:288,2,100.000000596046,8|8|8
176,192,25475,6,0,B|64:192,2,100.000000596046,0|0|0
248,120,26600,1,8
344,120,26975,1,0
344,216,27350,1,0
344,312,27725,1,0
248,312,28100,1,12
88,192,28850,5,0
256,88,29600,1,0
432,192,30350,1,0
256,288,31100,1,8
80,192,31850,5,0
80,192,32600,2,0,B|200:192,2,100.000000596046,8|0|0
136,280,33725,2,0,B|224:352,1,100.000000596046,0|8
256,256,34475,1,0
336,192,34850,1,0
400,120,35225,6,0,B|312:48,1,100.000000596046,0|8
256,128,35975,1,0
176,192,36350,1,0
48,344,37100,5,8
216,232,37850,1,0
376,104,38600,2,0,B|376:224,2,100.000000596046,8|0|0
192,192,40100,5,4
48,56,40850,1,0
248,56,41600,1,0
448,56,42350,1,0
248,56,43100,1,0
392,192,43850,1,0
200,128,44600,6,0,B|144:128|144:128|104:160,1,100.000000596046,0|8
104,256,45350,2,0,B|160:256|160:256|200:224,1,100.000000596046,0|4
272,288,46100,6,0,B|272:184,1,100.000000596046,12|0
272,88,46850,2,0,B|272:192,1,100.000000596046,0|0
352,128,47600,2,0,B|456:168,2,100.000000596046
352,224,48725,1,0
272,288,49100,5,12
184,240,49475,1,0
184,144,49850,1,0
264,80,50225,1,0
360,80,50600,6,0,B|304:168,2,100.000000596046,8|0|0
264,80,51725,1,0
264,80,52100,5,4
64,80,52850,1,0
64,280,53600,2,0,B|232:280,1,150.00000089407,4|4
352,296,54725,6,0,B|400:296|400:296|400:240,1,100.000000596046,4|8
296,240,55475,2,0,B|248:240|248:240|248:184,1,100.000000596046,0|8
352,184,56225,2,0,B|400:184|400:184|400:128,1,100.000000596046,0|8
304,120,56975,2,0,B|256:120|256:120|256:64,1,100.000000596046,0|8
152,64,57725,1,0
144,160,58100,5,0
256,320,58850,1,0
256,120,59600,2,0,B|376:120,1,100.000000596046,0|0
456,120,60350,1,0
400,200,60725,1,12
0,80,65600,6,0,B|188:240|368:56,1,400.000002384184,0|4
456,80,67475,6,0,B|456:192,1,100.000000596046,8|0
360,192,68225,2,0,B|312:176|312:176|256:192,1,100.000000596046,0|8
168,192,68975,2,0,B|120:208|120:208|64:192,1,100.000000596046,0|8
56,296,69725,6,0,B|104:328|168:288,1,100.000000596046,8|0
248,304,70475,2,0,B|296:272|360:312,1,100.000000596046,8|0
440,312,71225,2,0,B|440:200,1,100.000000596046
384,128,71975,6,0,B|304:192,1,100.000000596046,8|0
384,252,72725,2,0,B|304:188,1,100.000000596046,0|8
104,192,73850,5,0
256,56,74600,1,0
456,56,75350,1,8
304,192,76100,5,0
104,192,76850,1,0
208,360,77600,2,0,B|312:360,2,100.000000596046,8|0|0
184,264,78725,6,0,B|184:152,1,100.000000596046,8|0
184,64,79475,1,0
384,64,80225,6,4,B|384:164,1,100.000000596046,8|4
384,264,80975,1,0
160,64,82100,5,0
352,64,82850,1,0
256,256,83600,2,0,B|256:368,2,100.000000596046
64,192,85100,5,4
256,128,85850,1,0
448,192,86600,1,8
256,272,87350,1,0
160,96,88100,5,0
352,96,88850,1,8
176,192,89600,2,0,B|280:192,2,100.000000596046,0|8|0
112,272,90725,6,0,B|320:272,1,200.000001192092
392,216,91850,2,0,B|312:136,1,100.000000596046
296,48,92600,2,0,B|208:120,3,100.000000596046
128,160,94100,5,4
64,240,94475,1,8
136,312,94850,1,0
208,240,95225,1,0
208,144,95600,5,12
288,72,95975,1,0
360,144,96350,1,0
360,240,96725,1,8
440,296,97100,5,4
440,96,97850,1,12
264,192,98600,2,0,B|112:192,1,150.00000089407,4|4
232,96,99725,6,0,B|344:96,1,100.000000596046,0|12
280,184,100475,2,0,B|360:256,1,100.000000596046
256,280,101225,2,0,B|184:360,2,100.000000596046,0|8|0
336,336,102350,1,0
416,280,102725,1,4
336,224,103100,1,4
128,80,121100,6,0,B|232:80,2,100.000000596046,4|0|8
80,80,122975,1,8
80,128,123350,6,0,B|80:232,2,100.000000596046,0|0|8
128,128,125225,1,8
176,128,125600,6,8,B|184:176|184:176|240:200,2,100.000000596046,0|0|8
224,128,127475,1,8
272,128,127850,6,8,B|264:80|264:80|208:56,2,100.000000596046,0|0|8
320,136,129725,1,8
320,184,130100,6,0,B|264:192|248:256,2,100.000000596046,4|0|8
368,184,131975,1,8
416,184,132350,6,0,B|472:192|488:256,2,100.000000596046,4|0|8
416,136,134225,1,8
384,176,134600,6,0,B|280:176,2,100.000000596046,0|0|8
384,224,136475,1,8
336,224,136850,6,0,B|264:296|264:296,2,100.000000596046,0|0|8
344,176,138725,1,8
344,128,139100,6,0,B|272:56|272:56,2,100.000000596046,0|0|8
304,160,140975,1,8
264,192,141350,6,0,B|160:192,1,100.000000596046,0|0
168,240,142475,2,4,B|80:224|48:152,1,150.000000894069,0|4
104,72,143975,5,0
192,112,144350,1,8
288,112,144725,1,0
376,152,145100,1,8
464,192,145475,5,0
376,232,145850,1,8
288,272,146225,1,0
192,272,146600,1,8
96,272,146975,1,0
16,208,147350,6,0,B|0:160|16:96,1,100.000000596046,8|0
88,48,148100,2,0,B|104:96|88:160,1,100.000000596046,0|8
184,192,148850,2,0,B|168:144|184:80,1,100.000000596046
272,80,149600,5,8
400,232,150350,1,0
216,312,151100,1,0
88,152,151850,1,8
256,40,152600,5,0
256,240,153350,1,0
456,240,154100,2,0,B|336:240,1,100.000000596046,8|0
296,320,154850,2,0,B|240:336|184:312,1,100.000000596046,0|8
96,320,155600,5,4
96,224,155975,1,0
192,224,156350,2,0,B|248:208|304:232,1,100.000000596046,8|0
288,136,157100,5,8
192,136,157475,1,0
96,136,157850,1,8
256,264,158600,5,8
440,192,159350,1,0
256,120,160100,2,0,B|256:16,2,100.000000596046
160,296,161600,5,4
256,120,162350,1,0
352,296,163100,1,8
184,192,163850,1,0
384,192,164600,5,8
224,72,165350,1,8
256,272,166100,2,0,B|256:392,2,100.000000596046,0|8|0
208,184,167225,6,0,B|232:136,1,50.000000298023,4|0
224,96,167600,2,0,B|264:56,1,50.000000298023,4|0
312,64,167975,2,0,B|352:104,1,50.000000298023
320,144,168350,2,0,B|352:192,2,50.000000298023
416,104,169100,2,0,B|536:104,3,100.000000596046
456,192,170600,5,4
408,272,170975,1,0
312,272,171350,1,0
256,192,171725,5,0
344,152,172100,1,4
256,104,172475,1,0
168,152,172850,1,0
160,248,173225,1,0
80,192,173600,5,12
280,192,174350,1,8
472,144,175100,1,4
472,296,175662,2,0,B|448:296|448:296|320:296,1,150.000000894069,0|8
352,192,176600,6,0,B|248:192,2,100.000000596046,8|0|0
264,144,177725,2,0,B|160:88,1,100.000000596046
168,192,178475,1,0
264,232,178850,2,0,B|160:288,2,100.000000596046,8|8|0
344,192,179975,6,0,B|464:192,1,100.000000596046
392,280,180725,1,0
296,280,181100,1,0
200,280,181475,1,0
256,192,181850,1,4
200,112,182225,5,12
280,56,182600,1,4
376,56,182975,1,0
456,112,183350,1,8
456,208,183725,1,8
376,264,184100,5,0
280,264,184475,1,0
200,208,184850,1,8
160,120,185225,5,8
200,40,185600,2,0,B|320:40,1,100.000000596046
400,40,186350,2,0,B|400:144,1,100.000000596046,8|0
496,104,187100,5,0
496,200,187475,1,0
496,296,187850,1,0
416,232,188225,1,0
344,296,188600,6,0,B|240:296,1,100.000000596046,4|0
168,232,189350,1,4
368,160,190100,2,0,B|232:72,1,150.000000894069,4|4
120,160,191225,1,12
72,248,191600,6,0,B|96:288|96:288|168:304,1,100.000000596046,4|0
192,208,192350,2,0,B|288:264,1,100.000000596046,8|0
376,248,193100,6,0,B|416:272|416:272|472:304,1,100.000000596046,0|0
456,200,193850,2,4,B|432:160|432:160|360:144,1,100.000000596046,4|4
296,328,194975,5,0
200,312,195350,1,0
128,248,195725,1,8
128,144,196100,1,0
200,72,196475,1,0
296,56,196850,1,8
384,104,197225,1,0
424,200,197589,5,0
368,280,197968,1,8
272,288,198348,1,0
184,240,198728,1,0
208,144,199107,1,0
304,120,199487,1,0
352,208,199867,1,0
296,296,200247,1,0
264,200,200640,5,0
176,200,201004,1,0
128,120,201345,2,0,B|296:120,1,150.000000894069,0|0
408,144,202719,2,0,B|408:194,3,50.000000298023
408,248,204011,2,0,B|408:310,1,62.5000003725287
256,192,205094,12,0,210494
256,192,210644,12,0,213794
