osu file format v9

[General]
AudioFilename: 01.mp3
AudioLeadIn: 0
PreviewTime: 43801
Countdown: 0
SampleSet: Soft
StackLeniency: 0.7
Mode: 0
LetterboxInBreaks: 1

[Editor]
Bookmarks: 19988,20551,65738,143551,151426,197542
DistanceSpacing: 0.6
BeatDivisor: 4
GridSize: 8

[Metadata]
Title:Kozakai San Chi wa Bobu no Ie
Artist:Chata
Creator:BinJip
Version:Insane
Source:Sinya no Kaidan
Tags:Mapper 31

[Difficulty]
HPDrainRate:7
CircleSize:4
OverallDifficulty:8
ApproachRate:8
SliderMultiplier:1.6
SliderTickRate:1

[Events]
//Background and Video events
0,0,"BG.jpg"
//Break Periods
2,61042,65037
2,103300,120350
//Storyboard Layer 0 (Background)
//Storyboard Layer 1 (Fail)
//Storyboard Layer 2 (Pass)
//Storyboard Layer 3 (Foreground)
//Storyboard Sound Samples
//Background Colour Transformations
3,100,255,128,128

[TimingPoints]
1100,375,4,1,1,50,1,0
6350,-100,4,1,1,10,0,0
6537,-100,4,1,1,20,0,0
6725,-100,4,1,1,30,0,0
6912,-100,4,1,1,40,0,0
7100,-100,4,1,1,50,0,0
7475,-100,4,1,1,30,0,0
12537,-100,4,2,1,30,0,0
13100,-100,4,1,1,30,0,0
16006,-100,4,2,1,30,0,0
18725,-100,4,1,1,40,0,0
23787,-100,4,1,2,40,0,0
25100,-100,4,1,1,40,0,0
28100,-100,4,1,1,30,0,0
32225,-100,4,1,2,30,0,0
32600,-100,4,2,1,40,0,0
38787,-100,4,2,1,30,0,0
40287,-100,4,1,1,30,0,0
45725,-100,4,1,2,40,0,0
46100,-100,4,2,2,60,0,1
58850,-100,4,1,1,40,0,0
65787,-100,4,2,1,20,0,0
65975,-100,4,2,1,25,0,0
66162,-100,4,2,1,30,0,0
66350,-100,4,2,1,35,0,0
66537,-100,4,2,1,40,0,0
66725,-100,4,2,1,40,0,0
66912,-100,4,2,1,40,0,0
67100,-100,4,1,1,30,0,0
68600,-100,4,1,2,30,0,0
70100,-100,4,1,1,40,0,0
73100,-100,4,1,1,30,0,0
77225,-100,4,2,1,30,0,0
77600,-100,4,1,1,40,0,0
78725,-100,4,2,1,40,0,0
82100,-100,4,1,1,40,0,0
85287,-100,4,1,1,40,0,0
90725,-100,4,1,1,60,0,0
91100,-100,4,2,2,60,0,1
103100,-100,4,1,1,60,0,0
121100,-100,4,2,2,30,0,0
142568,-200,4,1,0,35,0,0
142756,-200,4,1,0,40,0,0
142943,-100,4,1,0,40,0,0
143600,-100,4,1,1,40,0,0
149600,-100,4,1,1,30,0,0
149787,-100,4,1,1,30,0,0
155225,-100,4,2,1,40,0,0
158600,-100,4,1,1,40,0,0
166287,-100,4,1,2,50,0,0
167225,-100,4,1,2,60,0,0
167600,-100,4,2,2,60,0,1
176600,-100,4,2,2,40,0,1
181850,-100,4,1,2,60,0,1
194787,-100,4,1,1,40,0,1
194975,-100,4,1,1,40,0,0
195162,-100,4,1,1,35,0,0
197412,-100,4,2,0,45,0,0
197787,-100,4,2,0,35,0,0
197975,-100,4,2,0,30,0,0
198162,-100,4,1,1,25,0,0
198350,-100,4,1,1,20,0,0
198537,-100,4,1,1,15,0,0
198725,-100,4,1,1,20,0,0
200412,-100,4,2,0,20,0,0
202100,631.578947368421,4,2,0,20,1,0
203678,666.666666666667,4,2,0,20,1,0
205094,600,4,1,0,20,1,0
205106,-100,4,1,0,20,0,0
205706,-100,4,1,0,35,0,0
206406,-100,4,1,0,40,0,0
206906,-100,4,1,0,45,0,0
207506,-100,4,1,0,50,0,0
208206,-100,4,1,0,55,0,0
210494,-100,4,1,0,5,0,0
210706,-100,4,1,0,30,0,0
211506,-100,4,1,0,35,0,0
211706,-100,4,1,0,40,0,0
211906,-100,4,1,0,45,0,0
212106,-100,4,1,0,50,0,0
212306,-100,4,1,0,55,0,0
212506,-100,4,1,0,60,0,0
212706,-100,4,1,0,65,0,0
212906,-100,4,1,0,70,0,0
213006,-100,4,1,0,75,0,0
213206,-100,4,1,0,80,0,0
213406,-100,4,1,0,85,0,0
213606,-100,4,1,0,5,0,0

[Colours]
Combo1 : 128,255,128
Combo2 : 255,255,128
Combo3 : 170,170,255
Combo4 : 255,128,255

[HitObjects]
56,128,6350,2,0,B|96:96,8,40,0|0|0|0|0|0|0|4|0
56,256,7475,6,0,B|96:288,2,40,2|0|0
152,240,7850,2,0,B|192:240,2,40,2|0|0
152,136,8225,2,0,B|200:136,2,40,2|0|0
64,56,8600,2,0,B|392:56,1,320,4|4
424,320,10100,6,8,B|376:344|320:304,1,80,8|2
272,232,10475,2,0,B|320:208|376:248,1,80,0|0
424,64,10850,2,0,B|376:40|320:80,1,80,0|2
272,152,11225,2,0,B|320:176|376:136,1,80,0|0
448,192,11600,2,0,B|288:264|112:192,1,320
64,96,12537,5,2
64,192,12725,1,2
64,288,12912,1,2
160,296,13100,6,0,B|160:208,1,80,8|0
224,88,13475,2,0,B|224:176,1,80,2|0
288,296,13850,2,0,B|288:208,1,80,8|0
352,88,14225,2,2,B|352:176,1,80,2|0
448,336,14600,6,0,B|384:264,1,80,8|2
448,48,14975,2,0,B|384:120,1,80,0|2
376,232,15350,2,0,B|280:176,1,80,8|2
376,152,15725,2,0,B|280:208,1,80,0|2
256,192,16006,6,0,B|232:160,2,40,0|0|0
256,192,16662,6,0,B|232:224,2,40
256,192,17412,6,0,B|280:160,2,40
256,192,18162,6,0,B|280:224,2,40
88,96,18725,5,0
88,48,18818,1,0
48,72,18912,1,0
48,120,19006,1,0
80,144,19100,2,0,B|120:176|184:128,1,80,4|0
232,88,19475,2,0,B|192:56|128:104,1,80,2|0
232,152,19850,2,0,B|272:184|336:136,1,80,0|0
384,88,20225,2,0,B|344:56|280:104,1,80,10|0
384,296,20600,6,0,B|344:328|280:280,1,80,4|0
232,232,20975,2,0,B|272:200|336:248,1,80,10|0
232,296,21350,2,0,B|192:328|128:280,1,80,2|0
80,232,21725,2,0,B|120:200|184:248,1,80,10|0
256,120,22100,6,8,B|256:40,2,80,0|0|8
256,120,22662,1,0
256,224,22850,1,0
352,120,23037,2,8,B|384:160|336:224,1,80,0|8
160,120,23412,2,0,B|128:160|176:224,1,80,0|8
256,224,23787,5,0
360,64,23975,1,8
256,224,24162,1,0
152,64,24350,1,8
256,120,24537,1,0
352,120,24725,1,8
160,120,24912,1,8
40,288,25100,6,0,B|136:288,1,80,8|0
120,216,25475,2,0,B|208:216,1,80,8|0
200,144,25850,2,0,B|288:144,1,80,8|0
280,72,26225,2,0,B|360:72,1,80,8|0
472,288,26600,6,0,B|376:288,1,80,8|0
392,216,26975,2,0,B|304:216,1,80,8|0
312,144,27350,1,0
368,144,27443,1,0
344,96,27537,1,0
288,96,27631,1,0
256,144,27725,1,8
56,144,28100,6,0,B|80:104|80:104|112:88,1,80,8|0
56,240,28475,2,0,B|80:280|80:280|112:296,1,80,8|0
136,192,28850,1,0
240,192,29037,1,8
312,272,29225,2,8,B|384:312,1,80
248,240,29600,1,0
312,112,29787,2,0,B|384:72,1,80,8|0
248,144,30162,1,0
168,72,30350,6,8,B|128:40|72:88,1,80,10|8
16,144,30725,2,8,B|56:176|112:128,1,80,10|8
16,240,31100,2,0,B|56:208|112:256,1,80,0|0
168,312,31475,2,0,B|128:344|72:296,1,80,8|0
256,344,31850,1,0
256,32,32225,1,8
256,32,32412,1,8
192,192,32600,5,0
256,112,32787,1,0
320,192,32975,1,0
256,272,33162,1,0
256,192,33350,1,8
64,48,33725,6,0,B|32:88|80:152,1,80,0|0
61,123,34100,1,8
64,224,34287,1,0
48,240,34381,1,0
72,248,34475,1,0
56,264,34568,1,0
80,272,34662,1,0
64,288,34756,1,0
88,296,34850,1,2
448,48,35225,6,0,B|480:88|432:152,1,80,0|0
451,123,35600,1,8
448,224,35787,1,0
464,240,35881,1,0
440,248,35975,1,0
456,264,36068,1,0
432,272,36162,1,0
448,288,36256,1,0
424,296,36350,1,2
48,344,37100,5,8
168,192,37475,1,0
464,344,37850,1,8
344,192,38225,1,0
256,344,38600,1,8
160,344,38787,6,0,B|208:256,1,80,0|8
352,344,39162,2,8,B|304:256,1,80,8|2
168,120,39725,5,0
208,80,39818,1,0
256,72,39912,1,0
304,80,40006,1,0
344,120,40100,1,4
256,176,40287,6,0,B|256:256,1,80,8|0
328,336,40662,1,8
184,336,40850,1,0
88,312,41037,2,8,B|64:280|64:280|64:216,1,80,10|8
88,64,41412,2,0,B|64:96|64:96|64:160,1,80,10|0
168,120,41787,1,8
168,264,41975,1,0
256,192,42162,1,8
320,120,42350,6,8,B|376:64,1,80
320,264,42725,2,0,B|376:320,1,80,2|8
256,40,43287,2,0,B|256:128,1,80,8|0
176,192,43662,2,2,B|144:224|144:224|144:272,1,80,8|0
336,192,44037,2,10,B|368:224|368:224|368:272,1,80,10|8
368,258,44412,1,10
488,352,44600,2,0,B|488:264,3,80,8|0|0|0
488,272,45350,1,2
392,104,45725,6,0,B|320:64,1,80,4|0
456,136,46100,1,12
392,280,46287,1,0
352,304,46381,1,0
320,320,46475,1,8
456,248,46662,1,0
376,192,46850,5,8
280,192,47037,1,0
280,152,47131,1,0
280,112,47225,1,8
280,192,47412,2,0,B|280:280,1,80,4|12
200,328,47787,1,0
200,288,47881,1,0
200,248,47975,1,8
200,56,48162,6,0,B|200:136,1,80,0|8
112,88,48537,1,0
64,112,48631,1,0
24,136,48725,1,8
24,240,48912,1,0
112,296,49100,5,12
200,260,49287,1,0
216,296,49381,1,0
199,333,49475,1,8
200,128,49662,2,0,B|224:80|184:24,1,80,0|8
288,88,50037,5,0
316,116,50131,1,0
344,144,50225,1,8
288,296,50412,2,0,B|344:240,1,80,0|12
432,192,50787,5,0
384,192,50881,1,0
336,192,50975,1,0
240,192,51162,2,0,B|128:192,1,80,0|8
96,120,51537,1,0
32,192,51725,1,0
96,264,51912,1,0
160,192,52100,5,4
352,192,52850,1,0
96,192,53600,1,4
424,192,54162,1,4
168,56,54725,6,0,B|88:56,1,80,8|0
112,152,55100,1,12
208,192,55287,1,0
248,192,55381,1,0
288,192,55475,1,8
400,152,55662,1,4
360,56,55850,1,8
256,56,56037,5,0
256,96,56131,1,0
256,136,56225,1,8
312,224,56412,1,0
200,224,56600,1,8
256,312,56787,1,8
256,312,56881,1,8
256,312,56975,1,8
136,312,57162,1,0
376,312,57350,1,8
416,192,58100,5,0
168,192,58475,1,0
128,48,58850,1,0
128,336,59600,1,0
304,192,59975,1,0
128,48,60350,1,0
304,192,60725,1,6
152,272,65787,5,0
152,232,65881,1,0
184,240,65975,1,0
200,280,66068,1,0
184,312,66162,1,0
152,328,66256,1,0
120,312,66350,1,0
104,280,66443,1,0
104,248,66537,1,0
120,216,66631,1,0
152,192,66725,1,0
184,184,66818,1,0
216,192,66912,1,0
240,216,67006,1,0
248,248,67100,6,0,B|304:312,1,80,12|0
424,312,67475,2,0,B|368:248,1,80
248,136,67850,2,0,B|304:72,1,80,0|0
424,72,68225,2,0,B|368:136,1,80,8|0
256,192,68600,5,8
152,88,68787,1,0
152,296,68975,1,0
256,192,69162,1,8
96,48,69350,1,0
96,336,69537,1,0
208,128,69725,1,8
208,256,69912,1,8
312,344,70100,6,0,B|352:360|392:344,1,80,2|0
472,272,70475,2,0,B|432:256|376:280,1,80,10|0
312,200,70850,2,2,B|360:216|408:192,1,80,2|0
480,128,71225,2,2,B|440:112|392:136,1,80,10|0
312,32,71600,5,0
216,80,71787,1,0
160,192,71975,1,8
208,304,72162,1,0
312,352,72350,1,0
336,336,72443,1,0
360,352,72537,1,0
384,336,72631,1,0
408,352,72725,1,8
480,192,73100,5,8
400,128,73287,1,0
400,256,73475,1,8
320,192,73662,1,8
256,272,73850,2,8,B|256:320|192:328,1,80,10|0
208,224,74225,2,0,B|200:184|200:184|160:144,1,80,2|10
256,96,74600,5,0
304,224,74787,2,0,B|312:184|312:184|352:144,1,80,2|8
256,272,75162,2,0,B|256:320|320:328,1,80
256,176,75537,2,8,B|256:96,1,80,0|10
160,352,76287,6,0,B|160:304|160:304|200:264,1,80,8|0
352,352,76662,2,0,B|352:304|352:304|312:264,1,80,8|0
256,88,77225,1,8
256,88,77412,1,8
88,40,77600,5,2
88,192,77975,1,2
88,344,78350,1,2
464,192,78725,6,0,B|392:144,1,80
400,48,79100,1,8
304,48,79287,1,0
280,48,79381,1,0
256,48,79475,1,0
232,48,79568,1,0
208,48,79662,1,0
184,48,79756,1,0
160,48,79850,1,2
48,192,80225,6,0,B|120:240,1,80
112,336,80600,1,8
208,336,80787,1,0
232,336,80881,1,0
256,336,80975,1,0
280,336,81068,1,0
304,336,81162,1,0
328,336,81256,1,0
352,336,81350,1,2
256,192,82100,5,0
184,192,82850,1,0
112,192,83600,1,0
120,64,83787,5,0
64,144,83975,1,0
64,240,84162,1,0
120,312,84350,1,2
256,192,84725,5,0
304,192,84818,1,0
352,192,84912,1,0
400,192,85006,1,0
448,192,85100,1,4
376,272,85287,6,0,B|312:320,1,80,8|0
376,112,85662,2,0,B|312:64,1,80,8|8
208,64,86037,1,8
144,144,86225,1,0
144,240,86412,1,8
208,320,86600,6,0,B|248:312|248:312|288:272,1,80,0|8
344,160,86975,2,0,B|304:168|304:168|264:208,1,80,0|8
352,64,87350,2,0,B|432:64,2,80,8|0|2
40,152,88287,6,0,B|56:112|104:96,1,80,0|8
40,232,88662,2,0,B|56:272|104:288,1,80,0|8
200,288,89037,1,8
200,96,89225,1,8
256,192,89412,1,0
152,192,89600,5,10
360,192,89787,1,8
192,248,89975,1,2
320,136,90162,1,0
248,288,90350,1,6
40,192,90725,6,0,B|40:96,1,80,4|0
112,192,91100,1,8
184,192,91287,1,0
184,232,91381,1,0
184,272,91475,1,8
256,192,91662,2,0,B|336:192,1,80,0|8
312,112,92037,5,0
352,104,92131,1,0
389,112,92225,1,8
456,192,92412,1,0
456,192,92600,1,8
328,264,92787,1,0
296,272,92881,1,0
256,264,92975,1,8
128,112,93162,6,0,B|168:96|208:112,1,80,0|8
83,264,93537,1,0
123,272,93631,1,0
160,264,93725,1,8
256,104,93912,2,0,B|256:24,1,80,0|8
256,176,94287,5,0
256,216,94381,1,0
256,256,94475,1,12
344,192,94662,1,0
344,192,94850,1,8
488,144,95037,2,0,B|424:192,1,80,12|8
488,240,95412,2,0,B|424:192,1,80,4|8
419,92,95787,5,0
387,116,95881,1,0
352,136,95975,1,8
256,192,96162,2,0,B|168:192,1,80,0|8
352,240,96537,1,0
384,264,96631,1,0
419,285,96725,1,12
144,192,97100,5,4
488,192,97850,1,0
96,32,98600,1,4
96,344,99162,1,4
72,264,99725,6,0,B|112:264|112:264|144:240,1,80,8|0
72,120,100100,1,8
112,120,100193,1,0
144,144,100287,1,0
216,160,100475,6,0,B|328:160,1,80,8|0
216,232,100850,1,0
256,232,100943,1,0
296,232,101037,1,8
440,120,101225,6,2,B|400:120|400:120|368:144,1,80,8|8
368,144,101600,1,0
440,264,101787,1,8
400,264,101881,1,0
368,240,101975,1,0
256,144,102162,1,0
144,144,102350,1,0
256,344,102725,5,4
256,344,103100,1,4
44,72,121100,5,4
144,72,121475,1,0
40,168,121850,1,0
248,72,122225,1,0
40,264,122600,1,8
40,264,122975,1,8
468,312,123350,5,0
368,312,123725,1,0
468,216,124100,1,0
264,312,124475,1,0
468,112,124850,1,8
468,112,125225,1,8
224,40,125600,6,0,B|88:176,1,160
288,40,126350,2,0,B|424:176,1,160
472,152,127100,1,8
40,152,127475,1,8
296,288,127850,6,0,B|312:248|344:320|344:320|376:232|400:312,1,160,0|0
224,288,128600,2,0,B|208:248|176:320|176:320|144:232|120:312,1,160
40,336,129350,1,8
472,336,129725,1,8
256,336,130100,5,4
96,192,130475,1,0
256,48,130850,1,0
416,192,131225,1,0
256,192,131600,1,8
256,192,131975,1,8
416,48,132350,5,0
416,336,132725,1,0
96,336,133100,1,0
96,48,133475,1,0
256,192,133850,1,8
256,192,134225,1,8
80,304,134600,6,0,B|112:264|112:264|160:328|192:256|192:256|192:256,1,160
80,80,135350,2,0,B|112:120|112:120|160:56|192:128|192:128|192:128,1,160
32,352,136100,1,8
32,32,136475,1,8
432,304,136850,6,0,B|400:264|352:328|352:328|312:256|312:256|320:256,1,160
424,80,137600,2,0,B|392:120|344:56|344:56|304:128|304:128|312:128,1,160
480,352,138350,1,8
480,32,138725,1,8
200,120,139100,6,0,B|160:120|160:120|112:88|112:88|32:136,1,160
312,120,139850,2,0,B|352:120|352:120|400:88|400:88|480:136,1,160
56,120,140600,1,8
456,120,140975,1,8
256,32,141350,6,0,B|256:208,1,160
256,352,142100,2,0,B|256:192,1,160,0|4
264,184,142568,5,0
248,176,142662,1,0
264,168,142756,1,0
248,160,142850,1,0
264,152,142943,1,0
248,144,143037,1,0
264,136,143131,1,0
248,128,143225,1,0
264,120,143318,1,0
248,112,143412,1,0
264,104,143506,1,0
256,88,143600,6,0,B|168:88,1,80,4|0
96,160,143975,2,0,B|208:160,1,80,8|0
256,232,144350,2,0,B|176:232,1,80
336,304,144725,2,0,B|240:304,1,80,8|0
176,376,145100,6,0,B|272:376,1,80
448,344,145475,2,0,B|448:264,1,80,8|0
472,40,145850,1,2
368,40,146037,1,0
368,40,146131,1,0
368,40,146225,2,0,B|328:40|328:40|296:72,1,80,10|0
368,168,146600,6,0,B|328:168|328:168|296:136,1,80
232,64,146975,2,0,B|232:152,1,80,8|0
160,64,147350,2,0,B|160:152,1,80
24,32,147725,2,0,B|64:32|64:32|96:64,1,80,8|0
24,160,148100,2,0,B|64:160|64:160|96:128,1,80
144,248,148475,6,0,B|224:248,1,80,8|0
368,248,148850,2,0,B|280:248,1,80,0|0
272,288,149131,1,0
240,320,149225,1,8
200,320,149318,1,0
168,288,149412,1,0
256,104,149600,5,8
256,104,149787,2,0,B|256:208,1,80,0|8
256,32,150162,1,8
320,64,150350,2,0,B|392:96,1,80,10|0
192,64,150725,2,0,B|120:96,1,80,10|0
128,192,151100,6,0,B|208:192,1,80,0|8
384,192,151475,2,0,B|304:192,1,80,0|8
256,112,151850,2,0,B|256:192,1,80,0|8
256,192,152225,1,10
392,144,152600,5,8
392,144,152787,2,0,B|440:120|496:160,1,80,0|2
320,192,153162,1,8
320,96,153350,2,0,B|272:72|216:112,1,80,0|10
320,288,153725,2,8,B|272:312|216:272,1,80,8|10
392,256,154100,6,0,B|440:280|496:240,1,80,0|2
320,192,154475,1,0
224,192,154662,1,0
128,192,154850,1,0
256,336,155225,6,0,B|344:336,1,80
392,264,155600,1,8
392,160,155787,1,0
363,160,155881,1,0
376,133,155975,1,0
347,131,156068,1,0
360,105,156162,1,0
327,96,156256,1,0
350,74,156350,1,2
256,336,156725,6,0,B|168:336,1,80
120,264,157100,1,8
120,160,157287,1,0
149,160,157381,1,0
136,133,157475,1,0
165,131,157568,1,0
152,105,157662,1,0
185,96,157756,1,0
162,74,157850,1,2
256,32,158600,6,0,B|256:136,1,80,8|0
256,112,158975,2,0,B|256:200,1,80,0|0
256,192,159350,2,0,B|256:280,1,80,2|0
184,120,159725,2,0,B|120:192,1,80,2|0
328,120,160100,2,0,B|392:192,1,80,10|0
256,344,160475,1,0
256,192,160662,1,0
256,40,160850,1,8
424,232,161225,5,2
424,232,161318,1,0
424,232,161412,1,0
424,232,161506,1,0
424,232,161600,2,4,B|384:200|320:248,1,80,6|0
272,296,161975,2,0,B|312:328|376:280,1,80,2|0
272,232,162350,2,2,B|232:200|168:248,1,80,2|0
120,296,162725,2,0,B|160:328|224:280,1,80,2|0
120,88,163100,6,0,B|160:56|224:104,1,80,0|2
272,152,163475,2,0,B|232:184|168:136,1,80,2|2
272,88,163850,2,0,B|312:56|376:104,1,80,0|0
424,152,164225,2,0,B|384:184|320:136,1,80,2|0
256,264,164600,6,0,B|256:344,2,80
256,264,165162,1,10
256,160,165350,1,8
160,264,165537,2,0,B|128:224|176:160,1,80,8|8
352,264,165912,2,0,B|384:224|336:160,1,80,8|8
256,160,166287,5,0
152,320,166475,1,8
256,160,166662,1,0
360,320,166850,1,8
256,256,167037,1,0
152,192,167225,5,12
360,192,167412,1,12
472,96,167600,6,0,B|376:96,1,80,12|0
392,168,167975,1,8
352,168,168068,1,0
312,168,168162,1,0
312,240,168350,2,0,B|224:240,1,80,8|0
232,312,168725,1,8
192,312,168818,1,0
152,312,168912,1,0
40,96,169100,6,0,B|136:96,1,80,12|0
120,168,169475,1,8
160,168,169568,1,0
200,168,169662,1,0
200,240,169850,2,0,B|288:240,1,80,8|0
280,312,170225,1,8
320,312,170318,1,0
360,312,170412,1,0
216,40,170600,6,0,B|184:80|232:144,1,80,12|0
296,40,170975,1,8
308,76,171068,1,0
298,115,171162,1,0
128,136,171350,2,0,B|128:176|128:176|152:216,1,80,8|0
384,136,171725,1,8
384,176,171818,1,0
363,210,171912,1,0
456,232,172100,5,4
400,312,172287,1,0
304,336,172475,1,0
256,336,172568,1,0
208,336,172662,1,0
112,312,172850,1,0
56,232,173037,1,8
56,232,173225,1,8
160,72,173600,6,0,B|120:40|56:88,1,80,4|0
224,72,173975,1,0
352,72,174350,6,0,B|392:40|456:88,1,80,4|0
288,72,174725,1,0
256,160,174912,5,8
184,224,175100,1,0
328,224,175287,1,8
112,304,175475,1,8
400,304,175662,1,4
432,152,175850,6,0,B|432:72,1,80
80,160,176225,2,0,B|80:80,1,80,12|0
80,80,176600,5,2
168,120,176787,1,0
256,80,176975,1,8
300,100,177068,1,8
344,120,177162,1,8
432,80,177350,1,2
432,304,177537,5,0
344,264,177725,1,8
300,284,177818,1,8
256,304,177912,1,8
168,264,178100,1,2
80,304,178287,1,0
80,208,178475,5,0
80,168,178568,1,0
80,128,178662,1,0
176,128,178850,2,0,B|176:40,1,80,2|0
272,208,179225,1,2
272,168,179318,1,0
272,128,179412,1,0
368,128,179600,6,0,B|368:48,1,80,8|0
464,208,179975,1,0
464,168,180068,1,0
464,128,180162,1,0
464,128,180350,1,0
368,48,180537,1,8
272,128,180725,1,0
176,48,180912,1,8
80,128,181100,1,0
72,224,181287,6,0,B|112:256|176:208,1,80,0|0
256,288,181662,2,0,B|216:256|152:304,1,80,0|4
256,288,182037,2,0,B|296:256|360:304,1,80,0|4
440,224,182412,2,0,B|400:256|336:208,1,80,0|4
320,144,182787,5,8
256,72,182975,1,0
192,144,183162,1,8
96,144,183350,1,8
16,192,183537,1,8
96,240,183725,1,8
192,240,183912,1,0
256,312,184100,1,0
312,240,184287,1,8
408,240,184475,6,8,B|408:328,1,80,8|8
408,144,184850,2,0,B|408:56,1,80,8|8
352,192,185225,1,8
312,192,185318,1,0
272,192,185412,1,0
208,120,185600,5,4
208,264,185787,1,0
144,48,185975,1,8
144,336,186162,1,8
40,192,186350,1,0
136,192,186537,1,0
232,192,186725,1,8
328,192,186912,1,8
400,128,187100,6,0,B|344:56,1,80,4|0
400,256,187475,1,8
376,288,187568,1,0
350,319,187662,1,0
304,136,187850,2,0,B|208:136,1,80,0|0
304,248,188225,1,8
264,248,188318,1,0
224,248,188412,1,0
144,192,188600,5,4
144,192,189350,1,4
144,192,190100,5,4
224,136,190287,2,0,B|280:72,1,80,12|8
224,248,190662,2,0,B|280:312,1,80,12|0
276,308,191037,1,2
276,308,191225,1,6
120,192,191412,5,0
120,192,191506,1,0
120,192,191600,2,0,B|160:192|160:192|160:152,1,80,4|0
200,48,191975,1,0
160,48,192068,1,0
160,88,192162,1,0
392,192,192350,2,0,B|352:192|352:192|352:152,1,80
312,48,192725,1,0
352,48,192818,1,0
352,88,192912,1,0
256,112,193100,5,0
112,296,193287,1,8
400,296,193475,1,8
256,40,193662,1,0
256,200,193850,2,0,B|256:288,1,80,6|0
256,280,194225,1,6
72,192,194412,6,0,B|32:192,2,40
80,96,194787,2,0,B|152:40,1,80,8|0
32,136,195162,1,0
80,288,195350,2,0,B|152:344,1,80,8|0
32,248,195725,1,0
128,240,195912,6,0,B|200:184,1,80,0|8
128,144,196287,2,0,B|200:200,1,80,0|8
256,120,196662,2,8,B|304:120|304:120|336:144,1,80
256,264,197037,2,8,B|304:264|304:264|336:240,1,80,8|0
368,80,197412,5,0
368,304,197589,1,0
400,152,197779,1,0
400,232,197969,1,0
464,192,198159,1,0
464,192,198348,1,8
360,192,198538,5,0
296,272,198728,1,0
296,112,198918,1,0
224,192,199107,1,8
72,336,199488,1,0
176,336,199678,1,0
128,240,199868,1,2
64,80,200412,5,0
192,80,200600,2,0,B|352:80,1,160
416,280,201350,1,0
304,320,201543,1,0
184,320,201737,1,0
72,280,201931,1,0
360,112,202731,2,0,B|400:112|440:112,2,80
152,112,203678,2,0,B|56:112,2,80
256,192,205094,12,0,210494
256,192,210644,12,0,213794
