osu file format v9

[General]
AudioFilename: 01.mp3
AudioLeadIn: 0
PreviewTime: 43801
Countdown: 0
SampleSet: Soft
StackLeniency: 0.7
Mode: 0
LetterboxInBreaks: 1

[Editor]
Bookmarks: 7801,19988,20551,23363,32363,65738,68738,121051,125551,130051,143551,151426,167926,203926
DistanceSpacing: 0
BeatDivisor: 4
GridSize: 8

[Metadata]
Title:Kozakai San Chi wa Bobu no Ie
Artist:Chata
Creator:BinJip
Version:Hard
Source:Sinya no Kaidan
Tags:Mapper 31

[Difficulty]
HPDrainRate:4
CircleSize:4
OverallDifficulty:5
ApproachRate:7
SliderMultiplier:1.6
SliderTickRate:1

[Events]
//Background and Video events
0,0,"BG.jpg"
//Break Periods
2,61042,64887
2,103300,120200
//Storyboard Layer 0 (Background)
//Storyboard Layer 1 (Fail)
//Storyboard Layer 2 (Pass)
//Storyboard Layer 3 (Foreground)
//Storyboard Sound Samples
//Background Colour Transformations
3,100,163,162,255

[TimingPoints]
1100,375,4,1,1,50,1,0
6350,-100,4,1,1,10,0,0
6537,-100,4,1,1,20,0,0
6725,-100,4,1,1,30,0,0
6912,-100,4,1,1,40,0,0
7100,-100,4,1,1,50,0,0
7475,-100,4,1,1,30,0,0
12537,-100,4,2,1,30,0,0
13100,-100,4,1,1,30,0,0
16006,-100,4,2,1,30,0,0
18725,-100,4,1,1,40,0,0
23787,-100,4,1,2,40,0,0
25100,-100,4,1,1,40,0,0
28100,-100,4,1,1,30,0,0
32225,-100,4,1,2,30,0,0
32600,-100,4,2,1,40,0,0
38787,-100,4,2,1,30,0,0
40287,-100,4,1,1,30,0,0
45725,-100,4,1,2,40,0,0
46100,-100,4,2,2,60,0,1
58850,-100,4,1,1,40,0,0
65787,-100,4,2,1,20,0,0
65975,-100,4,2,1,25,0,0
66162,-100,4,2,1,30,0,0
66350,-100,4,2,1,35,0,0
66537,-100,4,2,1,40,0,0
66725,-100,4,2,1,40,0,0
66912,-100,4,2,1,40,0,0
67100,-100,4,1,1,30,0,0
68600,-100,4,1,2,30,0,0
70100,-100,4,1,1,40,0,0
73100,-100,4,1,1,30,0,0
77225,-100,4,2,1,30,0,0
77600,-100,4,1,1,40,0,0
78725,-100,4,2,1,40,0,0
82100,-100,4,1,1,40,0,0
85287,-100,4,1,1,40,0,0
90725,-100,4,1,1,60,0,0
91100,-100,4,2,2,60,0,1
103100,-100,4,1,1,60,0,0
121100,-200,4,2,2,30,0,0
142475,-100,4,2,2,30,0,0
142568,-200,4,1,0,35,0,0
142756,-200,4,1,0,40,0,0
142943,-100,4,1,0,40,0,0
143600,-100,4,1,1,40,0,0
149600,-100,4,1,1,30,0,0
149787,-100,4,1,1,30,0,0
155225,-100,4,2,1,40,0,0
158600,-100,4,1,1,40,0,0
166287,-100,4,1,2,50,0,0
167225,-100,4,1,2,60,0,0
167600,-100,4,2,2,60,0,1
178475,-100,4,1,1,40,0,1
181850,-100,4,1,2,60,0,1
194787,-100,4,1,1,40,0,1
194975,-100,4,1,1,40,0,0
195162,-100,4,1,1,35,0,0
197412,-100,4,2,0,45,0,0
197787,-100,4,2,0,35,0,0
197975,-100,4,2,0,30,0,0
198162,-100,4,1,1,25,0,0
198350,-100,4,1,1,20,0,0
198537,-100,4,1,1,15,0,0
198725,-100,4,1,1,20,0,0
200412,-100,4,2,0,20,0,0
202100,631.578947368421,4,2,0,20,1,0
203678,666.666666666667,4,2,0,20,1,0
205094,600,4,1,0,20,1,0
205106,-100,4,1,0,20,0,0
205706,-100,4,1,0,35,0,0
206406,-100,4,1,0,40,0,0
206906,-100,4,1,0,45,0,0
207506,-100,4,1,0,50,0,0
208206,-100,4,1,0,55,0,0
210494,-100,4,1,0,5,0,0
210706,-100,4,1,0,30,0,0
211506,-100,4,1,0,35,0,0
211706,-100,4,1,0,40,0,0
211906,-100,4,1,0,45,0,0
212106,-100,4,1,0,50,0,0
212306,-100,4,1,0,55,0,0
212506,-100,4,1,0,60,0,0
212706,-100,4,1,0,65,0,0
212906,-100,4,1,0,70,0,0
213006,-100,4,1,0,75,0,0
213206,-100,4,1,0,80,0,0
213406,-100,4,1,0,85,0,0
213606,-100,4,1,0,5,0,0

[Colours]
Combo1 : 128,255,128
Combo2 : 255,255,128
Combo3 : 170,170,255
Combo4 : 255,128,255

[HitObjects]
432,192,6350,2,0,B|384:192,8,40,0|0|0|0|0|0|0|4|0
280,152,7475,2,0,B|232:128,2,40
280,232,7850,2,0,B|232:256,2,40
208,192,8225,2,0,B|160:192,2,40
208,192,8600,1,0
208,192,9350,1,4
32,88,10100,6,0,B|80:56|128:112,1,80,8|0
160,32,10475,2,0,B|208:0|256:56,1,80
288,88,10850,2,0,B|336:56|384:112,1,80
416,32,11225,2,0,B|464:0|512:56,1,80
480,128,11600,6,2,B|496:144|448:160|448:160|392:104|384:184|384:184|392:280|448:208|448:208|504:232|480:256,1,320
496,352,12537,6,0,B|448:384|400:328,1,80
360,296,12912,2,0,B|312:328|264:272,1,80,0|8
232,352,13287,2,0,B|184:384|136:328,1,80,0|0
104,296,13662,2,0,B|56:328|8:272,1,80,0|8
32,192,14037,6,0,B|88:136,1,80
32,192,14412,2,0,B|88:248,1,80,0|8
160,160,14787,2,0,B|216:104,1,80,0|8
160,224,15162,2,0,B|216:280,1,80,0|8
288,136,15537,2,0,B|344:80,1,80
288,248,15912,2,0,B|344:304,1,80
168,104,16662,6,0,B|128:104,2,40
352,296,17412,6,0,B|392:296,2,40
432,40,18162,6,0,B|432:80,2,40
256,64,18725,5,0
256,88,18818,1,0
256,112,18912,1,0
256,136,19006,1,0
256,160,19100,6,0,B|256:240,1,80,4|0
336,224,19475,2,0,B|376:152,1,80
176,224,19850,2,0,B|136:152,1,80
176,224,20225,2,0,B|224:304,1,80,8|0
336,224,20600,2,0,B|296:296,1,80
368,312,20975,5,8
296,344,21162,1,0
216,344,21350,1,0
144,312,21537,1,0
208,272,21725,1,8
288,272,21912,1,0
360,240,22100,6,0,B|384:200|360:160,1,80
360,80,22475,2,0,B|320:56|280:80,1,80,8|0
200,80,22850,2,0,B|160:56|120:80,1,80,8|0
120,160,23225,2,0,B|96:200|120:240,1,80,0|0
128,312,23600,5,0
192,272,23787,1,0
272,272,23975,1,8
352,272,24162,1,8
416,224,24350,2,0,B|472:152,1,80
456,80,24725,2,0,B|368:24,1,80,8|0
336,104,25100,6,0,B|248:104,2,80
296,176,25662,2,0,B|192:176,2,80
264,248,26225,2,0,B|176:248,2,80
224,328,26787,1,0
224,328,26975,1,8
312,328,27162,6,0,B|400:328,1,80
408,328,27443,1,0
424,328,27537,1,0
440,328,27631,1,0
456,328,27725,1,8
352,192,28100,5,8
40,32,28850,1,0
256,320,29600,1,8
472,32,30350,1,0
160,192,31100,1,8
512,192,31850,1,0
96,128,32600,6,0,B|144:96|192:152,1,80
136,200,32975,2,0,B|184:232|232:176,1,80,0|0
256,264,33350,1,0
368,160,33725,6,0,B|312:104,2,80,8|0|4
448,160,34287,2,0,B|472:128,6,40
368,224,35225,6,0,B|312:280,2,80,8|0|4
448,224,35787,2,0,B|472:256,6,40
88,192,37100,6,0,B|168:192,1,80
256,192,37475,1,0
424,192,37850,2,0,B|336:192,1,80
256,192,38225,1,0
256,344,38600,2,0,B|256:264,1,80,8|0
256,192,38975,2,0,B|256:104,1,80
256,32,39350,1,8
400,192,39725,6,0,B|352:192,4,40
288,192,40850,1,4
216,192,41600,1,0
144,192,42350,1,4
72,192,43100,1,0
72,192,43850,1,4
160,192,44600,2,0,B|248:192,4,80,8|0|0|0|0
336,64,45725,6,0,B|408:112,2,80,12|0|4
256,64,46287,1,0
176,64,46475,2,0,B|120:128,1,80,8|0
144,200,46850,2,0,B|192:232|240:176,1,80,0|0
296,200,47225,2,0,B|344:168|392:224,1,80,8|0
400,104,47600,6,0,B|432:56|376:8,1,80,4|0
320,32,47975,2,0,B|288:80|344:128,1,80,4|0
328,176,48350,2,0,B|296:224|352:272,1,80,0|0
408,264,48725,2,0,B|440:312|384:360,1,80,8|0
328,336,49100,5,4
248,336,49287,1,0
168,336,49475,1,8
88,336,49662,1,0
136,272,49850,6,0,B|96:240|152:168,1,80
168,128,50225,2,0,B|136:88|64:144,2,80,8|0|0
248,128,50787,2,0,B|280:88|352:144,1,80,0|8
296,200,51162,2,0,B|336:232|280:304,2,80
376,216,51725,2,0,B|376:112,1,80,8|0
456,96,52100,5,4
104,96,52850,1,4
344,328,53600,2,0,B|288:256,1,80,4|0
168,328,53975,2,0,B|224:256,1,80,0|4
384,192,54725,5,8
312,152,54912,2,0,B|240:104,2,80,0|4|0
312,232,55475,2,0,B|240:280,2,80,0|0|4
240,192,56037,2,0,B|160:192,1,80,0|8
160,192,56412,1,0
168,112,56600,6,0,B|216:80|264:136,1,80,0|0
232,264,56975,2,0,B|184:296|136:240,1,80,8|0
157,260,57350,1,0
120,192,57537,2,0,B|32:192,2,80,0|8|0
200,192,58100,5,0
272,192,58850,1,0
344,192,59600,1,0
200,192,59975,6,0,B|96:192,2,80,8|0|0
200,192,60725,1,12
40,144,65787,6,0,B|80:120,14,40,0|0|0|0|0|0|0|0|0|0|0|0|0|4|0
40,240,67287,2,0,B|96:320,1,80
168,304,67662,2,0,B|224:240,1,80
304,248,68037,2,0,B|360:320,1,80,0|8
432,312,68412,2,0,B|480:240,1,80,0|8
472,144,68787,6,0,B|416:64,1,80,0|0
344,80,69162,2,0,B|288:144,1,80,8|0
208,136,69537,2,0,B|152:64,1,80,0|8
80,72,69912,2,0,B|32:144,1,80
96,192,70287,5,0
120,272,70475,2,0,B|168:240|216:296,1,80,8|0
192,192,70850,2,0,B|240:160|288:216,2,80,0|0|8
176,112,71412,2,0,B|128:144|80:88,2,80
256,112,71975,1,8
336,112,72162,2,0,B|384:144|432:88,2,80
336,112,72725,1,8
256,336,73100,5,8
256,264,73850,1,0
256,192,74600,1,8
256,120,75350,1,0
256,48,76100,1,8
256,48,76850,1,0
192,96,77600,6,0,B|192:176,1,80
320,96,77975,2,0,B|320:176,1,80
256,224,78350,1,0
136,232,78725,6,0,B|48:232,2,80,8|0|0
208,232,79287,2,0,B|208:280,6,40
376,232,80225,6,0,B|464:232,2,80,8|0|0
304,232,80787,2,0,B|304:280,6,40
256,40,82100,5,0
256,112,82850,1,0
256,184,83600,2,0,B|256:288,4,80,0|0|8|0|0
208,320,84725,5,8
232,336,84818,1,0
256,344,84912,1,0
280,336,85006,1,0
304,320,85100,1,4
256,264,85850,5,8
408,192,86600,1,0
256,120,87350,1,8
112,192,88100,1,0
408,192,88850,1,8
256,280,89600,6,0,B|256:376,4,80,0|0|8|0|0
200,48,90725,6,0,B|144:40|128:104|128:104|56:72,2,160,12|4|0
312,48,91850,2,0,B|368:40|384:104|384:104|456:72,2,160,0|0|4
120,176,92975,2,0,B|168:200|208:176|208:176|256:288|296:176|296:176|344:200|408:176,1,320,0|4
456,328,94100,1,4
328,320,94475,6,0,B|256:256|256:440|256:256|184:320,2,160,0|0|4
160,232,95600,1,4
312,176,95975,2,0,B|256:56|256:208|200:48,2,160,0|0|0
144,32,97100,5,4
48,336,97850,1,0
296,136,98600,1,4
456,312,99162,1,4
216,352,99725,6,0,B|320:352,2,80,12|0|0
256,280,100287,2,0,B|200:184,2,80,0|8|0
304,216,100850,2,0,B|360:152,2,80,0|0|8
264,144,101412,2,0,B|216:80,2,80
304,72,101975,2,0,B|392:72,2,80,8|0|0
144,72,102725,1,12
64,216,103100,1,4
72,96,121100,6,0,B|108:72|148:96,3,80,4|0|0|0
144,96,122600,1,8
144,96,122975,1,8
72,288,123350,6,0,B|108:312|148:288,3,80,4|0|0|0
144,288,124850,1,8
144,288,125225,1,8
440,288,125600,6,0,B|404:312|364:288,3,80,4|0|0|0
368,288,127100,1,8
368,288,127475,1,8
440,96,127850,6,0,B|404:72|364:96,3,80,4|0|0|0
368,96,129350,1,8
368,96,129725,1,8
80,344,130100,6,0,B|144:272,1,80,4|0
188,344,130850,2,0,B|124:272,1,80
136,200,131600,1,8
136,112,131975,1,8
432,40,132350,6,0,B|368:112,1,80
324,40,133100,2,0,B|388:112,1,80
376,184,133850,1,8
376,272,134225,1,8
40,56,134600,6,0,B|128:56,1,80
200,56,135350,2,0,B|112:56,1,80
120,136,136100,1,8
120,216,136475,1,8
328,328,136850,6,0,B|416:328,1,80
488,328,137600,2,0,B|400:328,1,80
408,248,138350,1,8
408,168,138725,1,8
256,48,139100,5,0
212,124,139475,1,0
300,124,139850,1,0
256,200,140225,1,0
344,200,140600,1,8
424,232,140975,1,8
456,152,141350,6,0,B|384:112,2,80
296,184,142475,2,0,B|296:136,11,40
248,168,143600,6,0,B|152:168,2,80,8|0|0
224,240,144162,2,0,B|168:296,2,80,0|8|0
248,312,144725,2,0,B|328:312,2,80,0|0|8
288,240,145287,2,0,B|336:176,2,80,0|0|0
208,240,145850,6,0,B|112:240,2,80,8|0|0
208,160,146412,2,0,B|128:160,2,80,0|8|0
216,80,146975,2,0,B|320:80,1,80,8|0
304,160,147350,2,0,B|344:144|400:168,2,80,8|0|0
304,240,147912,6,0,B|344:264|400:232,2,80,0|8|0
232,272,148475,2,0,B|200:224|256:176,2,80,0|0|0
232,272,148943,1,0
232,272,149037,1,0
232,272,149131,1,0
232,272,149224,1,0
232,272,149318,1,0
312,352,149600,5,8
360,304,150350,1,0
400,248,151100,1,8
440,192,151850,1,0
400,136,152600,1,8
352,88,153350,1,0
304,32,154100,2,0,B|216:32,4,80,8|0|0|0|8
192,144,155225,6,0,B|192:248,2,80,0|0|8
144,80,155787,2,0,B|112:48,6,40
320,144,156725,6,0,B|320:248,2,80,0|0|8
368,80,157287,2,0,B|400:48,6,40
72,192,158600,5,0
144,192,159350,1,0
216,192,160100,2,0,B|312:192,4,80,0|0|8|0|0
368,240,161224,5,0
384,216,161318,1,0
392,192,161411,1,0
384,168,161505,1,0
368,144,161599,1,4
464,192,162350,5,0
392,192,163100,1,0
320,192,163850,1,0
248,192,164600,1,0
176,192,165350,1,0
96,152,166100,2,0,B|96:256,4,80,0|0|8|0|0
336,96,167226,6,0,B|384:64|432:120,2,80,12|0|4
256,96,167788,1,0
176,96,167976,2,0,B|128:64|80:120,2,80,8|0|0
256,96,168538,1,0
216,168,168726,2,0,B|184:272,2,80,12|4|0
288,168,169288,2,0,B|320:272,2,80,0|8|0
368,192,169851,2,0,B|400:280,2,80,0|0|12
104,272,170601,6,0,B|136:184,3,80,4|4|4|0
104,120,171351,2,0,B|192:120,1,80
240,176,171726,2,0,B|328:176,1,80,12|4
376,120,172101,6,0,B|456:120,4,80,4|0|8|0|0
376,120,173038,1,0
376,120,173226,1,8
256,192,173601,5,4
256,192,174351,1,0
256,192,175101,1,4
256,192,175663,2,0,B|352:192,3,80,4|0|0|8
488,152,176601,6,0,B|432:96,2,80,4|0|8
488,232,177163,2,0,B|432:288,2,80
384,232,177726,2,0,B|304:232,2,80,8|0|0
384,152,178288,2,0,B|304:152,2,80,0|8|0
376,72,178851,5,0
296,72,179038,1,0
216,72,179226,1,8
136,72,179413,1,0
176,144,179601,5,0
256,144,179788,1,0
336,144,179976,1,8
296,216,180163,1,0
216,216,180351,1,0
256,288,180538,1,0
344,288,180726,6,0,B|384:208,2,80,8|0|0
168,288,181288,2,0,B|128:208,2,80,0|8|0
216,224,181851,6,0,B|216:136,1,80,4|0
296,224,182226,2,0,B|296:136,1,80,12|0
360,104,182601,6,0,B|456:104,1,80,4|0
440,184,182976,2,0,B|360:184,2,80,8|0|0
440,264,183538,2,0,B|352:264,1,80,0|8
368,344,183913,2,0,B|456:344,2,80
288,344,184476,6,0,B|192:280,1,80,8|0
224,216,184851,2,0,B|224:136,1,80
232,56,185226,2,0,B|304:104,1,80,8|0
304,184,185601,2,0,B|304:264,3,80,4|0|8|0
256,336,186351,5,0
176,304,186538,1,0
128,240,186726,1,8
176,176,186913,1,0
128,112,187101,5,4
208,96,187288,1,0
288,112,187476,1,8
368,96,187663,2,0,B|432:152,1,80
384,240,188038,2,0,B|464:240,2,80,0|8|0
256,304,188601,6,0,B|256:216,2,80,4|0|0
256,144,189351,2,0,B|256:56,1,80,4|0
256,224,189913,1,0
184,184,190100,2,0,B|184:272,2,80,4|0|8
328,184,190663,2,0,B|328:272,2,80,4|0|0
328,184,191226,1,12
192,64,191601,5,4
128,112,191788,1,0
64,64,191976,1,8
64,144,192163,1,0
128,192,192351,1,0
192,144,192538,1,0
192,224,192726,5,8
128,272,192913,1,0
56,224,193101,1,0
56,304,193288,1,0
128,344,193476,1,8
200,304,193663,1,0
280,304,193851,6,0,B|280:216,1,80,4|0
360,224,194226,2,0,B|360:312,1,80,12|0
488,360,194601,6,0,B|448:344|448:344|400:368,1,80
328,360,194976,2,0,B|280:376|240:360,1,80,8|0
168,360,195351,2,0,B|128:344|128:344|80:368,1,80
88,280,195726,6,0,B|128:264|128:264|176:288,1,80
240,280,196101,2,0,B|280:304|328:280,1,80,8|0
400,288,196476,2,0,B|440:272|440:272|488:296,2,80
432,208,197038,6,0,B|472:128,2,80,0|8|0
352,208,197600,1,0
272,208,197787,2,0,B|232:136,2,80
192,208,198350,1,0
112,208,198537,2,0,B|152:136,2,80,0|8|0
112,208,199100,2,0,B|110:125,1,80
112,208,199475,2,0,B|69:137,1,80
112,208,199850,2,0,B|40:168,1,80
280,224,200462,5,0
320,144,200640,2,0,B|424:144,1,80
400,144,201004,1,0
320,272,201345,6,0,B|424:272,1,80
344,352,201732,1,0
424,352,201925,1,0
158,110,202719,6,0,B|96:160,2,80
337,97,203678,2,0,B|416:160,2,100
256,192,205099,12,0,210494
256,192,210644,12,0,213794
