osu file format v14

[General]
AudioFilename: Chata - kokkei to i u na kare.mp3
AudioLeadIn: 0
PreviewTime: 52187
Countdown: 0
SampleSet: Soft
StackLeniency: 0.7
Mode: 0
LetterboxInBreaks: 0
WidescreenStoryboard: 0

[Editor]
Bookmarks: 56163
DistanceSpacing: 1
BeatDivisor: 4
GridSize: 4
TimelineZoom: 1.7

[Metadata]
Title:Kokkei to Iu Nakare
TitleUnicode:滑稽というなかれ
Artist:Chata
ArtistUnicode:茶太
Creator:4anke
Version:Easy
Source:
Tags:落日 Rakujitsu ウサギキノコ Usagikinoko bassy Regraz
BeatmapID:685008
BeatmapSetID:165224

[Difficulty]
HPDrainRate:2
CircleSize:2
OverallDifficulty:2
ApproachRate:3
SliderMultiplier:0.8
SliderTickRate:1

[Events]
//Background and Video events
0,0,"Fycho.jpg",0,0
//Break Periods
2,98652,108578
//Storyboard Layer 0 (Background)
//Storyboard Layer 1 (Fail)
//Storyboard Layer 2 (Pass)
//Storyboard Layer 3 (Foreground)
//Storyboard Sound Samples

[TimingPoints]
139,361.44578313253,4,2,1,50,1,0
11705,-100,4,2,1,40,0,0
11795,-100,4,2,1,50,0,0
40620,-100,4,2,1,40,0,0
40711,-100,4,2,1,50,0,0
40892,-100,4,2,3,50,0,0
41072,-100,4,2,1,50,0,0
41614,-100,4,2,3,50,0,0
41795,-100,4,2,1,50,0,0
43783,-100,4,2,3,50,0,0
43964,-100,4,2,1,50,0,0
45229,-100,4,2,3,50,0,0
45410,-100,4,2,1,50,0,0
46675,-100,4,2,3,50,0,0
46855,-100,4,2,1,50,0,0
49566,-100,4,2,3,50,0,0
49747,-100,4,2,1,50,0,0
52187,-100,4,2,1,60,0,1
62578,-100,4,2,3,60,0,1
62759,-100,4,2,1,60,0,1
64024,-100,4,2,3,60,0,1
64205,-100,4,2,1,60,0,1
65470,-100,4,2,3,60,0,1
65651,-100,4,2,1,60,0,1
66916,-100,4,2,3,60,0,1
67096,-100,4,2,1,60,0,1
68361,-100,4,2,3,60,0,1
68542,-100,4,2,1,60,0,1
69807,-100,4,2,3,60,0,1
69988,-100,4,2,1,60,0,1
75138,-100,4,2,1,60,0,0
85711,-100,4,2,3,60,0,0
85892,-100,4,2,1,60,0,0
87247,-100,4,2,1,50,0,0
110018,-100,4,2,1,40,0,0
110108,-100,4,2,1,50,0,0
110289,-100,4,2,3,50,0,0
110470,-100,4,2,1,50,0,0
111735,-100,4,2,3,50,0,0
111916,-100,4,2,1,50,0,0
113181,-100,4,2,3,50,0,0
113361,-100,4,2,1,50,0,0
114626,-100,4,2,3,50,0,0
114807,-100,4,2,1,50,0,0
116072,-100,4,2,3,50,0,0
116253,-100,4,2,1,50,0,0
117518,-100,4,2,3,50,0,0
117699,-100,4,2,1,50,0,0
120410,-100,4,2,3,50,0,0
120590,-100,4,2,1,50,0,0
121855,-100,4,2,3,50,0,0
122036,-100,4,2,1,50,0,0
123301,-100,4,2,3,50,0,0
123482,-100,4,2,1,50,0,0
124747,-100,4,2,3,50,0,0
124928,-100,4,2,1,50,0,0
127638,-100,4,2,3,50,0,0
127819,-100,4,2,1,50,0,0
129084,-100,4,2,3,50,0,0
129265,-100,4,2,1,50,0,0
133151,-100,4,2,1,60,0,1
139205,-100,4,2,3,60,0,1
139385,-100,4,2,1,60,0,1
140651,-100,4,2,3,60,0,1
140831,-100,4,2,1,60,0,1
142096,-100,4,2,3,60,0,1
142277,-100,4,2,1,60,0,1
144536,-100,4,2,1,50,0,0
144988,-100,4,2,3,50,0,0
145169,-100,4,2,1,50,0,0
145711,-100,4,2,3,50,0,0
145892,-100,4,2,1,50,0,0
147879,-100,4,2,3,50,0,0
148060,-100,4,2,1,50,0,0
150771,-100,4,2,3,50,0,0
150952,-100,4,2,1,50,0,0
153663,-100,4,2,3,50,0,0
153843,-100,4,2,1,50,0,0
154837,-100,4,2,1,40,0,0
154928,-100,4,2,1,50,0,0
156283,-100,4,2,1,50,0,1
156373,-100,4,2,1,60,0,1
175349,-100,4,2,3,60,0,1
175530,-100,4,2,1,60,0,1
179687,-100,4,2,3,60,0,1
179867,-100,4,2,1,60,0,1
181132,-100,4,2,3,60,0,1
181313,-100,4,2,1,60,0,1
182578,-100,4,2,3,60,0,1
182759,-100,4,2,1,60,0,1
184024,-100,4,2,3,60,0,1
184205,-100,4,2,1,60,0,1
185470,-100,4,2,3,60,0,1
185651,-100,4,2,1,60,0,1
190982,-100,4,2,1,50,0,0

[Colours]
Combo1 : 68,184,240
Combo2 : 68,240,98
Combo3 : 255,255,0
Combo4 : 255,55,155
Combo5 : 255,0,0

[HitObjects]
95,105,11705,6,0,L|170:58,2,80,4|8|0,0:0|0:0|0:0,0:0:0:0:
48,170,12789,1,8,0:0:0:0:
63,248,13151,2,0,P|78:288|108:316,1,80,2|8,0:0|0:0,0:0:0:0:
183,323,13873,2,0,P|221:312|265:323,1,80,2|8,0:0|0:0,0:0:0:0:
328,279,14596,5,2,0:0:0:0:
407,266,14958,2,0,P|430:297|435:343,2,80,8|0|8,0:0|0:0|0:0,0:0:0:0:
407,185,16042,2,0,P|385:151|387:106,1,80,2|8,0:0|0:0,0:0:0:0:
333,50,16765,2,0,L|248:51,1,80,2|8,0:0|0:0,0:0:0:0:
93,66,17849,6,0,P|53:138|63:218,1,160,8|8,0:0|0:0,0:0:0:0:
56,292,18934,2,0,L|133:311,1,80,2|8,0:0|0:0,0:0:0:0:
213,312,19657,2,0,L|290:292,1,80,2|8,0:0|0:0,0:0:0:0:
370,285,20379,6,0,P|405:302|423:344,2,80,2|8|0,0:0|0:0|0:0,0:0:0:0:
326,130,21825,2,0,P|365:121|403:131,2,80,2|8|0,0:0|0:0|0:0,0:0:0:0:
186,210,23271,5,4,0:0:0:0:
186,50,23994,1,0,0:0:0:0:
47,130,24717,2,0,P|39:170|47:211,1,80,2|8,0:0|0:0,0:0:0:0:
116,246,25440,2,0,P|124:286|116:327,1,80,0|8,0:0|0:0,0:0:0:0:
46,286,26163,5,2,0:0:0:0:
184,205,26885,1,0,0:0:0:0:
278,334,27608,2,0,P|314:347|350:333,1,80,2|8,0:0|0:0,0:0:0:0:
381,259,28331,1,8,0:0:0:0:
381,178,28693,1,8,0:0:0:0:
411,104,29054,6,0,P|447:89|483:103,2,80,4|8|0,0:0|0:0|0:0,0:0:0:0:
353,48,30138,1,8,0:0:0:0:
278,78,30500,2,0,L|193:78,1,80,2|8,0:0|0:0,0:0:0:0:
140,133,31223,2,0,L|55:133,1,80,2|8,0:0|0:0,0:0:0:0:
162,255,32307,6,0,P|228:294|293:253,1,160,8|8,0:0|0:0,0:0:0:0:
348,196,33392,2,0,L|377:280,1,80,2|8,0:0|0:0,0:0:0:0:
439,317,34114,2,0,L|470:235,1,80,2|8,0:0|0:0,0:0:0:0:
453,82,35199,6,0,P|374:68|299:102,1,160,8|8,0:0|0:0,0:0:0:0:
302,178,36283,2,0,P|342:215|350:263,2,80,2|8|2,0:0|0:0|0:0,0:0:0:0:
233,137,37367,1,8,0:0:0:0:
154,123,37729,6,0,L|79:64,2,80,2|8|0,0:0|0:0|0:0,0:0:0:0:
182,197,38813,1,8,0:0:0:0:
154,272,39175,2,0,L|79:331,2,80,2|8|8,0:0|0:0|0:0,0:0:0:0:
314,272,40620,6,0,B|374:272|374:272|475:313,2,160,4|0|2,0:0|0:0|0:0,0:0:0:0:
248,225,42428,2,0,L|167:225,2,80,8|0|8,0:0|0:0|0:0,0:0:0:0:
318,186,43512,6,0,B|399:186|399:186|448:111|394:31,1,240,2|8,0:0|0:0,0:0:0:0:
318,25,44958,2,0,B|260:46|233:102|233:102|203:46|140:25,1,240,2|8,0:0|0:0,0:0:0:0:
67,57,46404,6,0,B|46:142|46:142|101:309,1,240,4|8,0:0|0:0,0:0:0:0:
172,274,47849,2,0,B|211:260|211:260|251:274,1,80,2|8,0:0|0:0,0:0:0:0:
322,301,48572,2,0,B|358:313|358:313|397:299,1,80,2|8,0:0|0:0,0:0:0:0:
457,246,49295,6,0,L|492:89,1,160,2|0,0:0|0:0,0:0:0:0:
332,76,50741,2,0,L|251:49,2,80,8|8|8,0:0|0:0|0:0,0:0:0:0:
363,233,52187,6,0,P|368:273|356:311,1,80,4|8,0:0|0:0,0:0:0:0:
292,358,52910,2,0,L|203:358,1,80,0|8,0:0|0:0,0:0:0:0:
138,326,53632,2,0,P|88:291|66:224,2,120,2|8|8,0:0|0:0|0:0,0:0:0:0:
195,270,55078,6,0,L|239:186,1,80,2|8,0:0|0:0,0:0:0:0:
254,122,55801,2,0,B|292:115|292:115|333:122,1,80,0|8,0:0|0:0,0:0:0:0:
388,179,56524,2,0,L|397:311,2,120,2|8|8,0:0|0:0|0:0,0:0:0:0:
400,99,57970,6,0,P|434:73|479:61,2,80,2|8|0,0:0|0:0|0:0,0:0:0:0:
326,67,59054,1,8,0:0:0:0:
246,74,59416,2,0,B|185:52|185:52|131:72,2,120,2|8|8,0:0|0:0|0:0,0:0:0:0:
282,145,60861,6,0,L|296:231,1,80,2|8,0:0|0:0,0:0:0:0:
361,268,61584,2,0,L|381:188,1,80,2|8,0:0|0:0,0:0:0:0:
428,126,62307,2,0,B|474:120|504:147|504:147|462:320,1,240,2|8,0:0|0:0,0:0:0:0:
393,333,63753,6,0,P|316:354|233:331,1,160,4|2,0:0|0:0,0:0:0:0:
92,268,65199,2,0,P|172:186|294:199,1,240,2|8,0:0|0:0,0:0:0:0:
355,240,66645,6,0,L|449:103,1,160,2|2,0:0|0:0,0:0:0:0:
456,267,68090,2,0,B|408:338|408:338|241:338,1,240,2|8,0:0|0:0,0:0:0:0:
173,332,69536,6,0,P|100:308|23:332,1,160,2|2,0:0|0:0,0:0:0:0:
62,176,70982,2,0,L|43:95,2,80,2|8|2,0:0|0:0|0:0,0:0:0:0:
122,228,72066,1,8,0:0:0:0:
201,238,72428,6,0,B|238:255|238:255|274:238,1,80,2|8,0:0|0:0,0:0:0:0:
342,197,73151,2,0,B|378:180|378:180|415:197,1,80,2|8,0:0|0:0,0:0:0:0:
489,223,73873,2,0,L|473:79,2,120,2|8|8,0:0|0:0|0:0,0:0:0:0:
477,302,75319,6,0,L|395:344,1,80,4|8,0:0|0:0,0:0:0:0:
326,325,76042,2,0,L|284:243,1,80,2|8,0:0|0:0,0:0:0:0:
297,174,76765,2,0,P|336:125|392:111,2,120,2|8|8,0:0|0:0|0:0,0:0:0:0:
217,167,78211,6,0,L|130:168,1,80,2|8,0:0|0:0,0:0:0:0:
57,176,78934,2,0,P|35:218|31:258,1,80,2|8,0:0|0:0,0:0:0:0:
102,286,79657,2,0,B|158:287|187:327|187:327|237:313,2,120,2|8|8,0:0|0:0|0:0,0:0:0:0:
78,209,81102,6,0,L|92:118,1,80,2|8,0:0|0:0,0:0:0:0:
128,59,81825,2,0,P|165:45|205:60,1,80,2|8,0:0|0:0,0:0:0:0:
264,107,82548,2,0,P|316:136|369:103,2,120,2|8|8,0:0|0:0|0:0,0:0:0:0:
184,101,83994,6,0,L|150:173,1,80,2|8,0:0|0:0,0:0:0:0:
150,253,84717,2,0,L|183:325,1,80,2|8,0:0|0:0,0:0:0:0:
262,339,85440,2,0,P|374:349|399:238,1,240,2|8,0:0|0:0,0:0:0:0:
391,84,87247,6,0,L|206:80,1,160,8|8,0:0|0:0,0:0:0:0:
150,83,88331,2,0,P|114:100|92:142,1,80,2|8,0:0|0:0,0:0:0:0:
68,209,89054,2,0,P|79:248|108:276,1,80,0|8,0:0|0:0,0:0:0:0:
264,293,90138,6,0,L|353:322,2,80,8|0|8,0:0|0:0|0:0,0:0:0:0:
207,236,91223,2,0,L|177:137,1,80,2|8,0:0|0:0,0:0:0:0:
132,97,91946,2,0,P|91:87|56:109,1,80,2|8,0:0|0:0,0:0:0:0:
121,252,93030,5,8,0:0:0:0:
153,325,93392,2,0,L|242:324,1,80,2|8,0:0|0:0,0:0:0:0:
312,317,94114,2,0,P|352:282|357:239,1,80,2|8,0:0|0:0,0:0:0:0:
340,179,94837,2,0,P|354:142|386:119,1,80,2|8,0:0|0:0,0:0:0:0:
461,147,95560,6,0,P|483:182|481:227,2,80,2|8|2,0:0|0:0|0:0,0:0:0:0:
305,106,97006,2,0,P|283:72|282:33,2,80,2|8|8,0:0|0:0|0:0,0:0:0:0:
203,229,98452,5,4,0:0:0:0:
198,90,110018,6,0,P|142:142|68:122,1,160,4|0,0:0|0:0,0:0:0:0:
69,282,111464,2,0,P|143:262|199:314,1,160,2|0,0:0|0:0,0:0:0:0:
276,337,112548,1,8,0:0:0:0:
353,315,112910,6,0,P|422:280|444:200,1,160,2|0,0:0|0:0,0:0:0:0:
365,65,114355,2,0,B|340:28|340:28|216:28,1,160,2|0,0:0|0:0,0:0:0:0:
172,89,115440,1,8,0:0:0:0:
96,63,115801,6,0,L|95:223,1,160,2|0,0:0|0:0,0:0:0:0:
212,331,117247,2,0,P|269:287|308:200,1,160,2|0,0:0|0:0,0:0:0:0:
320,130,118331,1,8,0:0:0:0:
399,116,118693,6,0,L|431:189,1,80,2|8,0:0|0:0,0:0:0:0:
431,269,119416,2,0,L|398:342,1,80,2|8,0:0|0:0,0:0:0:0:
319,328,120138,2,0,B|254:280|254:280|189:328,1,160,2|0,0:0|0:0,0:0:0:0:
54,242,121584,6,0,P|56:127|175:93,1,240,4|8,0:0|0:0,0:0:0:0:
240,87,123030,2,0,P|302:128|281:204,1,160,2|0,0:0|0:0,0:0:0:0:
334,263,124114,1,8,0:0:0:0:
402,304,124476,2,0,B|459:261|459:261|459:92,1,240,2|8,0:0|0:0,0:0:0:0:
384,61,125922,2,0,L|305:78,1,80,2|8,0:0|0:0,0:0:0:0:
225,79,126645,2,0,L|146:61,1,80,0|8,0:0|0:0,0:0:0:0:
73,92,127367,6,0,B|73:260|73:260|130:303,1,240,2|8,0:0|0:0,0:0:0:0:
208,287,128813,2,0,P|278:254|350:289,1,160,2|0,0:0|0:0,0:0:0:0:
469,182,130259,6,0,L|437:106,1,80,2|8,0:0|0:0,0:0:0:0:
378,54,130982,2,0,L|347:147,1,80,0|8,0:0|0:0,0:0:0:0:
275,152,131705,2,0,L|143:140,2,120,4|8|8,0:0|0:0|0:0,0:0:0:0:
347,185,133151,6,0,P|377:213|375:254,1,80,4|8,0:0|0:0,0:0:0:0:
329,314,133873,2,0,L|243:314,1,80,0|8,0:0|0:0,0:0:0:0:
183,268,134596,2,0,L|128:153,2,120,2|8|8,0:0|0:0|0:0,0:0:0:0:
244,216,136042,6,0,L|238:71,2,120,2|8|8,0:0|0:0|0:0,0:0:0:0:
300,273,137488,2,0,P|336:289|374:273,1,80,2|8,0:0|0:0,0:0:0:0:
378,195,138211,2,0,P|414:181|450:197,1,80,0|8,0:0|0:0,0:0:0:0:
504,137,138934,6,0,P|409:76|313:137,1,240,2|8,0:0|0:0,0:0:0:0:
272,206,140379,2,0,P|175:267|80:206,1,240,2|8,0:0|0:0,0:0:0:0:
80,126,141825,6,0,P|175:64|271:125,1,240,2|8,0:0|0:0,0:0:0:0:
323,187,143271,2,0,L|371:267,2,80,2|8|0,0:0|0:0|0:0,0:0:0:0:
230,56,144717,6,0,B|97:109|225:237|107:284,1,280,4|0,0:0|0:0,0:0:0:0:
44,182,146524,2,0,P|37:144|43:99,1,80,8|0,0:0|0:0,0:0:0:0:
87,37,147247,1,8,0:0:0:0:
160,69,147608,6,0,P|245:140|327:67,1,240,2|8,0:0|0:0,0:0:0:0:
405,49,149054,2,0,L|439:133,1,80,2|8,0:0|0:0,0:0:0:0:
435,203,149777,2,0,L|404:277,1,80,0|8,0:0|0:0,0:0:0:0:
336,319,150500,6,0,P|231:269|123:324,1,240,2|8,0:0|0:0,0:0:0:0:
48,303,151946,2,0,L|31:203,1,80,2|8,0:0|0:0,0:0:0:0:
57,147,152669,2,0,P|96:157|136:148,1,80,0|8,0:0|0:0,0:0:0:0:
98,77,153392,6,0,B|153:38|153:38|206:64|260:41|260:41|324:81,1,240,2|8,0:0|0:0,0:0:0:0:
342,147,154837,2,0,P|375:125|389:89,2,80,4|8|8,0:0|0:0|0:0,0:0:0:0:
382,302,156283,6,0,B|343:315|343:315|306:303,1,80,4|8,0:0|0:0,0:0:0:0:
233,269,157006,2,0,B|196:257|196:257|157:270,1,80,0|8,0:0|0:0,0:0:0:0:
79,289,157729,2,0,L|42:148,2,120,2|8|8,0:0|0:0|0:0,0:0:0:0:
146,332,159175,6,0,P|185:340|224:330,1,80,2|8,0:0|0:0,0:0:0:0:
295,295,159898,2,0,L|321:219,1,80,0|8,0:0|0:0,0:0:0:0:
401,219,160620,2,0,L|427:294,2,80,2|8|0,0:0|0:0|0:0,0:0:0:0:
361,148,161705,1,8,0:0:0:0:
310,86,162066,6,0,B|274:67|274:67|234:86,1,80,2|8,0:0|0:0,0:0:0:0:
158,86,162789,2,0,B|122:67|122:67|82:86,1,80,0|8,0:0|0:0,0:0:0:0:
44,151,163512,2,0,L|25:273,2,120,2|8|8,0:0|0:0|0:0,0:0:0:0:
85,82,164958,6,0,P|123:74|164:81,1,80,2|8,0:0|0:0,0:0:0:0:
216,20,165681,2,0,P|239:53|242:95,1,80,0|8,0:0|0:0,0:0:0:0:
307,139,166404,2,0,P|260:172|199:160,2,120,2|8|8,0:0|0:0|0:0,0:0:0:0:
361,80,167849,6,0,L|445:61,2,80,4|8|0,0:0|0:0|0:0,0:0:0:0:
307,139,168934,1,8,0:0:0:0:
381,168,169295,2,0,P|345:212|284:215,2,120,2|8|8,0:0|0:0|0:0,0:0:0:0:
452,131,170741,6,0,L|468:50,2,80,2|8|0,0:0|0:0|0:0,0:0:0:0:
493,199,171825,1,8,0:0:0:0:
459,271,172187,2,0,L|383:309,1,80,2|8,0:0|0:0,0:0:0:0:
311,332,172910,2,0,P|275:349|238:332,1,80,0|8,0:0|0:0,0:0:0:0:
192,270,173632,6,0,L|192:183,2,80,2|8|0,0:0|0:0|0:0,0:0:0:0:
130,321,174717,1,8,0:0:0:0:
52,300,175078,2,0,P|25:226|52:151,1,160,2|0,0:0|0:0,0:0:0:0:
129,135,176163,1,8,0:0:0:0:
205,111,176524,6,0,L|242:39,1,80,2|8,0:0|0:0,0:0:0:0:
321,39,177247,2,0,L|358:111,1,80,0|8,0:0|0:0,0:0:0:0:
422,157,177970,2,0,L|471:45,2,120,2|8|8,0:0|0:0|0:0,0:0:0:0:
459,228,179416,6,0,P|401:323|290:297,1,240,4|8,0:0|0:0,0:0:0:0:
283,217,180861,2,0,P|357:229|405:165,1,160,2|0,0:0|0:0,0:0:0:0:
326,148,181946,1,8,0:0:0:0:
247,131,182307,6,0,B|223:58|223:58|56:58,1,240,2|8,0:0|0:0,0:0:0:0:
31,133,183753,2,0,B|55:206|55:206|153:206,1,160,2|0,0:0|0:0,0:0:0:0:
139,125,184837,1,8,0:0:0:0:
201,175,185199,6,0,B|243:227|243:227|243:320,1,160,2|0,0:0|0:0,0:0:0:0:
168,350,186283,1,8,0:0:0:0:
107,297,186645,2,0,L|70:210,2,80,2|8|0,0:0|0:0|0:0,0:0:0:0:
168,350,187729,1,8,0:0:0:0:
232,305,188090,6,0,B|269:290|269:290|306:303,1,80,4|8,0:0|0:0,0:0:0:0:
379,337,188813,2,0,B|416:350|416:350|453:335,1,80,4|8,0:0|0:0,0:0:0:0:
256,192,189536,12,4,190982,0:0:0:0:
