osu file format v12

[General]
AudioFilename: harukaze dance.mp3
AudioLeadIn: 1500
PreviewTime: 49960
Countdown: 0
SampleSet: Soft
StackLeniency: 0.7
Mode: 0
LetterboxInBreaks: 1
WidescreenStoryboard: 0

[Editor]
Bookmarks: 25960,27778
DistanceSpacing: 1.3
BeatDivisor: 4
GridSize: 4

[Metadata]
Title:Harukaze Dance
TitleUnicode:春風ダンス
Artist:Chata
ArtistUnicode:茶太
Creator:Laurier
Version:Insane
Source:Motto Nee, Chanto Shiyou yo! After Story
Tags:hoLysoup Frostmourne candysoft
BeatmapID:256580
BeatmapSetID:95563

[Difficulty]
HPDrainRate:7
CircleSize:4
OverallDifficulty:7
ApproachRate:8
SliderMultiplier:1.6
SliderTickRate:1

[Events]
//Background and Video events
0,0,"BG.png",0,0
//Break Periods
2,76524,87210
2,152160,162301
//Storyboard Layer 0 (Background)
//Storyboard Layer 1 (Fail)
//Storyboard Layer 2 (Pass)
//Storyboard Layer 3 (Foreground)
//Storyboard Sound Samples
//Background Colour Transformations
3,100,163,162,255

[TimingPoints]
688,363.636363636364,4,2,1,60,1,0
688,-200,4,2,2,60,0,0
5051,-200,4,2,2,40,0,0
5233,-200,4,2,2,60,0,0
6142,-200,4,2,1,60,0,0
6506,-133.333333333333,4,2,1,60,0,0
7233,-133.333333333333,4,2,2,40,0,0
7597,-133.333333333333,4,2,2,60,0,0
8142,-133.333333333333,4,2,1,60,0,0
9051,-133.333333333333,4,2,2,60,0,0
9597,-133.333333333333,4,2,1,60,0,0
10506,-133.333333333333,4,2,2,60,0,0
10869,-133.333333333333,4,2,2,40,0,0
11051,-133.333333333333,4,2,1,60,0,0
12324,-100,4,2,1,60,0,0
35051,-100,4,2,2,40,0,0
35233,-100,4,2,1,40,0,0
35597,-100,4,2,1,60,0,0
49415,-100,4,2,1,40,0,0
49960,-100,4,2,1,70,0,1
72688,-100,4,2,2,70,0,1
73051,-100,4,2,1,70,0,1
76324,-100,4,2,2,50,0,0
87960,-100,4,2,1,60,0,0
110688,-100,4,2,2,40,0,0
110869,-100,4,2,1,40,0,0
111233,-100,4,2,1,60,0,0
125051,-100,4,2,1,40,0,0
125597,-100,4,2,1,70,0,1
146688,-100,4,2,1,50,0,1
147597,-100,4,2,1,60,0,1
148324,-100,4,2,2,70,0,1
148688,-100,4,2,1,70,0,1
151960,-100,4,2,2,50,0,0
163233,-100,4,2,2,40,0,0
163597,-100,4,2,1,60,0,0
177415,-100,4,2,1,40,0,0
177960,-133.333333333333,4,2,2,40,0,0
179233,-133.333333333333,4,2,1,40,0,0
189233,-100,4,2,2,40,0,0
189415,-100,4,2,1,40,0,0
189597,-100,4,2,1,70,0,1
199960,-100,4,2,2,50,0,1
200142,-100,4,2,1,70,0,1
200688,-100,4,2,2,70,0,1
201051,-100,4,2,1,70,0,1
204324,-100,4,2,2,50,0,0
205051,-200,4,2,2,40,0,0
205778,-200,4,2,2,50,0,0
206506,-200,4,2,2,40,0,0
207233,-200,4,2,1,50,0,0
208688,-200,4,2,2,40,0,0
208869,-200,4,2,1,50,0,0
209778,-200,4,2,2,50,0,0
210142,-200,4,2,1,50,0,0
210869,-200,4,2,2,40,0,0
211233,-200,4,2,1,50,0,0
212688,-200,4,2,2,50,0,0
213051,-200,4,2,2,40,0,0
213233,-200,4,2,1,50,0,0
213778,-200,4,2,2,40,0,0
214142,-200,4,2,1,50,0,0
214506,-200,4,2,2,40,0,0
214688,-200,4,2,1,50,0,0
221051,-200,4,2,1,40,0,0
223233,-200,4,2,1,30,0,0
223960,-200,4,2,1,20,0,0
224324,-200,4,2,1,10,0,0
224688,-200,4,2,1,5,0,0

[Colours]
Combo1 : 255,255,255
Combo2 : 255,206,255
Combo3 : 255,255,200
Combo4 : 200,255,227

[HitObjects]
284,296,688,2,0,P|312:240|304:184,1,120,4|0,0:0|0:0,0:0:0:0:
248,64,1415,2,0,P|232:100|224:140,1,80,0|0,0:0|0:0,0:0:0:0:
116,212,2142,2,0,P|168:232|232:220,1,120,4|0,0:0|0:0,0:0:0:0:
308,128,2869,2,0,P|348:124|392:124,1,80
444,200,3597,6,0,B|456:268|408:300|408:300|428:344,1,160,4|2,0:0|0:0,0:0:0:0:
427,342,4688,1,0,0:0:0:0:
364,228,4869,2,0,L|364:176,1,40,0|2,0:0|0:0,0:0:0:0:
364,228,5233,1,0,0:0:0:0:
328,300,5415,1,0,0:0:0:0:
284,232,5597,2,0,P|248:220|200:216,1,80
128,236,6142,1,2,0:0:0:0:
128,236,6506,5,2,0:0:0:0:
116,140,6688,1,2,0:0:0:0:
188,76,6869,2,0,P|220:68|256:64,1,60.0000022888184
320,128,7233,2,0,P|376:136|452:120,1,120.000004577637,2|8,0:0|0:0,0:0:0:0:
464,316,7960,1,0,0:0:0:0:
464,316,8142,2,0,P|408:308|332:324,1,120.000004577637,2|0,0:0|0:0,0:0:0:0:
260,360,8688,2,0,P|276:304|268:240,1,120.000004577637,0|8,0:0|0:0,0:0:0:0:
208,60,9415,5,0,0:0:0:0:
208,60,9597,1,2,0:0:0:0:
132,116,9778,2,0,L|72:156,1,60.0000022888184
156,212,10142,2,0,L|96:252,1,60.0000022888184
180,308,10506,2,0,L|120:348,2,60.0000022888184,8|0|2,0:0|0:0|0:0,0:0:0:0:
256,368,11051,1,2,0:0:0:0:
256,368,11415,1,2,0:0:0:0:
264,272,11597,2,0,B|272:236|256:212|256:212|240:184|264:152,1,120.000004577637,0|8,0:0|0:0,0:0:0:0:
452,40,12324,6,0,P|488:104|448:176,2,160,4|8|0,0:0|0:0|0:0,0:0:0:0:
364,28,13233,1,2,0:0:0:0:
360,144,13415,2,0,P|320:148|280:140,1,80,8|0,0:0|0:0,0:0:0:0:
248,60,13778,2,0,L|264:220,1,160,2|8,0:0|0:0,0:0:0:0:
368,336,14324,2,0,L|356:252,1,80,0|2,0:0|0:0,0:0:0:0:
276,296,14688,1,2,0:0:0:0:
444,284,14869,2,0,L|432:200,1,80,8|0,0:0|0:0,0:0:0:0:
276,296,15233,6,0,P|200:312|120:296,1,160,2|8,0:0|0:0,0:0:0:0:
92,212,15778,1,0,0:0:0:0:
192,148,15960,2,0,P|188:188|172:228,1,80,2|2,0:0|0:0,0:0:0:0:
72,64,16324,2,0,P|97:95|114:134,1,80,8|0,0:0|0:0,0:0:0:0:
212,64,16688,2,0,P|292:48|368:64,1,160,2|8,0:0|0:0,0:0:0:0:
408,176,17233,2,0,P|432:144|444:104,1,80,0|2,0:0|0:0,0:0:0:0:
328,140,17597,1,2,0:0:0:0:
368,296,17778,2,0,P|344:264|332:224,1,80,8|0,0:0|0:0,0:0:0:0:
444,299,18142,6,0,P|412:359|328:362,1,160,2|8,0:0|0:0,0:0:0:0:
256,296,18688,1,0,0:0:0:0:
188,364,18869,1,2,0:0:0:0:
328,360,19051,1,2,0:0:0:0:
256,296,19233,2,0,P|248:256|244:216,1,80,8|0,0:0|0:0,0:0:0:0:
308,68,19597,2,0,P|332:136|340:224,1,160,2|8,0:0|0:0,0:0:0:0:
160,200,20142,2,0,P|182:166|208:134,1,80,0|2,0:0|0:0,0:0:0:0:
256,296,20506,1,2,0:0:0:0:
276,176,20688,2,0,P|309:198|341:224,1,80,8|0,0:0|0:0,0:0:0:0:
168,284,21051,6,0,B|108:320|60:272|60:272|20:296,2,160,2|8|2,0:0|0:0|0:0,0:0:0:0:
184,188,21960,1,2,0:0:0:0:
252,256,22142,1,8,0:0:0:0:
232,352,22324,1,0,0:0:0:0:
284,272,22506,2,0,L|304:188,1,80,2|0,0:0|0:0,0:0:0:0:
360,352,22869,2,0,L|380:268,1,80,8|0,0:0|0:0,0:0:0:0:
220,168,23233,2,0,L|240:84,1,80,8|0,0:0|0:0,0:0:0:0:
128,136,23597,1,2,0:0:0:0:
144,256,23778,1,8,0:0:0:0:
304,192,23960,5,4,0:0:0:0:
304,192,24324,1,8,0:0:0:0:
256,304,24506,1,0,0:0:0:0:
256,304,24869,1,0,0:0:0:0:
144,256,25051,1,8,0:0:0:0:
128,136,25233,2,0,P|192:96|276:104,1,160
304,192,25778,1,8,0:0:0:0:
364,116,25960,2,0,L|380:24,1,80
464,112,26324,1,0,0:0:0:0:
304,192,26506,1,8,0:0:0:0:
304,192,26869,6,0,P|280:264|304:344,1,160,0|8,0:0|0:0,0:0:0:0:
380,224,27415,2,0,P|384:184|372:144,1,80,2|0,0:0|0:0,0:0:0:0:
356,56,27778,2,0,P|324:81|305:118,1,80,0|8,0:0|0:0,0:0:0:0:
340,293,28142,2,0,P|419:294|460:229,1,160
428,108,28688,1,8,0:0:0:0:
380,224,28869,1,0,0:0:0:0:
492,160,29051,1,0,0:0:0:0:
364,151,29233,1,8,0:0:0:0:
341,294,29415,2,0,P|310:263|302:229,1,80,8|0,0:0|0:0,0:0:0:0:
428,108,29778,5,4,0:0:0:0:
428,108,30142,1,8,0:0:0:0:
344,60,30324,2,0,P|268:52|184:52,1,160,2|0,0:0|0:0,0:0:0:0:
80,108,30869,1,8,0:0:0:0:
184,168,31051,2,0,P|188:208|184:256,1,80,0|2,0:0|0:0,0:0:0:0:
80,308,31415,1,0,0:0:0:0:
16,204,31597,2,0,P|60:200|104:200,1,80,8|0,0:0|0:0,0:0:0:0:
184,280,31960,1,0,0:0:0:0:
280,208,32142,2,0,P|276:164|280:128,1,80,2|8,0:0|0:0,0:0:0:0:
220,76,32506,1,0,0:0:0:0:
360,168,32688,6,0,P|364:212|360:248,1,80,4|0,0:0|0:0,0:0:0:0:
184,360,33051,2,0,P|180:316|184:280,1,80,8|0,0:0|0:0,0:0:0:0:
280,208,33415,1,8,0:0:0:0:
192,172,33597,1,0,0:0:0:0:
280,308,33778,1,8,0:0:0:0:
360,168,33960,1,0,0:0:0:0:
396,284,34142,2,0,P|372:320|356:360,1,80
484,316,34506,2,0,P|496:232|484:156,1,160,8|8,0:0|0:0,0:0:0:0:
428,52,35051,2,0,L|436:28,8,20,4|0|0|0|8|0|0|0|0,0:0|0:0|0:0|0:0|0:0|0:0|0:0|0:0|0:0,0:0:0:0:
360,168,35597,5,4,0:0:0:0:
360,168,35960,2,0,L|200:184,1,160,8|8,0:0|0:0,0:0:0:0:
168,108,36506,1,2,0:0:0:0:
252,256,36688,2,0,L|156:268,1,80,8|0,0:0|0:0,0:0:0:0:
44,184,37051,2,0,P|84:177|140:172,1,80,8|0,0:0|0:0,0:0:0:0:
112,348,37415,2,0,P|72:356|16:360,2,80,8|0|8,0:0|0:0|0:0,0:0:0:0:
200,184,37960,1,0,0:0:0:0:
188,312,38142,2,0,P|220:336|264:340,1,80,8|0,0:0|0:0,0:0:0:0:
400,252,38506,6,0,P|328:228|248:260,1,160,8|8,0:0|0:0,0:0:0:0:
200,184,39051,1,0,0:0:0:0:
264,72,39233,2,0,P|280:108|284:148,1,80,8|0,0:0|0:0,0:0:0:0:
252,256,39597,1,8,0:0:0:0:
108,192,39778,1,0,0:0:0:0:
136,348,39960,2,0,P|152:312|164:272,1,80,8|0,0:0|0:0,0:0:0:0:
36,124,40324,2,0,P|20:160|8:200,2,80,8|2|8,0:0|0:0|0:0,0:0:0:0:
144,28,40869,1,0,0:0:0:0:
224,80,41051,1,8,0:0:0:0:
164,156,41233,1,0,0:0:0:0:
144,28,41415,6,0,P|224:12|308:16,1,160,4|8,0:0|0:0,0:0:0:0:
340,104,41960,1,0,0:0:0:0:
376,192,42142,2,0,P|416:184|456:180,1,80,8|0,0:0|0:0,0:0:0:0:
432,276,42506,1,8,0:0:0:0:
336,204,42688,1,2,0:0:0:0:
408,40,42869,2,0,P|424:76|432:120,1,80,8|0,0:0|0:0,0:0:0:0:
336,204,43233,1,8,0:0:0:0:
408,352,43415,2,0,P|424:316|432:272,1,80,0|8,0:0|0:0,0:0:0:0:
252,248,43778,1,0,0:0:0:0:
336,204,43960,1,8,0:0:0:0:
304,328,44142,1,0,0:0:0:0:
176,336,44324,6,0,P|104:328|12:328,1,160,4|8,0:0|0:0,0:0:0:0:
16,232,44869,1,0,0:0:0:0:
112,232,45051,2,0,P|120:192|124:148,1,80,2|0,0:0|0:0,0:0:0:0:
52,48,45415,2,0,P|44:88|40:132,1,80,8|0,0:0|0:0,0:0:0:0:
196,264,45778,2,0,P|208:184|208:96,1,160,2|8,0:0|0:0,0:0:0:0:
324,32,46324,1,0,0:0:0:0:
308,128,46506,2,0,P|340:152|376:172,1,80,2|0,0:0|0:0,0:0:0:0:
444,240,46869,1,8,0:0:0:0:
464,144,47051,1,0,0:0:0:0:
348,268,47233,6,0,P|276:288|192:264,1,160,4|8,0:0|0:0,0:0:0:0:
40,60,47960,2,0,P|112:40|196:64,2,160,2|8|2,0:0|0:0|0:0,0:0:0:0:
84,224,48869,1,2,0:0:0:0:
108,132,49051,1,8,0:0:0:0:
16,152,49233,1,0,0:0:0:0:
176,192,49415,1,8,0:0:0:0:
196,192,49506,1,8,0:0:0:0:
216,192,49597,1,8,0:0:0:0:
236,192,49688,1,8,0:0:0:0:
256,192,49778,1,8,0:0:0:0:
376,188,49960,6,0,P|412:252|368:320,1,160,4|0,0:0|0:0,0:0:0:0:
252,340,50506,1,8,0:0:0:0:
332,252,50688,1,0,0:0:0:0:
320,372,50869,1,2,0:0:0:0:
260,268,51051,1,2,0:0:0:0:
372,316,51233,1,8,0:0:0:0:
260,268,51415,2,0,P|184:264|100:284,1,160,2|2,0:0|0:0,0:0:0:0:
100,188,51960,2,0,P|64:200|20:224,1,80,8|0,0:0|0:0,0:0:0:0:
184,184,52324,2,0,P|188:144|188:100,2,80,2|0|8,0:0|0:0|0:0,0:0:0:0:
284,352,52869,6,0,P|272:272|288:196,1,160,6|2,0:0|0:0,0:0:0:0:
376,360,53415,2,0,P|360:324|352:284,1,80,8|0,0:0|0:0,0:0:0:0:
444,152,53778,2,0,P|460:188|468:228,1,80,2|0,0:0|0:0,0:0:0:0:
380,212,54142,1,8,0:0:0:0:
328,104,54324,2,0,P|256:80|176:112,1,160,6|2,0:0|0:0,0:0:0:0:
288,264,54869,2,0,P|296:224|288:184,1,80,8|0,0:0|0:0,0:0:0:0:
108,68,55233,2,0,P|100:108|108:148,1,80,2|0,0:0|0:0,0:0:0:0:
204,132,55597,1,8,0:0:0:0:
144,236,55778,1,0,0:0:0:0:
32,192,55960,5,4,0:0:0:0:
244,216,56142,2,0,P|244:256|224:296,1,80,0|8,0:0|0:0,0:0:0:0:
88,360,56506,2,0,P|116:331|158:317,1,80,0|2,0:0|0:0,0:0:0:0:
304,312,56869,2,0,P|341:298|369:270,1,80,0|8,0:0|0:0,0:0:0:0:
264,64,57233,2,0,P|236:128|244:216,1,160,2|2,0:0|0:0,0:0:0:0:
336,192,57778,1,8,0:0:0:0:
336,192,57960,1,0,0:0:0:0:
380,108,58142,2,0,P|420:100|464:96,1,80,2|0,0:0|0:0,0:0:0:0:
432,188,58506,1,8,0:0:0:0:
388,272,58688,1,0,0:0:0:0:
251,221,58869,5,4,0:0:0:0:
295,332,59051,1,0,0:0:0:0:
180,367,59233,2,0,L|194:282,1,80,8|0,0:0|0:0,0:0:0:0:
132,212,59597,2,0,P|96:196|48:184,1,80,2|0,0:0|0:0,0:0:0:0:
8,268,59960,1,8,0:0:0:0:
52,152,60142,2,2,L|220:128,1,160,4|0,0:0|0:0,0:0:0:0:
296,24,60688,1,8,0:0:0:0:
236,108,60869,2,0,P|224:148|216:192,1,80,0|8,0:0|0:0,0:0:0:0:
316,212,61233,1,0,0:0:0:0:
256,296,61415,1,8,0:0:0:0:
145,251,61597,6,0,P|73:227|5:271,1,160,4|2,0:0|0:0,0:0:0:0:
124,340,62142,2,0,P|164:344|200:324,1,80,8|0,0:0|0:0,0:0:0:0:
172,168,62506,1,2,0:0:0:0:
172,168,62869,1,8,0:0:0:0:
280,60,63051,2,0,L|256:224,1,160,2|2,0:0|0:0,0:0:0:0:
112,112,63597,2,0,P|148:92|188:88,1,80,8|0,0:0|0:0,0:0:0:0:
345,170,63960,2,0,P|429:178|476:125,1,160,2|8,0:0|0:0,0:0:0:0:
340,277,64506,6,0,P|256:269|209:322,1,160,6|2,0:0|0:0,0:0:0:0:
132,260,65051,2,0,L|156:180,1,80,8|0,0:0|0:0,0:0:0:0:
268,88,65415,2,0,L|244:168,1,80,2|0,0:0|0:0,0:0:0:0:
112,112,65778,1,8,0:0:0:0:
58,267,65960,2,0,P|98:327|179:317,1,160,6|2,0:0|0:0,0:0:0:0:
256,260,66506,1,8,0:0:0:0:
184,104,66688,2,0,L|160:184,1,80,0|2,0:0|0:0,0:0:0:0:
132,260,67051,1,0,0:0:0:0:
256,260,67233,1,8,0:0:0:0:
232,380,67415,1,0,0:0:0:0:
368,224,67597,6,0,P|408:212|448:212,1,80,4|0,0:0|0:0,0:0:0:0:
508,284,67960,1,8,0:0:0:0:
396,348,68142,2,0,P|356:360|316:360,1,80,0|2,0:0|0:0,0:0:0:0:
256,260,68506,2,0,P|243:220|243:180,1,80,0|8,0:0|0:0,0:0:0:0:
344,72,68869,2,0,P|372:140|368:228,1,160,2|2,0:0|0:0,0:0:0:0:
292,284,69415,2,0,P|252:292|208:304,1,80,8|0,0:0|0:0,0:0:0:0:
148,372,69778,1,2,0:0:0:0:
180,212,69960,1,0,0:0:0:0:
268,372,70142,1,8,0:0:0:0:
112,284,70324,1,0,0:0:0:0:
272,200,70506,6,0,P|288:124|272:44,1,160,6|8,0:0|0:0,0:0:0:0:
144,88,71051,1,0,0:0:0:0:
144,88,71142,1,0,0:0:0:0:
144,88,71233,2,0,P|108:104|64:116,1,80,2|0,0:0|0:0,0:0:0:0:
8,192,71597,1,8,0:0:0:0:
80,256,71778,1,0,0:0:0:0:
80,256,71869,1,0,0:0:0:0:
80,256,71960,2,0,P|84:296|80:336,1,80,2|0,0:0|0:0,0:0:0:0:
4,368,72324,1,8,0:0:0:0:
124,352,72506,1,0,0:0:0:0:
196,256,72688,1,2,0:0:0:0:
200,228,72778,1,0,0:0:0:0:
204,200,72869,1,0,0:0:0:0:
208,172,72960,1,0,0:0:0:0:
212,144,73051,2,0,P|252:128|288:124,1,80,8|0,0:0|0:0,0:0:0:0:
256,192,73415,12,4,76324,0:0:0:0:
324,192,87960,6,0,P|396:160|456:204,2,160,4|8|2,0:0|0:0|0:0,0:0:0:0:
396,340,88869,1,2,0:0:0:0:
304,292,89051,1,8,0:0:0:0:
388,232,89233,1,0,0:0:0:0:
396,340,89415,2,0,P|324:360|236:348,1,160,2|8,0:0|0:0,0:0:0:0:
184,264,89960,1,0,0:0:0:0:
120,348,90142,2,0,P|96:316|84:276,1,80,2|2,0:0|0:0,0:0:0:0:
168,104,90506,2,0,P|192:136|204:176,1,80,8|0,0:0|0:0,0:0:0:0:
0,204,90869,6,0,P|52:148|124:176,1,160,2|8,0:0|0:0,0:0:0:0:
184,264,91415,1,0,0:0:0:0:
272,330,91597,2,0,P|286:291|287:250,1,80,2|0,0:0|0:0,0:0:0:0:
387,280,91960,2,0,P|382:238|365:201,1,80,8|0,0:0|0:0,0:0:0:0:
276,144,92324,2,0,L|444:88,1,160,2|8,0:0|0:0,0:0:0:0:
500,200,92869,2,0,L|396:188,1,80,0|2,0:0|0:0,0:0:0:0:
204,40,93233,2,0,L|308:52,2,80,0|8|0,0:0|0:0|0:0,0:0:0:0:
196,176,93778,6,0,P|216:244|224:336,1,160,2|8,0:0|0:0,0:0:0:0:
120,312,94324,1,0,0:0:0:0:
92,212,94506,2,0,P|60:188|24:164,1,80,2|2,0:0|0:0,0:0:0:0:
52,32,94869,2,0,P|84:56|120:80,1,80,8|0,0:0|0:0,0:0:0:0:
220,144,95233,2,0,L|384:136,1,160,2|8,0:0|0:0,0:0:0:0:
432,284,95778,2,0,P|408:260|384:216,1,80,0|2,0:0|0:0,0:0:0:0:
444,56,96142,1,0,0:0:0:0:
444,56,96324,2,0,P|464:96|472:136,1,80,8|0,0:0|0:0,0:0:0:0:
311,207,96688,6,0,P|241:167|170:191,2,160,2|8|2,0:0|0:0|0:0,0:0:0:0:
252,292,97597,1,2,0:0:0:0:
332,356,97778,2,0,P|344:316|368:280,1,80,8|0,0:0|0:0,0:0:0:0:
252,292,98142,1,2,0:0:0:0:
389,166,98324,2,0,P|397:206|389:250,1,80,2|8,0:0|0:0,0:0:0:0:
252,292,98688,1,0,0:0:0:0:
445,352,98869,2,0,L|358:324,1,80,8|0,0:0|0:0,0:0:0:0:
230,181,99233,2,0,L|317:209,1,80,0|8,0:0|0:0,0:0:0:0:
236,320,99597,6,0,B|180:344|136:304|136:304|76:304,1,160,4|8,0:0|0:0,0:0:0:0:
196,252,100142,1,2,0:0:0:0:
196,252,100506,2,0,P|204:212|208:168,1,80,0|8,0:0|0:0,0:0:0:0:
144,92,100869,1,0,0:0:0:0:
236,40,101051,2,0,P|312:20|400:24,1,160,2|8,0:0|0:0,0:0:0:0:
376,128,101597,2,0,P|412:148|444:172,1,80,2|0,0:0|0:0,0:0:0:0:
492,72,101960,1,0,0:0:0:0:
476,168,102142,2,0,L|468:248,1,80,8|0,0:0|0:0,0:0:0:0:
372,272,102506,6,0,P|340:288|296:296,1,80,2|0,0:0|0:0,0:0:0:0:
256,208,102869,1,8,0:0:0:0:
376,129,103051,2,0,L|352:293,1,160,2|0,0:0|0:0,0:0:0:0:
256,208,103597,1,8,0:0:0:0:
444,264,103778,2,0,L|428:348,1,80,0|2,0:0|0:0,0:0:0:0:
332,360,104142,1,0,0:0:0:0:
332,360,104324,1,8,0:0:0:0:
260,296,104506,1,2,0:0:0:0:
324,224,104688,2,0,L|312:144,1,80,0|8,0:0|0:0,0:0:0:0:
272,376,105051,2,0,L|260:296,1,80,8|0,0:0|0:0,0:0:0:0:
196,176,105415,6,0,P|124:148|48:180,1,160,4|8,0:0|0:0,0:0:0:0:
160,256,105960,2,0,P|200:260|240:248,1,80
300,164,106324,1,0,0:0:0:0:
280,324,106506,1,8,0:0:0:0:
392,208,106688,2,0,P|384:120|368:44,1,160
476,104,107233,1,8,0:0:0:0:
496,224,107415,2,0,P|476:260|464:300,1,80
392,208,107778,2,0,P|354:204|308:208,2,80,0|8|0,0:0|0:0|0:0,0:0:0:0:
280,324,108324,6,0,P|204:336|124:320,1,160,2|8,0:0|0:0,0:0:0:0:
76,184,108869,1,0,0:0:0:0:
204,120,109051,1,8,0:0:0:0:
188,216,109233,1,2,0:0:0:0:
76,184,109415,1,8,0:0:0:0:
108,28,109597,1,0,0:0:0:0:
204,120,109778,5,2,0:0:0:0:
76,184,109960,1,2,0:0:0:0:
204,252,110142,1,8,0:0:0:0:
76,316,110324,2,0,P|104:348|132:372,1,80,0|8,0:0|0:0,0:0:0:0:
224,348,110688,2,0,L|260:336,8,20,4|0|0|0|8|0|0|0|0,0:0|0:0|0:0|0:0|0:0|0:0|0:0|0:0|0:0,0:0:0:0:
204,252,111233,6,0,P|280:232|368:228,1,160,4|8,0:0|0:0,0:0:0:0:
440,280,111778,1,0,0:0:0:0:
448,104,111960,2,0,P|456:144|456:184,1,80,8|0,0:0|0:0,0:0:0:0:
296,68,112324,2,0,P|329:90|358:118,1,80,8|0,0:0|0:0,0:0:0:0:
268,304,112688,2,0,P|234:281|205:253,1,80,8|0,0:0|0:0,0:0:0:0:
116,268,113052,2,0,P|108:228|108:188,1,80,8|0,0:0|0:0,0:0:0:0:
184,128,113415,2,0,P|120:164|32:160,1,160,8|8,0:0|0:0,0:0:0:0:
16,84,113960,1,0,0:0:0:0:
24,248,114142,5,8,0:0:0:0:
24,248,114506,2,0,P|36:292|44:328,1,80,8|0,0:0|0:0,0:0:0:0:
188,348,114869,2,0,P|176:304|168:268,1,80,8|0,0:0|0:0,0:0:0:0:
236,144,115233,1,8,0:0:0:0:
284,228,115415,1,0,0:0:0:0:
148,184,115597,2,0,L|60:184,1,80,8|0,0:0|0:0,0:0:0:0:
160,92,115960,1,8,0:0:0:0:
200,256,116142,1,0,0:0:0:0:
328,148,116324,2,0,P|372:136|412:128,1,80,8|0,0:0|0:0,0:0:0:0:
348,304,116688,2,0,P|304:316|264:324,1,80,8|0,0:0|0:0,0:0:0:0:
44,268,117051,6,0,P|120:248|204:256,1,160,4|8,0:0|0:0,0:0:0:0:
348,304,117597,1,0,0:0:0:0:
264,208,117778,2,0,P|248:168|248:128,2,80,8|2|8,0:0|0:0|0:0,0:0:0:0:
360,212,118324,1,2,0:0:0:0:
472,140,118506,2,0,P|436:128|392:128,1,80,8|0,0:0|0:0,0:0:0:0:
264,208,118869,1,8,0:0:0:0:
124,280,119051,2,0,P|82:279|46:267,1,80,0|8,0:0|0:0,0:0:0:0:
108,172,119415,2,0,P|149:172|185:184,1,80,0|8,0:0|0:0,0:0:0:0:
216,292,119778,1,0,0:0:0:0:
328,288,119960,6,0,P|364:220|340:140,2,160,4|8|2,0:0|0:0|0:0,0:0:0:0:
264,208,120869,1,2,0:0:0:0:
276,364,121051,1,8,0:0:0:0:
424,312,121233,1,0,0:0:0:0:
216,292,121415,2,0,L|136:292,1,80,2|0,0:0|0:0,0:0:0:0:
344,208,121778,2,0,L|264:208,1,80,8|0,0:0|0:0,0:0:0:0:
208,112,122142,1,2,0:0:0:0:
148,204,122324,1,2,0:0:0:0:
216,292,122506,2,0,P|224:336|216:376,1,80,8|0,0:0|0:0,0:0:0:0:
88,296,122869,6,0,P|44:236|56:156,2,160,4|8|2,0:0|0:0|0:0,0:0:0:0:
148,204,123778,1,2,0:0:0:0:
88,296,123960,1,8,0:0:0:0:
200,296,124142,1,0,0:0:0:0:
204,168,124324,1,2,0:0:0:0:
144,260,124506,1,0,0:0:0:0:
256,260,124688,2,0,P|296:256|336:260,1,80,8|0,0:0|0:0,0:0:0:0:
444,280,125051,1,8,0:0:0:0:
453,263,125141,1,8,0:0:0:0:
461,246,125232,1,8,0:0:0:0:
467,227,125323,1,8,0:0:0:0:
471,208,125414,1,8,0:0:0:0:
440,100,125597,6,0,P|368:72|276:64,1,160,4|0,0:0|0:0,0:0:0:0:
304,176,126142,2,0,P|272:200|236:228,1,80,8|0,0:0|0:0,0:0:0:0:
256,336,126506,1,2,0:0:0:0:
256,336,126869,1,8,0:0:0:0:
164,276,127051,2,0,P|88:256|8:280,1,160,2|2,0:0|0:0,0:0:0:0:
12,112,127597,2,0,P|36:148|68:172,1,80,8|0,0:0|0:0,0:0:0:0:
216,160,127960,1,2,0:0:0:0:
196,48,128142,1,2,0:0:0:0:
96,96,128324,1,8,0:0:0:0:
216,160,128506,6,0,L|376:156,1,160,6|2,0:0|0:0,0:0:0:0:
440,32,129051,2,0,L|368:67,1,80,8|0,0:0|0:0,0:0:0:0:
264,280,129415,2,0,L|335:244,2,80,2|0|8,0:0|0:0|0:0,0:0:0:0:
32,268,129960,2,0,P|104:236|184:244,1,160,6|2,0:0|0:0,0:0:0:0:
264,280,130506,1,8,0:0:0:0:
408,264,130688,2,0,P|436:192|428:108,1,160,2|2,0:0|0:0,0:0:0:0:
348,20,131233,1,8,0:0:0:0:
348,20,131415,1,0,0:0:0:0:
308,160,131597,5,4,0:0:0:0:
248,64,131778,2,0,L|168:56,1,80,0|8,0:0|0:0,0:0:0:0:
20,176,132142,2,0,L|104:160,1,80,0|2,0:0|0:0,0:0:0:0:
232,296,132506,2,0,L|152:288,1,80,0|8,0:0|0:0,0:0:0:0:
232,176,132869,2,0,L|404:144,1,160,2|2,0:0|0:0,0:0:0:0:
460,300,133415,1,8,0:0:0:0:
492,192,133597,1,0,0:0:0:0:
388,236,133778,2,0,L|308:252,1,80,2|2,0:0|0:0,0:0:0:0:
460,300,134142,1,8,0:0:0:0:
460,300,134324,1,0,0:0:0:0:
312,160,134506,6,0,L|232:176,1,80,6|0,0:0|0:0,0:0:0:0:
160,260,134869,1,8,0:0:0:0:
252,384,135051,2,0,P|280:308|236:248,1,160,2|2,0:0|0:0,0:0:0:0:
132,284,135597,1,8,0:0:0:0:
152,176,135778,2,0,L|320:160,1,160,6|2,0:0|0:0,0:0:0:0:
416,196,136324,1,8,0:0:0:0:
360,336,136506,2,0,P|348:300|344:256,1,80,0|8,0:0|0:0,0:0:0:0:
488,144,136869,2,0,P|500:180|504:221,1,80,2|8,0:0|0:0,0:0:0:0:
344,260,137233,6,0,L|184:275,1,160,4|2,0:0|0:0,0:0:0:0:
108,164,137778,1,8,0:0:0:0:
104,300,137960,1,0,0:0:0:0:
188,192,138142,1,2,0:0:0:0:
56,228,138324,1,0,0:0:0:0:
184,276,138506,1,8,0:0:0:0:
108,164,138688,2,0,L|264:120,1,160,2|2,0:0|0:0,0:0:0:0:
364,208,139233,2,0,L|276:200,1,80,8|0,0:0|0:0,0:0:0:0:
256,44,139597,1,2,0:0:0:0:
340,88,139778,1,0,0:0:0:0:
424,44,139960,1,8,0:0:0:0:
448,172,140142,6,0,P|404:232|376:312,1,160,6|2,0:0|0:0,0:0:0:0:
308,244,140688,2,0,P|296:204|284:168,1,80,8|0,0:0|0:0,0:0:0:0:
212,320,141051,2,0,P|214:278|215:240,1,80,2|0,0:0|0:0,0:0:0:0:
192,148,141415,1,8,0:0:0:0:
0,292,141597,2,0,P|80:312|136:264,1,160,6|2,0:0|0:0,0:0:0:0:
152,148,142142,1,8,0:0:0:0:
48,92,142324,2,0,P|28:168|64:240,1,160,2|2,0:0|0:0,0:0:0:0:
204,220,142869,1,8,0:0:0:0:
152,148,143051,1,0,0:0:0:0:
212,320,143233,6,0,P|252:308|292:304,1,80,4|0,0:0|0:0,0:0:0:0:
320,312,143506,1,0,0:0:0:0:
320,312,143597,2,0,P|336:272|344:228,1,80,8|0,0:0|0:0,0:0:0:0:
280,156,143960,1,2,0:0:0:0:
384,148,144142,2,0,L|472:136,1,80,0|8,0:0|0:0,0:0:0:0:
404,28,144506,2,0,P|336:62|263:27,1,160,2|2,0:0|0:0,0:0:0:0:
198,157,145051,1,8,0:0:0:0:
321,235,145233,2,0,P|389:201|462:236,1,160,2|2,0:0|0:0,0:0:0:0:
365,342,145778,1,8,0:0:0:0:
244,344,145960,6,0,P|232:304|228:264,1,80,0|6,0:0|0:0,0:0:0:0:
320,236,146324,2,0,P|240:232|200:168,1,160
200,169,146778,1,2,0:0:0:0:
200,169,146869,1,2,0:0:0:0:
256,64,147051,1,2,0:0:0:0:
256,64,147142,1,2,0:0:0:0:
256,64,147233,1,2,0:0:0:0:
360,120,147415,1,2,0:0:0:0:
360,120,147506,1,2,0:0:0:0:
360,120,147597,6,0,L|440:120,1,80,4|0,0:0|0:0,0:0:0:0:
424,240,147960,2,0,P|392:264|364:296,1,80,8|0,0:0|0:0,0:0:0:0:
284,348,148324,1,2,0:0:0:0:
265,354,148414,1,0,0:0:0:0:
247,358,148505,1,0,0:0:0:0:
228,360,148596,1,0,0:0:0:0:
208,360,148688,2,0,P|168:344|128:332,1,80,8|0,0:0|0:0,0:0:0:0:
256,192,149051,12,4,151960,0:0:0:0:
256,192,163051,5,2,0:0:0:0:
172,240,163233,2,0,L|128:248,2,40,2|0|0,0:0|0:0|0:0,0:0:0:0:
324,260,163597,6,0,P|356:188|320:120,2,160,4|8|8,0:0|0:0|0:0,0:0:0:0:
256,192,164506,1,0,0:0:0:0:
272,344,164688,1,8,0:0:0:0:
324,260,164869,1,0,0:0:0:0:
172,240,165051,2,0,L|88:236,1,80,8|0,0:0|0:0,0:0:0:0:
272,344,165415,1,8,0:0:0:0:
272,344,165597,1,0,0:0:0:0:
176,328,165778,2,0,L|92:324,1,80,8|0,0:0|0:0,0:0:0:0:
252,244,166142,2,0,L|168:240,1,80,8|0,0:0|0:0,0:0:0:0:
36,192,166506,6,0,P|12:120|64:64,1,160,8|8,0:0|0:0,0:0:0:0:
172,184,167051,1,0,0:0:0:0:
176,80,167233,1,8,0:0:0:0:
88,136,167415,1,0,0:0:0:0:
172,184,167597,2,0,P|212:180|260:176,1,80,8|0,0:0|0:0,0:0:0:0:
368,288,167960,2,0,P|328:292|280:296,1,80,8|0,0:0|0:0,0:0:0:0:
288,295,168324,1,8,0:0:0:0:
356,196,168506,2,0,P|388:124|348:56,1,160,2|2,0:0|0:0,0:0:0:0:
288,128,169051,1,8,0:0:0:0:
220,60,169233,1,0,0:0:0:0:
244,220,169415,6,0,P|180:264|108:232,1,160,4|8,0:0|0:0,0:0:0:0:
112,116,169960,1,0,0:0:0:0:
172,192,170142,1,8,0:0:0:0:
52,176,170324,1,0,0:0:0:0:
172,192,170506,1,8,0:0:0:0:
188,72,170688,2,0,P|264:44|340:64,1,160,2|2,0:0|0:0,0:0:0:0:
376,152,171233,1,8,0:0:0:0:
444,84,171415,2,0,L|456:0,2,80,0|8|0,0:0|0:0|0:0,0:0:0:0:
376,152,171960,2,0,P|392:188|424:220,1,80,8|0,0:0|0:0,0:0:0:0:
320,292,172324,6,0,L|272:140,1,160,4|8,0:0|0:0,0:0:0:0:
208,312,172869,1,0,0:0:0:0:
208,312,173051,2,0,L|208:216,1,80,2|2,0:0|0:0,0:0:0:0:
88,328,173415,2,0,L|124:252,1,80,8|0,0:0|0:0,0:0:0:0:
152,124,173778,2,0,P|88:88|20:128,2,160,2|8|2,0:0|0:0|0:0,0:0:0:0:
152,252,174688,1,2,0:0:0:0:
24,232,174869,1,8,0:0:0:0:
88,160,175051,1,0,0:0:0:0:
248,168,175233,6,0,P|256:208|260:256,1,80,4|0,0:0|0:0,0:0:0:0:
164,332,175597,2,0,P|156:292|152:244,1,80,8|0,0:0|0:0,0:0:0:0:
316,116,175960,2,0,P|336:188|340:276,2,160,2|8|2,0:0|0:0|0:0,0:0:0:0:
204,40,176869,1,2,0:0:0:0:
248,168,177051,1,8,0:0:0:0:
288,40,177233,1,0,0:0:0:0:
180,120,177415,1,8,0:0:0:0:
155,130,177505,1,8,0:0:0:0:
129,135,177596,1,8,0:0:0:0:
102,134,177687,1,8,0:0:0:0:
76,126,177778,1,8,0:0:0:0:
56,20,177960,6,0,P|88:64|64:140,1,120.000004577637,2|0,0:0|0:0,0:0:0:0:
12,204,178506,2,0,L|24:264,1,60.0000022888184
124,240,178869,2,0,L|136:300,1,60.0000022888184,0|0,0:0|0:0,0:0:0:0:
236,324,179233,1,8,0:0:0:0:
228,224,179415,2,0,P|264:208|292:200,1,60.0000022888184
384,196,179778,1,0,0:0:0:0:
348,336,179960,2,0,L|340:260,1,60.0000022888184
452,92,180324,2,0,L|460:168,2,60.0000022888184,0|0|8,0:0|0:0|0:0,0:0:0:0:
368,32,180869,1,0,0:0:0:0:
300,108,181051,6,0,P|272:112|236:108,1,60.0000022888184,2|0,0:0|0:0,0:0:0:0:
120,216,181415,2,0,P|148:212|184:216,1,60.0000022888184,0|2,0:0|0:0,0:0:0:0:
312,304,181778,2,0,P|284:308|248:304,2,60.0000022888184,2|0|8,0:0|0:0|0:0,0:0:0:0:
300,108,182324,2,0,L|288:188,1,60.0000022888184,0|2,0:0|0:0,0:0:0:0:
376,224,182688,1,0,0:0:0:0:
444,300,182869,2,0,L|432:380,1,60.0000022888184,0|2,0:0|0:0,0:0:0:0:
448,152,183233,2,0,L|481:225,1,60.0000022888184,2|0,0:0|0:0,0:0:0:0:
376,48,183597,2,0,L|453:69,1,60.0000022888184,8|0,0:0|0:0,0:0:0:0:
376,224,183960,5,4,0:0:0:0:
324,136,184142,2,0,P|272:116|212:140,1,120.000004577637
176,212,184688,1,2,0:0:0:0:
176,212,184869,2,0,L|208:288,1,60.0000022888184,0|8,0:0|0:0,0:0:0:0:
64,168,185233,2,0,L|96:244,2,60.0000022888184,0|2|0,0:0|0:0|0:0,0:0:0:0:
116,60,185778,1,0,0:0:0:0:
64,168,185960,1,2,0:0:0:0:
176,212,186142,2,0,P|236:220|296:212,1,120.000004577637,0|8,0:0|0:0,0:0:0:0:
344,324,186688,1,0,0:0:0:0:
344,204,186869,6,0,L|340:152,1,30.0000011444092,4|0,0:0|0:0,0:0:0:0:
380,144,187051,2,0,P|428:120|500:112,1,120.000004577637
504,208,187597,1,0,0:0:0:0:
444,280,187778,2,0,P|448:316|448:344,1,60.0000022888184,0|8,0:0|0:0,0:0:0:0:
344,324,188142,1,0,0:0:0:0:
344,324,188324,2,0,P|340:288|340:260,1,60.0000022888184,2|0,0:0|0:0,0:0:0:0:
400,188,188688,1,8,0:0:0:0:
448,104,188869,2,0,L|380:100,1,60.0000022888184,0|8,0:0|0:0,0:0:0:0:
292,64,189233,2,0,L|272:36,4,20,4|0|0|0|8,0:0|0:0|0:0|0:0|0:0,0:0:0:0:
252,160,189597,6,0,P|192:196|104:168,1,160,4|2,0:0|0:0,0:0:0:0:
20,120,190142,2,0,P|32:164|32:204,1,80,8|0,0:0|0:0,0:0:0:0:
116,260,190506,2,0,P|93:299|65:327,2,80,2|2|8,0:0|0:0|0:0,0:0:0:0:
208,308,191051,2,0,P|268:272|356:300,1,160,2|2,0:0|0:0,0:0:0:0:
432,364,191597,1,8,0:0:0:0:
432,364,191778,1,0,0:0:0:0:
464,224,191960,1,2,0:0:0:0:
364,120,192142,2,0,L|376:212,1,80,2|8,0:0|0:0,0:0:0:0:
428,64,192506,6,0,P|360:32|288:76,1,160,6|2,0:0|0:0,0:0:0:0:
292,168,193051,2,0,L|304:260,1,80,8|0,0:0|0:0,0:0:0:0:
256,332,193415,2,0,P|188:364|116:320,1,160,2|8,0:0|0:0,0:0:0:0:
107,173,193960,2,0,B|139:221|107:281|107:281|123:333,1,160,6|2,0:0|0:0,0:0:0:0:
40,224,194506,1,8,0:0:0:0:
128,92,194688,2,0,P|168:80|216:80,1,80,0|2,0:0|0:0,0:0:0:0:
256,160,195051,1,0,0:0:0:0:
292,20,195233,1,8,0:0:0:0:
356,148,195415,1,0,0:0:0:0:
248,244,195597,6,0,L|192:244,1,40,4|0,0:0|0:0,0:0:0:0:
180,228,195778,2,0,P|168:268|164:312,1,80,0|8,0:0|0:0,0:0:0:0:
272,336,196142,2,0,P|332:348|424:320,1,160,2|2,0:0|0:0,0:0:0:0:
444,224,196688,1,8,0:0:0:0:
352,252,196869,2,0,L|344:84,1,160,2|2,0:0|0:0,0:0:0:0:
436,116,197415,1,8,0:0:0:0:
436,116,197597,1,0,0:0:0:0:
264,136,197778,2,0,L|260:52,1,80,2|0,0:0|0:0,0:0:0:0:
436,116,198142,1,8,0:0:0:0:
352,252,198324,1,0,0:0:0:0:
212,176,198506,6,0,L|208:92,1,80,6|0,0:0|0:0,0:0:0:0:
356,156,198869,1,8,0:0:0:0:
164,220,199051,2,0,L|160:136,1,80,0|8,0:0|0:0,0:0:0:0:
260,264,199415,2,0,B|244:328|168:328|168:328|136:360,1,160,4|2,0:0|0:0,0:0:0:0:
32,308,199960,1,2,0:0:0:0:
164,220,200142,1,0,0:0:0:0:
142,355,200324,1,8,0:0:0:0:
164,220,200506,1,0,0:0:0:0:
28,208,200688,1,2,0:0:0:0:
22,181,200778,1,0,0:0:0:0:
19,155,200869,1,0,0:0:0:0:
21,128,200960,1,0,0:0:0:0:
27,102,201051,2,0,P|40:64|60:28,1,80,8|0,0:0|0:0,0:0:0:0:
256,192,201415,12,4,204324,0:0:0:0:
256,192,204869,5,0,0:0:0:0:
256,192,205051,2,0,P|216:188|168:192,1,80,2|0,0:0|0:0,0:0:0:0:
252,304,205778,2,0,P|312:316|372:312,1,120,4|0,0:0|0:0,0:0:0:0:
440,264,206506,2,0,L|456:172,1,80,2|0,0:0|0:0,0:0:0:0:
380,28,207233,2,0,L|432:20,2,40,2|2|0,0:0|0:0|0:0,0:0:0:0:
256,80,207960,1,2,0:0:0:0:
344,184,208324,2,0,L|336:224,2,40,2|0|2,0:0|0:0|0:0,0:0:0:0:
256,208,208869,2,0,L|248:248,1,40,2|0,0:0|0:0,0:0:0:0:
412,280,209233,2,0,L|432:152,1,120,0|8,0:0|0:0,0:0:0:0:
260,56,210142,5,2,0:0:0:0:
260,56,210324,2,0,L|172:40,1,80,2|0,0:0|0:0,0:0:0:0:
124,100,210869,2,0,P|132:144|124:188,1,80,2|2,0:0|0:0,0:0:0:0:
32,308,211597,1,2,0:0:0:0:
32,308,211778,1,2,0:0:0:0:
32,308,212142,2,0,P|24:248|32:188,1,120,0|8,0:0|0:0,0:0:0:0:
96,44,213051,5,2,0:0:0:0:
96,44,213233,1,2,0:0:0:0:
96,44,213778,2,0,L|184:40,1,80,2|2,0:0|0:0,0:0:0:0:
300,144,214506,1,2,0:0:0:0:
300,144,214688,1,2,0:0:0:0:
300,144,215051,2,0,L|212:148,1,80
160,200,215597,1,8,0:0:0:0:
184,276,215778,1,0,0:0:0:0:
256,192,215960,12,4,218869,0:0:0:0:
256,192,218960,12,0,224688,0:0:0:0:
