osu file format v9

[General]
AudioFilename: guruppo.mp3
AudioLeadIn: 2000
PreviewTime: 56331
Countdown: 0
SampleSet: Normal
StackLeniency: 0.7
Mode: 0
LetterboxInBreaks: 1

[Editor]
DistanceSpacing: 1
BeatDivisor: 4
GridSize: 8

[Metadata]
Title:Guruppo (Short Ver.)
Artist:Barbarian On The Groove feat. Chata
Creator:Hinacle
Version:Easy
Source:Like a Butler
Tags:Aenna Cyborg KanaRin AXL

[Difficulty]
HPDrainRate:3
CircleSize:3
OverallDifficulty:2
ApproachRate:3
SliderMultiplier:0.8
SliderTickRate:0.5

[Events]
//Background and Video events
Video,0,"op.flv"
0,0,"BG.jpg"
//Break Periods
//Storyboard Layer 0 (Background)
//Storyboard Layer 1 (Fail)
//Storyboard Layer 2 (Pass)
//Storyboard Layer 3 (Foreground)
//Storyboard Sound Samples
//Background Colour Transformations
3,100,163,162,255

[TimingPoints]
405,333.333333333333,4,1,1,40,1,0
10988,-100,4,1,1,50,0,0
22321,-100,4,1,1,50,0,0
42488,-100,4,1,1,40,0,0
50821,-100,4,1,1,50,0,0
52154,-100,4,1,1,55,0,0
56404,-100,4,1,1,60,0,1
88154,-100,4,1,1,50,0,0

[Colours]
Combo1 : 255,255,181
Combo2 : 255,128,255
Combo3 : 3,223,241
Combo4 : 173,252,41

[HitObjects]
280,112,405,2,0,B|360:96|448:112,1,160,4|2
440,272,1738,2,0,B|360:288|272:272,1,160,0|2
120,272,3071,5,4
48,128,3738,1,2
192,56,4404,1,0
264,200,5071,1,2
424,200,5738,6,0,B|448:120|424:32,1,160,4|2
264,40,7071,2,0,B|184:64|96:40,1,160,0|2
256,192,8404,12,4,10904
200,72,11738,6,8,B|120:48|32:72,2,160,8|0|8
320,72,13571,2,0,B|408:72|496:136|408:208|320:208,1,280,4|0
248,216,15071,2,0,B|160:216|72:280|160:352|248:352,1,280,4|0
360,344,16738,5,2
440,344,17071,2,0,B|464:264|440:176,2,160,8|0|8
320,344,18905,6,0,B|184:368|40:344,1,280,4|0
40,264,20404,2,0,B|176:240|320:264,1,280,4|4
416,88,22404,5,8
256,88,23071,1,0
96,88,23738,1,8
96,248,24404,6,0,B|96:344|208:344,1,160,0|8
360,344,25738,1,0
360,184,26404,1,8
232,88,27071,6,0,B|152:72|72:88,1,160,0|8
72,248,28404,1,0
232,248,29071,1,8
392,248,29738,6,0,B|416:168|392:80,1,160,0|8
248,32,31071,2,0,B|224:112|248:200,1,160,0|8
248,312,32238,6,0,B|152:368|56:312,1,200,4|8
152,184,33738,1,0
64,48,34404,1,8
224,48,35071,6,0,B|384:48,1,160,0|8
480,176,36404,2,0,B|312:176,1,160,0|8
160,176,37738,6,0,B|48:176|80:280,1,160,4|8
224,344,39071,1,0
376,296,39738,1,8
256,192,40238,12,0,42405
256,112,43071,5,4
96,112,43738,1,0
96,272,44405,2,0,B|96:352,2,80,2|0|2
256,272,45738,5,0
416,272,46405,1,0
416,112,47071,2,0,B|416:32,2,80,2|0|2
256,112,48405,6,0,B|176:96|88:112,1,160,4|0
96,272,49738,2,0,B|96:352,2,80,2|0|2
216,272,50905,6,0,B|296:296|376:272,1,160,4|0
376,112,52238,2,0,B|296:88|216:112,1,160,4|0
256,192,53571,12,0,55738
256,296,56405,5,4
136,192,57071,1,8
256,88,57738,1,0
376,192,58405,1,8
376,352,59071,6,0,B|216:352,1,160,0|8
56,352,60405,2,0,B|56:192,1,160,0|8
152,64,61738,5,4
312,64,62405,1,8
440,160,63071,2,0,B|472:240|440:328,1,160,0|8
280,320,64405,5,0
120,320,65071,1,8
120,200,65571,2,0,B|120:104|240:104,1,160,4|0
384,104,66905,6,0,B|432:200|384:304,1,200,4|8
224,296,68405,1,0
64,296,69071,1,8
64,136,69738,6,0,B|104:56|200:56,1,160,0|8
352,56,71071,1,0
352,216,71738,1,8
192,216,72405,6,0,B|112:240|32:216,1,160,4|8
32,56,73738,1,0
192,56,74405,1,8
352,56,75071,6,0,B|384:136|352:216,1,160,0|8
232,216,76238,2,0,B|232:304,1,80,4|8
152,296,76905,2,0,B|72:296,1,80,4|8
72,216,77571,6,0,B|72:88,1,120,4|8
152,96,78405,1,0
272,96,78904,6,0,B|400:96,1,120,4|8
472,96,79738,1,0
472,216,80238,6,0,B|472:336,1,120,4|8
392,336,81071,1,0
272,336,81571,2,0,B|192:360|112:304,1,160,4|0
96,152,82904,6,0,B|152:64|280:104,1,200,4|8
392,120,84238,2,0,B|456:216|392:320,1,200,4|8
280,312,85571,6,0,B|80:312,1,200,4|8
80,192,86904,2,0,B|280:192,1,200,4|8
256,192,88238,12,4,90904
256,112,91738,5,8
96,112,92404,1,0
96,272,93071,1,8
216,272,93571,6,0,B|312:312|416:272,1,200,4|8
416,152,94904,2,0,B|320:112|216:152,1,200,4|8
104,160,96238,6,0,B|56:256|104:360,1,200,4|8
224,352,97571,2,0,B|320:304|424:352,1,200,4|8
456,232,98904,6,0,B|480:152|456:72,1,160,4|0
296,72,100238,2,0,B|216:48|136:72,1,160,4|0
136,232,101571,2,0,B|216:256|296:232,1,160,4|0
432,152,102904,2,0,B|456:224|432:312,2,160,0|0|4
