osu file format v11

[General]
AudioFilename: Eroiko.mp3
AudioLeadIn: 1500
PreviewTime: 54586
Countdown: 1
SampleSet: Normal
StackLeniency: 0.7
Mode: 0
LetterboxInBreaks: 1

[Editor]
DistanceSpacing: 1.2
BeatDivisor: 4
GridSize: 8

[Metadata]
Title:Eroiko
TitleUnicode:
Artist:Chata
ArtistUnicode:
Creator:remy11
Version:Insane
Source:
Tags:
BeatmapID:162020
BeatmapSetID:53099

[Difficulty]
HPDrainRate:7
CircleSize:4
OverallDifficulty:7
ApproachRate:9
SliderMultiplier:1.8
SliderTickRate:1

[Events]
//Background and Video events
0,0,"BG.jpg"
//Break Periods
//Storyboard Layer 0 (Background)
//Storyboard Layer 1 (Fail)
//Storyboard Layer 2 (Pass)
//Storyboard Layer 3 (Foreground)
//Storyboard Sound Samples
//Background Colour Transformations
3,100,163,162,255

[TimingPoints]
1060,315.789473684211,4,1,0,60,1,0
54586,-100,4,1,0,70,0,1
80007,-100,4,1,0,60,0,0

[Colours]
Combo1 : 250,242,95
Combo2 : 255,128,192
Combo3 : 128,255,128
Combo4 : 255,128,64

[HitObjects]
392,112,1060,1,8,0:0:0
456,232,1217,2,0,B|456:288|384:336|320:304,1,180,4|0,0:0|0:0,0:0:0
224,264,1691,2,0,B|208:312|152:320,1,90
152,208,2007,2,0,B|168:160|224:152,1,90
328,168,2323,2,0,B|376:184|384:240,1,90
288,280,2638,6,0,B|352:352,2,90
176,280,3112,2,0,B|112:352,2,90
232,184,3586,1,8,0:0:0
232,184,3744,1,0,0:0:0
136,128,3902,6,0,B|208:72,1,90
304,128,4217,2,0,B|232:184,1,90
112,80,4533,2,0,B|208:72,1,90
320,176,4849,2,0,B|224:184,1,90
128,224,5165,5,0,0:0:0
128,224,5323,1,0,0:0:0
64,344,5481,1,0,0:0:0
64,344,5638,1,0,0:0:0
200,344,5796,2,0,B|296:344,1,90
400,344,6112,5,8,0:0:0
400,344,6191,1,0,0:0:0
400,344,6270,2,0,B|496:312|480:200,1,180,4|0,0:0|0:0,0:0:0
432,104,6744,1,0,0:0:0
328,136,6902,1,0,0:0:0
248,56,7060,1,0,0:0:0
176,136,7217,1,0,0:0:0
72,168,7375,1,0,0:0:0
136,256,7533,1,0,0:0:0
240,272,7691,6,0,B|328:296,1,90
384,224,8007,2,0,B|296:200,1,90
232,320,8323,2,0,B|184:328|144:296,1,90
160,120,8638,2,0,B|208:112|248:144,1,90,8|0,0:0|0:0,0:0:0
349,112,8954,5,0,0:0:0
408,200,9112,1,0,0:0:0
368,296,9270,1,8,0:0:0
264,312,9428,1,0,0:0:0
310,214,9586,5,0,0:0:0
216,160,9744,1,0,0:0:0
120,200,9902,1,8,0:0:0
104,304,10060,1,0,0:0:0
200,248,10217,6,0,B|271:179,1,90,2|0,0:0|0:0,0:0:0
200,248,10533,2,0,B|152:152,1,90,10|0,0:0|0:0,0:0:0
216,160,10849,1,0,0:0:0
217,146,10928,1,0,0:0:0
219,132,11007,1,0,0:0:0
221,118,11086,1,0,0:0:0
222,105,11165,1,10,0:0:0
225,91,11244,1,0,0:0:0
227,77,11323,2,0,B|339:61|371:165,1,180,4|0,0:0|0:0,0:0:0
446,233,11796,5,2,0:0:0
446,233,11954,1,0,0:0:0
401,331,12112,1,0,0:0:0
401,331,12270,1,0,0:0:0
301,288,12428,1,2,0:0:0
301,288,12586,1,0,0:0:0
197,256,12744,6,0,B|119:308,1,90
31,246,13060,2,0,B|109:194,1,90,2|0,0:0|0:0,0:0:0
211,173,13375,1,0,0:0:0
192,40,13533,1,0,0:0:0
84,124,13691,1,2,0:0:0
108,120,13770,1,0,0:0:0
130,117,13849,2,0,B|314:88,1,180,4|0,0:0|0:0,0:0:0
416,96,14323,6,0,B|467:80|481:24,1,90,2|0,0:0|0:0,0:0:0
400,176,14638,2,0,B|496:176,1,90
416,256,14954,2,0,B|467:272|481:328,1,90,2|0,0:0|0:0,0:0:0
368,344,15270,5,0,0:0:0
256,344,15428,1,0,0:0:0
192,256,15586,2,0,B|141:272|127:328,1,90,2|0,0:0|0:0,0:0:0
40,256,15902,2,0,B|40:168,1,90
96,72,16217,5,2,0:0:0
96,72,16296,1,0,0:0:0
96,72,16375,2,0,B|176:32|272:48,1,180,4|0,0:0|0:0,0:0:0
368,96,16849,2,0,B|416:112|432:168,1,90,2|0,0:0|0:0,0:0:0
448,264,17165,2,0,B|432:312|386:324,1,90
251,309,17481,2,0,B|264:264|312:248,1,90,2|0,0:0|0:0,0:0:0
144,325,17796,6,0,B|56:325,2,90,0|0|2,0:0|0:0|0:0,0:0:0
216,240,18270,2,0,B|264:160,2,90
104,232,18744,1,2,0:0:0
104,232,18902,2,0,B|144:168|128:104|64:72,1,180,4|0,0:0|0:0,0:0:0
32,176,19375,5,2,0:0:0
208,176,19533,1,0,0:0:0
288,112,19691,2,0,B|264:72|216:64,2,90,0|0|2,0:0|0:0|0:0,0:0:0
400,104,20165,5,0,0:0:0
256,336,20481,1,0,0:0:0
120,104,20796,1,0,0:0:0
256,224,21112,2,0,B|256:128,2,90,0|0|4,0:0|0:0|0:0,0:0:0
416,72,21744,5,0,0:0:0
360,168,21902,1,8,0:0:0
400,272,22060,1,0,0:0:0
328,352,22217,1,0,0:0:0
328,352,22375,2,0,B|296:312|240:320,1,90,0|8,0:0|0:0,0:0:0
144,336,22691,6,0,B|88:336|40:264|72:200,1,180,0|0,0:0|0:0,0:0:0
176,184,23165,1,8,0:0:0
64,104,23323,1,0,0:0:0
168,88,23481,1,0,0:0:0
168,88,23560,1,0,0:0:0
168,88,23638,2,0,B|208:56|256:48,1,90,0|8,0:0|0:0,0:0:0
288,152,23954,6,0,B|336:176|376:144|376:144|448:192,1,180
466,204,24349,1,0,0:0:0
484,216,24428,1,8,0:0:0
421,304,24586,1,0,0:0:0
421,304,24744,2,0,B|333:352|249:286,1,180,0|8,0:0|0:0,0:0:0
152,256,25217,6,0,B|98:268|57:235,1,90,2|0,0:0|0:0,0:0:0
184,176,25533,2,0,B|232:192|279:155,1,90,2|8,0:0|0:0,0:0:0
216,64,25849,2,2,B|299:24|395:45,1,180
391,44,26244,1,0,0:0:0
391,44,26323,1,10,0:0:0
152,264,26796,6,0,B|128:304|64:312,2,90,0|8|0,0:0|0:0|0:0,0:0:0
184,160,27270,1,0,0:0:0
280,120,27428,1,0,0:0:0
184,216,27586,1,8,0:0:0
296,72,27744,2,0,B|256:40|208:40,1,90
104,56,28060,1,0,0:0:0
40,144,28217,1,8,0:0:0
144,176,28375,2,0,B|152:224|104:256,1,90
108,253,28691,1,0,0:0:0
312,320,29007,6,0,B|416:352|480:264,1,180
488,168,29481,2,0,B|480:112|432:96,1,90,8|0,0:0|0:0,0:0:0
336,64,29796,2,0,B|280:72|264:120,1,90
264,224,30112,1,8,0:0:0
264,224,30270,2,2,B|200:288|96:264,1,180
240,104,30902,2,2,B|304:40|408:64,1,180
256,192,31533,12,0,34060,0:0:0
96,88,34375,5,8,0:0:0
152,208,34533,1,8,0:0:0
72,312,34691,1,8,0:0:0
184,312,34849,2,0,B|272:312,1,90
384,312,35165,2,0,B|456:248,1,90
408,152,35481,6,0,B|432:104|488:96,2,90
296,152,35954,2,0,B|248:128|240:72,2,90
352,240,36428,1,0,0:0:0
352,352,36586,1,8,0:0:0
128,120,36902,5,8,0:0:0
248,64,37060,1,8,0:0:0
352,144,37218,1,8,0:0:0
304,240,37375,2,0,B|344:272|392:272,1,90
448,184,37691,1,0,0:0:0
432,80,37849,1,0,0:0:0
320,80,38007,5,0,0:0:0
248,160,38165,2,0,B|200:144|184:88,2,90
328,232,38638,1,0,0:0:0
328,232,38796,2,0,B|304:320|200:344,1,180,0|8,0:0|0:0,0:0:0
136,136,39428,6,0,B|112:96|64:80,2,90
232,192,39902,1,0,0:0:0
304,112,40060,1,0,0:0:0
296,248,40217,1,0,0:0:0
216,112,40375,1,0,0:0:0
128,48,40533,6,0,B|72:48|40:88,1,90,2|0,0:0|0:0,0:0:0
32,184,40849,2,0,B|32:240|72:272,1,90,2|0,0:0|0:0,0:0:0
160,216,41165,2,0,B|216:216|248:256,1,90,2|0,0:0|0:0,0:0:0
320,328,41481,1,2,0:0:0
320,328,41560,1,2,0:0:0
320,328,41638,1,2,0:0:0
256,192,41717,12,0,44165,0:0:0
112,104,44481,6,0,B|152:80|208:88,1,90
198,86,44796,1,0,0:0:0
232,192,44954,2,0,B|272:216|320:208,1,90
424,176,45270,2,0,B|448:136|440:88,1,90
328,88,45586,2,0,B|304:176|392:248,1,180
389,245,46060,1,0,0:0:0
328,328,46217,6,0,B|368:352|416:352,2,90
240,264,46691,2,2,B|184:344|80:320,1,180
32,224,47165,2,0,B|32:176|88:152,1,90,2|0,0:0|0:0,0:0:0
184,192,47481,2,0,B|232:192|256:136,1,90,2|0,0:0|0:0,0:0:0
208,48,47796,5,2,0:0:0
208,48,47954,2,2,B|296:16|384:64,1,180
448,152,48428,2,0,B|488:184|480:240,1,90,2|0,0:0|0:0,0:0:0
440,328,48744,2,0,B|408:368|352:360,1,90,2|0,0:0|0:0,0:0:0
256,328,49060,1,2,0:0:0
256,328,49138,1,0,0:0:0
256,328,49217,1,0,0:0:0
168,264,49375,5,4,0:0:0
168,264,49533,2,0,B|232:192|344:216,1,180
384,120,50007,1,0,0:0:0
288,64,50165,1,0,0:0:0
192,112,50323,5,0,0:0:0
192,112,50481,2,0,B|256:184|368:160,1,180,4|0,0:0|0:0,0:0:0
392,264,50954,1,0,0:0:0
312,336,51112,1,0,0:0:0
208,320,51270,2,0,B|152:328|120:368,2,90
408,232,51902,5,0,0:0:0
408,232,52060,2,0,B|344:160|232:184,1,180,4|0,0:0|0:0,0:0:0
144,152,52533,1,0,0:0:0
144,152,52691,2,0,B|208:80|320:104,1,180,0|4,0:0|0:0,0:0:0
488,216,53323,1,0,0:0:0
312,336,53638,2,0,B|220:366|135:289,1,180,4|0,0:0|0:0,0:0:0
144,297,54112,1,0,0:0:0
424,128,54586,5,0,0:0:0
424,128,54744,2,0,B|352:72|248:88,1,180
144,104,55217,2,2,B|88:104|56:64,2,90
248,296,55849,1,0,0:0:0
352,336,56007,1,0,0:0:0
456,304,56165,1,0,0:0:0
488,200,56323,2,0,B|464:160|408:152,1,90,0|2,0:0|0:0,0:0:0
414,153,56560,1,0,0:0:0
414,153,56638,1,2,0:0:0
304,136,56796,1,2,0:0:0
120,248,57112,6,0,B|96:288|48:296,2,90
80,144,57586,1,0,0:0:0
184,128,57744,1,0,0:0:0
272,64,57902,1,0,0:0:0
376,80,58060,6,2,B|424:96|440:152,1,90,2|0,0:0|0:0,0:0:0
432,248,58375,1,2,0:0:0
432,248,58533,2,2,B|376:320|264:296,1,180
224,200,59007,1,0,0:0:0
136,304,59165,1,0,0:0:0
72,184,59323,2,2,B|96:96|200:72,1,180
304,64,59796,1,0,0:0:0
272,192,59954,1,0,0:0:0
192,264,60112,6,2,B|232:352|336:360,1,180
392,264,60586,2,2,B|448:280|464:328,2,90
296,216,61060,1,0,0:0:0
248,120,61217,1,0,0:0:0
144,88,61375,2,2,B|96:80|56:120,1,90
56,224,61691,5,2,0:0:0
56,224,61849,2,2,B|152:240|224:168,1,180
216,64,62323,1,2,0:0:0
216,64,62481,2,2,B|312:48|384:120,1,180
440,208,62954,1,0,0:0:0
368,288,63112,1,0,0:0:0
264,280,63270,6,0,B|184:328,1,90,2|0,0:0|0:0,0:0:0
288,232,63586,2,0,B|286:138,1,90,2|0,0:0|0:0,0:0:0
240,240,63902,1,0,0:0:0
230,234,63981,1,0,0:0:0
220,229,64060,1,0,0:0:0
210,223,64138,1,0,0:0:0
200,218,64217,1,2,0:0:0
94,195,64375,2,0,B|59:227,2,45
142,97,64691,5,0,0:0:0
142,97,64849,2,0,B|212:39|318:59,1,180
376,144,65323,1,2,0:0:0
468,87,65481,1,2,0:0:0
432,216,65638,1,2,0:0:0
248,328,65954,5,0,0:0:0
200,232,66112,1,0,0:0:0
96,200,66270,1,0,0:0:0
152,104,66428,2,0,B|172:62|220:50,1,90,0|2,0:0|0:0,0:0:0
328,32,66744,1,2,0:0:0
384,160,66902,1,2,0:0:0
168,152,67217,6,0,B|112:144|96:104,2,90
272,184,67691,2,0,B|328:192|344:232,2,90
184,248,68165,2,2,B|200:344|320:352,1,180
408,304,68638,1,2,0:0:0
408,304,68796,1,2,0:0:0
448,208,68954,6,2,B|480:120,2,90
368,136,69428,2,2,B|320:56|208:80,1,180
176,184,69902,1,0,0:0:0
80,240,70060,1,0,0:0:0
136,336,70217,6,2,B|240:360|312:304,1,180
376,224,70691,2,2,B|308:171|204:195,1,180
96,224,71165,1,0,0:0:0
168,336,71323,1,0,0:0:0
288,280,71481,2,2,B|344:288|368:320,2,90
256,192,71954,12,0,74481,0:0:0
64,96,75270,6,2,B|144:48|240:56,1,180
236,55,75744,1,0,0:0:0
336,88,75902,2,0,B|384:96|400:144,1,90,2|0,0:0|0:0,0:0:0
408,248,76217,2,0,B|400:296|352:312,1,90,2|0,0:0|0:0,0:0:0
248,288,76533,6,2,B|200:304|168:344,2,90
328,208,77007,2,2,B|248:160|152:208,1,180
80,280,77481,1,0,0:0:0
32,184,77638,1,0,0:0:0
80,88,77796,1,2,0:0:0
192,88,77954,1,2,0:0:0
288,48,78112,1,2,0:0:0
376,112,78270,6,2,B|464:152|472:256,1,180
392,328,78744,1,0,0:0:0
296,288,78902,1,0,0:0:0
192,312,79060,2,2,B|104:312,2,90
224,208,79533,2,2,B|256:120|360:96,1,180,6|2,0:0|0:0,0:0:0
456,136,80007,5,8,0:0:0
440,240,80165,1,0,0:0:0
336,216,80323,1,0,0:0:0
288,312,80481,1,0,0:0:0
184,312,80638,2,0,B|136:320|96:296,1,90,8|0,0:0|0:0,0:0:0
40,200,80954,6,0,B|32:152|56:112,1,90
144,48,81270,2,0,B|192:40|232:64,1,90,8|0,0:0|0:0,0:0:0
320,120,81586,2,2,B|368:104|384:56,2,90,2|2|10,0:0|0:0|0:0,0:0:0
312,232,82060,6,0,B|280:320|160:304,1,180,4|0,0:0|0:0,0:0:0
80,240,82533,2,0,B|80:144,1,90,8|0,0:0|0:0,0:0:0
176,104,82849,2,0,B|176:200,1,90
144,304,83165,6,0,B|76:236,1,90,8|0,0:0|0:0,0:0:0
176,192,83481,2,0,B|243:259,1,90
336,304,83796,2,0,B|424:304,1,90,8|0,0:0|0:0,0:0:0
456,200,84112,2,2,B|368:200,2,90,2|2|10,0:0|0:0|0:0,0:0:0
456,312,84586,6,0,B|376:352|280:304,1,180,4|0,0:0|0:0,0:0:0
328,208,85060,2,0,B|304:168|256:152,1,90,8|0,0:0|0:0,0:0:0
168,96,85375,2,0,B|192:56|236:41,1,90
345,41,85691,2,0,B|389:55|413:95,1,90,8|0,0:0|0:0,0:0:0
425,203,86007,5,0,0:0:0
320,200,86165,1,0,0:0:0
318,286,86323,1,8,0:0:0
318,286,86481,1,0,0:0:0
211,275,86638,2,2,B|161:283|131:311,2,90,2|2|10,0:0|0:0|0:0,0:0:0
263,179,87112,6,0,B|233:85|112:90,1,180,4|0,0:0|0:0,0:0:0
32,144,87586,1,8,0:0:0
104,224,87744,1,0,0:0:0
208,184,87902,1,0,0:0:0
200,80,88060,1,0,0:0:0
96,56,88217,1,8,0:0:0
32,144,88375,1,0,0:0:0
32,256,88533,6,0,B|96:320,1,90
208,320,88849,2,0,B|296:320,1,90,8|0,0:0|0:0,0:0:0
408,320,89165,1,0,0:0:0
416,312,89244,1,0,0:0:0
424,304,89323,1,0,0:0:0
432,296,89402,1,0,0:0:0
440,288,89481,1,8,0:0:0
448,280,89560,1,0,0:0:0
456,272,89638,1,0,0:0:0
464,264,89717,1,0,0:0:0
472,256,89796,6,2,B|448:160|344:144,1,180,2|10,0:0|0:0,0:0:0
256,200,90270,1,2,0:0:0
160,152,90428,1,2,0:0:0
80,224,90586,1,2,0:0:0
120,328,90744,2,0,B|88:368,2,45,8|0|0,0:0|0:0|0:0,0:0:0
224,304,91060,6,2,B|308:354|393:292,1,180,2|10,0:0|0:0,0:0:0
456,208,91533,2,2,B|480:160|472:112,2,90
352,168,92007,1,8,0:0:0
248,128,92165,1,0,0:0:0
144,152,92323,1,0,0:0:0
256,192,92481,12,4,95638,0:0:0
