osu file format v9

[General]
AudioFilename: Dolphins.mp3
AudioLeadIn: 1500
PreviewTime: 54460
Countdown: 0
SampleSet: Normal
StackLeniency: 0.7
Mode: 0
LetterboxInBreaks: 0

[Editor]
DistanceSpacing: 1
BeatDivisor: 4
GridSize: 4

[Metadata]
Title:Eroiko (Short Ver.)
Artist:Chata
Creator:hoLysoup
Version:Normal
Source:Dolphin Divers
Tags:merchat7 cRyo cRyo[iceeicee] eroge opening axl

[Difficulty]
HPDrainRate:4
CircleSize:3
OverallDifficulty:4
ApproachRate:5
SliderMultiplier:1.2
SliderTickRate:1

[Events]
//Background and Video events
0,0,"BG.jpg"
Video,0,"video.avi"
//Break Periods
//Storyboard Layer 0 (Background)
//Storyboard Layer 1 (Fail)
//Storyboard Layer 2 (Pass)
//Storyboard Layer 3 (Foreground)
//Storyboard Sound Samples
//Background Colour Transformations
3,100,163,162,255

[TimingPoints]
126,315.789473684211,4,1,0,60,1,0
1146,-100,4,2,1,70,0,0
1304,-100,4,2,1,60,0,0
11253,-100,4,2,1,70,0,0
11411,-100,4,2,1,60,0,0
21359,-100,4,2,1,70,0,0
21517,-100,4,2,1,60,0,0
33992,-100,4,2,1,70,0,0
34150,-100,4,2,1,60,0,0
54441,-100,4,2,1,80,0,1
60521,-100,4,2,1,45,0,1
60679,-100,4,2,1,80,0,1
62494,-100,4,2,1,60,0,1
62573,-100,4,2,1,80,0,1
63126,-100,4,2,1,60,0,1
63205,-100,4,2,1,80,0,1
63757,-100,4,2,1,60,0,1
63837,-100,4,2,1,80,0,1
79547,-100,4,2,1,60,0,0
92660,333.333333333333,4,2,1,60,1,0
93326,352.941176470588,4,2,1,60,1,0
94031,410.958904109589,4,2,1,60,1,0
94853,431.654676258993,4,2,1,60,1,0
95716,400,4,2,1,60,1,0

[Colours]
Combo1 : 240,81,81
Combo2 : 172,251,202
Combo3 : 170,170,255
Combo4 : 175,210,254

[HitObjects]
76,264,1231,2,0,B|24:244|24:136|80:112,1,180,4|2
196,112,2020,2,0,B|320:112,1,120,2|0
436,112,2652,2,0,B|488:132|488:240|432:264,2,180,2|2|2
316,112,3915,6,0,B|196:112,2,120,0|2|2
404,192,4862,1,0
316,276,5178,2,0,B|212:304|160:208,2,180,2|2|10
404,192,6441,6,0,B|432:132|416:72,1,120,0|2
304,28,7073,2,0,B|276:88|292:148,1,120,2|0
304,264,7704,2,0,B|112:264,2,180,2|2|2
424,264,8968,6,0,B|464:212|464:148,1,120,0|10
392,56,9599,2,0,B|352:108|352:172,1,120,2|8
332,288,10231,2,0,B|348:353|424:384|500:336,2,180,2|2|8
160,260,11494,6,0,B|104:228|96:160,1,120,0|8
136,52,12126,2,0,B|192:84|200:152,1,120,0|8
284,232,12757,2,0,B|376:204|388:80,2,180,2|2|2
220,336,14020,6,0,B|96:336,1,120,0|8
44,232,14652,2,0,B|168:232,1,120,0|8
284,228,15283,2,0,B|324:148|304:48,2,180,2|2|10
196,148,16547,6,0,B|76:148,2,120,0|8|0
316,148,17494,1,8
316,148,17810,2,0,B|364:232|324:328,2,180,2|2|10
240,56,19073,6,0,B|120:56,2,120,0|8|0
360,56,20020,2,0,B|428:56,1,60,8|8
256,300,21441,6,0,B|68:300,1,180,4|8
28,192,22231,2,0,B|24:120|64:80,1,120,0|8
180,52,22862,2,0,B|184:124|144:164,1,120,0|8
228,248,23494,2,0,B|176:280|168:352,1,120,0|8
288,348,24126,6,0,B|412:348,1,120,0|8
468,244,24757,2,0,B|492:148|472:60,2,180,0|8|8
348,248,26020,2,0,B|160:248,1,180,0|4
72,96,26968,5,8
72,96,27283,2,0,B|196:96,1,120,0|8
256,96,27757,2,0,B|304:112|348:96|348:96|396:80|444:96,2,180,2|8|0
228,212,29020,2,0,B|180:196|136:212|136:212|88:228|40:212,2,180,2|8|0
320,292,30283,6,0,B|364:248|388:176,2,120,8|8|8
200,292,31231,2,0,B|76:292,1,120,8|4
256,192,31704,12,8,32968
344,312,34073,6,0,B|428:264|444:152,1,180,4|8
404,52,34862,2,0,B|272:76,1,120,0|8
220,172,35494,2,0,B|352:148,1,120,0|8
440,216,36126,2,0,B|248:252,2,180,2|4|8
416,100,37389,6,0,B|376:48|312:44,1,120,0|8
196,44,38020,2,0,B|134:47|94:99,1,120,0|8
168,196,38652,2,0,B|356:196,2,180,2|4|8
124,308,39915,6,0,B|56:292|52:220,1,120,0|8
52,104,40547,2,0,B|55:35|123:19,1,120,0|8
164,132,41178,2,0,B|348:132,2,180,2|4|8
44,132,42441,5,0
44,256,42757,1,8
164,256,43073,2,0,B|284:256,1,120,0|8
404,256,43704,2,0,B|460:184|456:80,2,180,0|4|8
340,360,44968,6,0,B|212:380,1,120,0|8
152,280,45599,2,0,B|280:260,1,120,0|8
392,256,46231,2,0,B|456:184|480:96,2,180,2|4|8
352,144,47494,6,0,B|240:84,1,120,0|8
124,88,48126,1,0
124,208,48441,1,8
246,200,48757,2,0,B|352:144,1,120,0|8
444,220,49389,6,0,B|484:128|476:36,2,180,4|8|0
352,144,50652,2,0,B|312:236|320:328,2,180,2|8|8
240,188,51915,2,0,B|280:96|272:4,2,180,4|8|0
148,112,53178,2,0,B|108:204|116:296,2,180,2|8|8
300,184,54441,6,0,B|356:148|356:80,1,120,4|8
268,44,55073,2,0,B|184:80|84:84,2,180,0|4|8
248,164,56336,2,0,B|328:124|432:124,2,180,0|4|8
232,284,57599,2,0,B|148:320|48:324,2,180,0|4|8
132,204,58862,6,0,B|160:100|104:24,2,180,0|4|8
128,324,60126,2,0,B|184:352|248:352,1,120,0|8
300,324,60599,2,0,B|352:256|340:144,1,180,4|8
264,60,61389,6,0,B|208:32|144:32,1,120,0|8
92,60,61862,2,0,B|56:176,1,120,4|0
120,276,62494,2,0,B|156:160,1,120,4|0
264,108,63126,2,0,B|228:224,1,120,4|0
292,324,63757,2,0,B|328:208,2,120,4|0|0
236,340,64547,6,0,B|172:356|112:332,1,120,4|8
64,228,65178,2,0,B|32:144|20:44,2,180,0|4|8
148,144,66441,2,0,B|184:228|192:328,2,180,0|4|8
260,188,67704,2,0,B|224:112|216:4,2,180,0|4|8
240,312,68968,2,0,B|416:276,2,180,0|4|8
120,316,70231,6,0,B|80:264|80:200,1,120,0|8
100,148,70704,2,0,B|184:124|276:114,1,180,2|8
396,96,71494,2,0,B|436:148|436:212,1,120,0|8
416,264,71968,2,0,B|332:288|239:297,1,180,2|8
136,236,72757,6,0,B|144:176|136:112,1,120,0|8
168,64,73231,2,0,B|356:104,1,180,2|8
432,184,74020,2,0,B|424:244|432:308,1,120,0|8
400,356,74494,2,0,B|212:316,1,180,2|8
156,220,75283,6,0,B|140:160|156:96,1,120,0|8
200,60,75757,2,0,B|392:60,1,180,2|8
388,180,76547,2,0,B|404:240|388:304,1,120,0|8
344,340,77020,2,0,B|152:340,1,180,2|8
120,228,77810,6,0,B|132:172|116:152|128:100,1,120,0|8
168,64,78283,2,0,B|204:36|300:100|344:64,1,180,4|8
344,184,79073,2,0,B|308:212|212:148|168:184,1,180,8|4
256,192,79704,12,4,82073
208,236,82547,6,0,B|220:292|200:304|212:356,2,120,10|2|8
208,120,83494,2,0,B|400:120,2,180,2|2|10
88,120,84757,6,0,B|48:172|48:236,1,120,0|10
120,328,85389,2,0,B|160:276|160:212,1,120,2|8
180,96,86020,2,0,B|164:31|88:0|12:48,2,180,2|2|8
352,124,87283,6,0,B|408:156|416:224,1,120,0|10
376,332,87915,2,0,B|320:300|312:232,1,120,2|8
192,236,88547,2,0,B|12:236,2,180,2|2|10
312,236,89810,6,0,B|404:208|416:84,2,180,4|4|8
288,120,91073,2,0,B|196:148|184:272,2,180,4|4|8
256,192,92336,12,4,95716
