osu file format v9

[General]
AudioFilename: Dolphins.mp3
AudioLeadIn: 1500
PreviewTime: 54460
Countdown: 0
SampleSet: Normal
StackLeniency: 0.7
Mode: 0
LetterboxInBreaks: 0

[Editor]
DistanceSpacing: 1.2
BeatDivisor: 4
GridSize: 4

[Metadata]
Title:Eroiko (Short Ver.)
Artist:Chata
Creator:hoLysoup
Version:Insane
Source:Dolphin Divers
Tags:merchat7 cRyo cRyo[iceeicee] eroge opening axl

[Difficulty]
HPDrainRate:7
CircleSize:4
OverallDifficulty:7
ApproachRate:8
SliderMultiplier:1.6
SliderTickRate:2

[Events]
//Background and Video events
0,0,"BG.jpg"
Video,0,"video.avi"
//Break Periods
//Storyboard Layer 0 (Background)
//Storyboard Layer 1 (Fail)
//Storyboard Layer 2 (Pass)
//Storyboard Layer 3 (Foreground)
//Storyboard Sound Samples
//Background Colour Transformations
3,100,163,162,255

[TimingPoints]
126,315.789473684211,4,1,0,60,1,0
1152,-100,4,2,1,70,0,0
1310,-100,4,2,1,60,0,0
11257,-100,4,2,1,70,0,0
11415,-100,4,2,1,60,0,0
21362,-100,4,2,1,70,0,0
21520,-100,4,2,1,60,0,0
26415,-100,4,2,1,65,0,0
26573,-100,4,2,1,60,0,0
33994,-100,4,2,1,70,0,0
34152,-100,4,2,1,60,0,0
54441,-100,4,2,1,80,0,1
55547,-100,4,2,1,60,0,1
55626,-100,4,2,1,80,0,1
56810,-100,4,2,1,60,0,1
56895,-100,4,2,1,80,0,1
58073,-100,4,2,1,60,0,1
58158,-100,4,2,1,80,0,1
59336,-100,4,2,1,60,0,1
59421,-100,4,2,1,80,0,1
60599,-100,4,2,1,60,0,1
60685,-100,4,2,1,80,0,1
62494,-100,4,2,1,60,0,1
62579,-100,4,2,1,80,0,1
63126,-100,4,2,1,60,0,1
63211,-100,4,2,1,80,0,1
63757,-100,4,2,1,60,0,1
63843,-100,4,2,1,80,0,1
65652,-100,4,2,1,60,0,1
65738,-100,4,2,1,80,0,1
66915,-100,4,2,1,60,0,1
67001,-100,4,2,1,80,0,1
68178,-100,4,2,1,60,0,1
68264,-100,4,2,1,80,0,1
69441,-100,4,2,1,60,0,1
69528,-100,4,2,1,80,0,1
70704,-100,4,2,1,60,0,1
70791,-100,4,2,1,80,0,1
71968,-100,4,2,1,60,0,1
72054,-100,4,2,1,80,0,1
73231,-100,4,2,1,60,0,1
73317,-100,4,2,1,80,0,1
74494,-100,4,2,1,60,0,1
74581,-100,4,2,1,80,0,1
75757,-100,4,2,1,60,0,1
75844,-100,4,2,1,80,0,1
77020,-100,4,2,1,60,0,1
77107,-100,4,2,1,80,0,1
79547,-100,4,2,1,70,0,0
82160,-100,4,2,1,60,0,0
92660,333.333333333333,4,2,1,60,1,0
93326,352.941176470588,4,2,1,50,1,0
94031,410.958904109589,4,2,1,40,1,0
94853,431.654676258993,4,2,1,35,1,0
95716,400,4,2,1,60,1,0
96516,-100,4,2,1,5,0,0

[Colours]
Combo1 : 240,81,81
Combo2 : 172,251,202
Combo3 : 170,170,255
Combo4 : 175,210,254

[HitObjects]
240,312,1073,1,0
144,296,1231,2,0,B|104:232|112:120,1,160,4|0
168,64,1704,2,0,B|200:32|256:40,1,80,2|0
312,104,2020,2,0,B|280:136|224:128,1,80,2|0
384,48,2336,2,0,B|424:64|456:112,1,80
405,315,2652,6,0,B|368:240|376:160,1,160,2|0
240,40,3126,2,0,B|277:115|269:195,1,160,2|0
248,288,3599,2,0,B|224:328|176:336,1,80,2|0
64,232,3915,2,0,B|88:192|136:184,1,80
224,176,4231,6,0,B|160:112|160:24,2,160,2|2|0
244,272,5020,1,0
336,296,5178,2,0,B|416:296,1,80,2|0
480,192,5494,2,0,B|400:192,1,80,0|2
336,96,5810,2,0,B|416:96,1,80
296,192,6126,1,8
200,120,6283,6,0,B|152:192|200:272,1,160,4|0
424,264,6757,2,0,B|424:224|392:192,1,80,2|0
296,192,7073,2,0,B|296:232|328:264,1,80,2|0
352,120,7389,2,0,B|392:96|392:56,1,80
136,80,7704,6,0,B|224:96|296:56,1,160,2|0
451,170,8178,2,0,B|363:154|296:192,1,160,2|0
232,264,8652,2,0,B|192:272|152:256,1,80,2|0
80,200,8968,1,0
140,124,9126,1,0
216,184,9283,6,0,B|264:112|216:32,2,160,8|0|8
152,256,10073,1,0
216,328,10231,2,0,B|256:344|296:336,1,80,2|0
216,184,10547,2,0,B|176:168|136:176,1,80,8|2
304,232,10862,2,0,B|344:248|384:240,1,80
440,152,11178,1,8
384,40,11336,6,0,B|304:72|216:64,1,160,4|0
80,112,11810,2,0,B|88:152|128:176,1,80,10|0
272,128,12126,2,0,B|264:88|220:60,1,80,2|0
208,200,12441,2,0,B|216:248|192:288,1,80,8|0
104,304,12757,2,0,B|120:344|120:344|176:376|248:360,1,160,2|8
328,336,13231,2,0,B|312:296|312:296|256:264|168:284,1,160,2|0
96,200,13704,1,8
184,104,13862,6,0,B|256:56|360:64,1,160,4|0
432,80,14336,2,0,B|416:120|432:168,1,80,10|0
336,248,14652,2,0,B|352:208|336:160,1,80,2|0
432,248,14968,2,0,B|416:288|432:336,1,80,8|0
336,344,15283,2,0,B|248:360|160:344,1,160,2|8
80,224,15757,2,0,B|168:208|256:224,1,160,2|0
336,248,16231,1,8
424,200,16389,6,0,B|376:128|392:40,1,160,4|0
296,32,16862,2,0,B|256:32|216:56,1,80,10|0
136,96,17178,2,0,B|96:104|56:88,2,80,2|0|8
216,152,17652,1,0
312,152,17810,2,0,B|368:208|344:320,1,160,2|8
160,336,18283,2,0,B|104:280|128:168,1,160,2|0
216,152,18757,1,10
232,248,18915,6,0,B|320:280|408:248,1,160,4|0
436,172,19389,2,0,B|444:132|436:84,1,80,10|0
336,112,19704,2,0,B|328:152|336:200,2,80,2|0|8
256,72,20178,5,0
224,96,20494,1,0
192,120,20810,1,0
160,144,21126,5,2
208,288,21283,1,8
72,248,21441,6,0,B|24:168|32:80,1,160,4|0
72,8,21915,2,0,B|112:24|136:56,1,80,8|0
216,104,22231,2,0,B|248:88|272:96|304:80,1,80,2|0
384,56,22547,1,8
384,56,22704,6,0,B|448:112|456:200,1,160,2|0
424,288,23178,2,0,B|424:328|392:360,1,80,8|0
328,248,23494,2,0,B|328:208|360:176,2,80,2|0|8
256,312,23968,2,0,B|176:296|112:224,1,160,2|0
104,144,24441,2,0,B|96:96|120:64,1,80,8|0
200,120,24757,2,0,B|216:80|264:72,1,80,2|0
288,168,25073,1,8
424,56,25231,1,2
424,56,25547,6,0,B|440:96|440:136,1,80,0|8
480,224,25862,2,0,B|448:240|432:232|392:248,1,80,0|2
336,176,26178,1,0
296,264,26336,1,8
232,192,26494,6,0,B|184:128|184:32,1,160,4|0
136,232,26968,2,0,B|112:200|103:159,2,80,8|0|2
200,304,27441,1,0
232,192,27599,1,8
296,264,27757,2,0,B|368:224|392:128,1,160,2|0
400,40,28231,2,0,B|352:32|320:64,1,80,8|0
280,144,28547,2,0,B|240:120|224:80,2,80,2|0|8
424,288,29020,6,0,B|360:328|264:312,1,160,2|0
184,264,29494,2,0,B|136:192,1,80,8|0
264,224,29810,2,0,B|216:152,2,80,2|0|8
345,281,30283,2,0,B|384:296|424:288,1,80,2|0
300,164,30599,2,0,B|261:149|196:160,1,80,2|8
412,188,30915,2,0,B|450:202|490:194,1,80,2|0
420,68,31231,1,2
336,144,31389,5,8
336,144,31468,1,0
336,144,31547,2,0,B|352:224|320:304,1,160,4|0
160,352,32020,1,8
160,352,32336,2,0,B|128:328|112:288,1,80
216,184,32652,2,0,B|248:208|264:248,1,80,8|0
184,312,32968,2,0,B|152:288|136:248,1,80
240,144,33283,2,0,B|272:168|288:208,1,80,8|0
328,296,33599,5,0
480,216,33757,1,8
400,72,33915,1,8
240,144,34073,2,0,B|208:168|160:168,1,80,4|0
72,80,34389,5,2
72,80,34547,1,8
72,80,34704,1,2
168,104,34862,6,0,B|192:144|192:192,1,80
112,264,35178,2,0,B|88:224|88:176,1,80,8|0
216,264,35494,2,0,B|240:304|240:352,1,80
312,224,35810,2,0,B|288:184|288:136,1,80,8|0
328,64,36126,1,0
448,88,36283,1,0
372,164,36441,1,8
144,80,36599,2,0,B|120:112|112:152,1,80,4|0
176,288,36915,5,2
176,288,37073,1,8
176,288,37231,1,2
264,336,37389,6,0,B|304:352|344:352,1,80
336,184,37704,2,0,B|296:168|256:168,1,80,8|0
384,264,38020,2,0,B|424:280|464:280,1,80
216,256,38336,2,0,B|176:240|136:240,1,80,8|0
72,168,38652,2,0,B|32:160|0:128,2,80,0|0|8
258,168,39126,1,4
258,168,39441,6,2,B|264:264|320:320,1,160,2|2
314,314,39915,1,0
416,256,40073,1,0
328,112,40231,1,8
322,218,40389,1,0
424,160,40547,1,0
336,16,40704,1,2
328,112,40862,2,0,B|384:96|408:64,1,80,8|2
412,188,41178,2,0,B|362:194|322:230,1,80,0|2
232,160,41494,5,8
232,160,41652,2,0,B|208:84|120:24,1,160,4|0
56,88,42126,2,0,B|32:124|32:168,1,80,10|0
116,208,42441,2,0,B|144:236|152:280,1,80,0|0
224,344,42757,2,0,B|272:320|288:288,1,80,10|0
288,40,43073,2,0,B|240:64|224:96,1,80,0|0
396,176,43389,2,0,B|368:148|360:104,1,80,10|0
456,296,43704,2,0,B|480:260|480:216,2,80,0|0|10
360,296,44178,6,0,B|320:296|320:296|248:320|248:320|200:320,1,160,4|0
72,296,44652,2,0,B|48:264|48:216,1,80,8|0
144,184,44968,2,0,B|144:136|168:104,1,80
229,244,45283,2,0,B|229:292|208:320,1,80,8|0
336,224,45599,2,0,B|336:176|312:144,1,80
224,120,45915,1,8
264,32,46073,1,0
352,72,46231,2,0,B|400:72|432:48,1,80
440,256,46547,1,8
336,224,46704,6,0,B|264:256|168:248,1,160,6|0
179,248,47099,1,0
179,248,47178,2,0,B|152:168,1,80,8|0
264,32,47494,2,0,B|291:112,1,80
200,104,47810,1,8
384,120,47968,2,0,B|336:192|336:288,1,160,2|0
144,312,48441,1,8
144,312,48599,2,0,B|192:240|192:144,1,160,2|0
184,48,49073,2,0,B|216:72|264:80,1,80,8|0
312,160,49389,5,6
456,120,49547,1,0
352,40,49704,1,8
344,160,49862,6,0,B|368:240|336:328,1,160,6|8
168,224,50336,1,0
168,224,50494,2,0,B|144:144|176:56,1,160,2|8
248,136,50968,1,0
312,208,51126,2,0,B|360:216|408:192,1,80,2|0
328,128,51441,1,0
328,128,51520,1,0
328,128,51599,2,0,B|280:120|232:144,1,80,8|0
200,224,51915,5,6
56,264,52073,1,0
160,344,52231,1,8
168,224,52389,6,0,B|144:144|176:56,1,160,6|8
264,40,52862,1,8
264,40,52941,1,0
264,40,53020,2,0,B|296:32|312:40|352:32,1,80,2|0
422,88,53336,2,0,B|416:120|424:136|416:168,1,80
320,192,53652,2,0,B|288:200|184:168|156:180,1,160,2|0
161,178,54126,1,8
48,328,54441,5,4
120,264,54599,1,0
47,137,54757,2,0,B|32:176|32:216,1,80,8|0
120,264,55073,1,0
161,178,55231,1,0
232,240,55389,1,8
288,72,55547,6,0,B|288:120|328:144,1,80,4|0
400,196,55862,2,0,B|424:160|416:116,2,80,0|8|0
272,284,56336,1,0
376,332,56494,1,0
400,196,56652,1,8
320,216,56810,6,0,B|284:192|240:192,1,80,4|0
160,240,57126,2,0,B|116:252|72:244,1,80,0|8
4,184,57441,2,0,B|-4:140|4:100,1,80
72,40,57757,2,0,B|116:28|160:36,1,80,0|8
204,116,58073,2,0,B|280:140|372:128,1,160,4|0
408,256,58547,2,0,B|440:228|488:220,2,80,8|0|0
308,216,59020,1,0
452,136,59178,1,8
332,80,59336,6,0,B|244:72|160:104,1,160,4|0
88,140,59810,1,8
156,208,59968,1,0
88,276,60126,2,0,B|124:352|220:352,1,160,0|8
424,276,60599,2,0,B|388:352|292:352,1,160,4|0
228,284,61073,2,0,B|216:244|224:200,1,80,8|0
292,140,61389,1,0
244,56,61547,1,0
152,84,61704,1,8
140,176,61862,6,0,B|100:192|56:192,1,80,4|0
4,260,62178,1,0
4,260,62257,1,0
4,260,62336,1,8
48,336,62494,6,0,B|96:320|156:316,1,80,6|0
220,348,62810,1,0
220,348,62889,1,0
220,348,62968,1,8
312,312,63126,6,0,B|320:264|308:224,1,80,6|0
340,140,63441,1,0
340,140,63520,1,0
340,140,63599,1,8
304,56,63757,6,0,B|269:61|260:60|224:72,1,80,6|0
80,192,64073,1,0
128,112,64231,1,8
160,256,64389,5,0
160,256,64468,1,0
160,256,64547,2,0,B|196:252|204:260|244:252,1,80,4|0
308,328,64862,1,8
328,232,65020,1,0
392,304,65178,1,0
412,208,65336,1,0
476,280,65494,1,8
496,184,65652,6,0,B|500:132|484:100,1,80,4|0
412,40,65968,1,0
360,112,66126,1,8
296,48,66283,1,0
256,136,66441,2,0,B|264:176|252:184|264:216,2,80,0|0|8
148,80,66915,2,0,B|104:76|64:88,1,80,4|0
108,196,67231,2,0,B|152:200|192:188,2,80,0|8|0
28,328,67704,5,0
28,244,67862,1,0
116,360,68020,1,8
188,296,68178,2,0,B|232:272|320:312|364:280,1,160,4|0
440,260,68652,2,0,B|464:336,1,80,8|0
396,112,68968,2,0,B|372:36,2,80,0|0|8
380,196,69441,6,0,B|300:212|220:160,1,160,4|0
224,68,69915,2,0,B|188:44|140:48,1,80,8|0
72,144,70231,2,0,B|56:108|56:56,2,80,0|0|8
164,176,70704,6,0,B|204:272|108:328,1,160,4|0
125,316,71099,1,0
125,316,71178,2,0,B|208:312,1,80,8|0
288,356,71494,1,0
336,200,71652,1,0
248,232,71810,1,8
360,296,71968,6,0,B|416:276|416:276|440:228|432:168,1,160,4|0
328,44,72441,2,0,B|332:88|368:120,1,80,8|0
434,178,72757,2,0,B|468:154|477:107,2,80,2|0|8
336,200,73231,2,0,B|256:224|160:208,1,160,4|0
40,324,73704,5,10
177,210,73862,1,0
40,324,74020,2,0,B|24:284|24:240,1,80,2|0
100,188,74336,1,8
184,236,74494,6,0,B|252:180|260:88,1,160,4|0
384,224,74968,2,0,B|316:280|308:372,1,160,10|0
232,308,75441,1,0
324,168,75599,1,8
412,304,75757,6,0,B|320:292|260:216,1,160,4|0
252,236,76152,1,0
232,240,76231,2,0,B|200:212|160:204,1,80,8|0
64,196,76547,2,0,B|44:152|52:104,1,80
124,56,76862,1,8
196,116,77020,6,0,B|276:156|384:144,1,160,4|0
444,292,77494,2,0,B|364:252|256:264,1,160,8|0
144,244,77968,2,0,B|104:240|64:252,1,80,2|8
88,356,78283,2,0,B|128:360|168:348,1,80,0|0
256,312,78599,5,0
256,312,78678,1,0
256,312,78757,2,0,B|252:272|260:268|256:224,1,80,8|0
256,68,79073,1,0
332,180,79231,1,8
180,180,79389,1,8
256,68,79547,1,4
256,192,79626,12,4,82073
380,80,82389,5,0
380,80,82547,2,0,B|348:160|384:236,1,160,10|2
384,332,83020,1,0
300,288,83178,2,0,B|264:292|252:284|212:288,1,80,8|0
124,288,83494,2,0,B|48:240|44:136,1,160,2|8
188,40,83968,2,0,B|264:88|268:192,1,160,2|0
256,200,84362,1,0
236,224,84441,1,8
268,324,84599,6,0,B|436:324,1,160,4|0
444,228,85073,2,0,B|476:200|472:152,1,80,10|0
336,56,85389,2,0,B|304:84|308:132,1,80,2|0
360,192,85704,2,0,B|392:164|388:116,1,80,8|0
232,44,86020,2,0,B|152:64|92:128,1,160,2|8
144,272,86494,2,0,B|224:252|284:188,1,160,2|0
316,104,86968,1,8
412,104,87126,6,0,B|468:164|460:256,1,160,4|0
392,320,87599,2,0,B|352:336|312:324,1,80,10|0
228,232,87915,2,0,B|268:216|308:228,1,80,2|0
228,328,88231,2,0,B|188:344|148:332,1,80,8|0
64,256,88547,2,0,B|32:184|40:96,1,160,4|8
160,192,89020,2,0,B|204:200|244:188,1,80,2|0
216,76,89336,2,0,B|172:68|132:80,2,80,0|10|0
340,72,89810,6,0,B|408:120|432:212,1,160,4|8
384,288,90283,2,0,B|316:240|292:148,1,160,4|0
294,158,90678,1,0
294,158,90757,1,8
172,72,91073,6,0,B|104:120|80:212,1,160,4|8
128,288,91547,2,0,B|196:240|220:148,1,160,4|0
217,158,91941,1,0
217,158,92020,1,8
260,80,92336,5,4
260,80,92660,6,0,B|368:100,1,80
260,168,92993,2,0,B|156:188,1,80
260,252,93326,2,0,B|348:276,1,80,4|0
260,336,93678,2,0,B|180:364,1,80
187,217,94031,6,0,B|260:252,1,80,4|0
334,137,94441,2,0,B|260:168,1,80
192,37,94853,2,0,B|260:80,1,80,4|0
256,192,95716,12,0,96516
