osu file format v14

[General]
AudioFilename: mp3 eroiko.mp3
AudioLeadIn: 0
PreviewTime: 54441
Countdown: 0
SampleSet: Normal
StackLeniency: 0.7
Mode: 0
LetterboxInBreaks: 0
WidescreenStoryboard: 0

[Editor]
Bookmarks: 77020
DistanceSpacing: 0.8
BeatDivisor: 4
GridSize: 8
TimelineZoom: 2

[Metadata]
Title:Eroiko (Short Ver.)
TitleUnicode:Eroiko (Short Ver.)
Artist:Chata
ArtistUnicode:Chata
Creator:Cuenquero
Version:Insane
Source:Dolphin Drivers
Tags:Dolphin Drivers Chata Eroiko Short ver Yuii- Chucentry
BeatmapID:787480
BeatmapSetID:358096

[Difficulty]
HPDrainRate:7
CircleSize:4
OverallDifficulty:8
ApproachRate:9
SliderMultiplier:1.6
SliderTickRate:1

[Events]
//Background and Video events
0,0,"maxresdefault.jpg",0,0
//Break Periods
//Storyboard Layer 0 (Background)
//Storyboard Layer 1 (Fail)
//Storyboard Layer 2 (Pass)
//Storyboard Layer 3 (Foreground)
//Storyboard Sound Samples

[TimingPoints]
1073,315.789473684211,4,1,0,80,1,0
1704,-100,4,1,0,50,0,0
5967,-100,4,1,0,80,0,0
6757,-100,4,1,0,50,0,0
9283,-100,4,1,0,70,0,0
11336,-100,4,1,0,80,0,0
54599,-83.3333333333333,4,1,0,80,0,1
69441,-133.333333333333,4,1,0,80,0,0
72125,-100,4,1,0,50,0,0
75283,-100,4,1,0,80,0,0
92660,333.333333333333,4,1,0,60,1,0
93326,352.941176470588,4,1,0,50,1,0
94031,410.958904109589,4,1,0,40,1,0
94853,431.654676258993,4,1,0,30,1,0
95716,400,4,1,0,30,1,0

[Colours]
Combo1 : 255,157,255
Combo2 : 232,102,232

[HitObjects]
76,72,1073,5,0,0:0:0:0:
208,80,1230,2,0,P|256:128|208:200,1,160
172,328,1704,2,0,P|244:276|328:312,1,160
400,228,2336,1,0,0:0:0:0:
296,136,2651,2,0,L|200:280,1,160
207,269,3125,1,0,0:0:0:0:
56,200,3599,2,0,P|60:144|148:84,1,160
408,204,4230,2,0,P|372:260|264:280,1,160
152,264,4862,5,0,0:0:0:0:
84,136,5178,2,0,P|128:88|244:72,2,160
256,216,6125,1,0,0:0:0:0:
256,216,6283,2,0,P|320:208|344:296,1,160
64,236,6757,2,0,P|124:280|220:300,1,160
256,196,7388,1,0,0:0:0:0:
248,60,7704,2,0,P|336:56|432:100,1,160
380,184,8178,1,0,0:0:0:0:
154,283,8651,2,0,P|105:222|96:144,1,160
272,160,9283,1,0,0:0:0:0:
200,304,9599,1,0,0:0:0:0:
76,248,9915,2,0,L|44:160,1,80
184,132,10230,6,0,P|208:172|256:184,1,80
376,192,10546,2,0,P|440:236|388:292,1,160
304,264,11020,2,0,L|256:176,1,80
252,80,11336,1,0,0:0:0:0:
252,80,11494,2,0,P|192:108|176:132,1,80
224,216,11809,2,0,P|292:220|328:200,1,80
388,96,12125,1,0,0:0:0:0:
388,96,12283,2,0,P|416:148|408:192,2,80
300,84,12757,1,0,0:0:0:0:
208,176,12915,1,0,0:0:0:0:
88,80,13073,1,0,0:0:0:0:
200,80,13230,1,0,0:0:0:0:
244,164,13388,6,0,L|336:220,1,80
340,192,13704,1,0,0:0:0:0:
312,320,13862,2,0,L|144:320,1,160
64,216,14336,2,0,P|96:160|184:136,1,160
328,248,14809,2,0,P|384:216|400:184,2,80
216,176,15283,1,0,0:0:0:0:
136,64,15441,1,0,0:0:0:0:
56,144,15599,2,0,P|88:224|152:264,1,160
256,216,16073,1,0,0:0:0:0:
368,64,16230,5,0,0:0:0:0:
368,64,16388,2,0,P|424:120|416:200,1,160
312,296,16862,1,0,0:0:0:0:
312,296,17020,2,0,L|224:296,1,80
144,176,17336,1,0,0:0:0:0:
144,176,17494,2,0,L|80:120,2,80
200,56,17967,1,0,0:0:0:0:
264,144,18125,1,0,0:0:0:0:
368,160,18283,2,0,P|392:256|320:304,1,160
224,304,18757,1,0,0:0:0:0:
96,344,18915,1,0,0:0:0:0:
24,184,19230,5,0,0:0:0:0:
88,120,19388,2,0,P|144:112|240:184,1,160
176,272,19862,2,0,P|224:320|256:320,2,80
176,152,20494,1,0,0:0:0:0:
320,80,20809,1,0,0:0:0:0:
384,208,21125,1,0,0:0:0:0:
248,288,21441,1,0,0:0:0:0:
64,104,21757,6,0,L|144:104,2,80
256,200,22230,1,0,0:0:0:0:
112,248,22388,1,0,0:0:0:0:
152,120,22546,2,0,P|184:88|240:80,2,80
216,200,23020,1,0,0:0:0:0:
312,264,23178,1,0,0:0:0:0:
200,328,23336,1,0,0:0:0:0:
328,176,23494,2,0,P|384:144|424:144,2,80
224,56,23967,5,0,0:0:0:0:
104,112,24125,2,0,L|168:184,1,80
368,168,24441,1,0,0:0:0:0:
336,296,24599,2,0,L|232:296,2,80
456,224,25073,1,0,0:0:0:0:
320,72,25230,1,0,0:0:0:0:
312,248,25388,1,0,0:0:0:0:
456,80,25546,1,0,0:0:0:0:
304,160,25704,2,0,P|240:160|216:120,1,80
96,80,26020,2,0,P|80:152|128:248,1,160
110,230,26494,1,0,0:0:0:0:
384,312,26809,6,0,L|448:256,2,80
288,320,27283,1,0,0:0:0:0:
208,192,27441,1,0,0:0:0:0:
344,184,27599,1,0,0:0:0:0:
448,96,27757,2,0,P|368:56|280:72,1,160
80,152,28230,1,0,0:0:0:0:
176,48,28388,1,0,0:0:0:0:
288,168,28546,1,0,0:0:0:0:
288,168,28704,2,0,P|344:192|352:216,1,80
216,320,29020,6,0,P|104:296|88:256,1,160
48,144,29494,1,0,0:0:0:0:
176,200,29651,1,0,0:0:0:0:
176,200,29809,2,0,L|248:152,1,80
376,176,30125,1,0,0:0:0:0:
240,256,30283,1,0,0:0:0:0:
240,256,30441,2,0,P|320:272|368:352,1,160
448,176,30915,2,0,L|384:112,1,80
128,120,31230,2,0,L|56:184,1,80
256,192,31546,12,0,32967,0:0:0:0:
80,256,34388,5,0,0:0:0:0:
168,192,34546,1,0,0:0:0:0:
32,144,34704,1,0,0:0:0:0:
88,72,34862,2,0,L|176:72,1,80
280,88,35178,1,0,0:0:0:0:
416,144,35336,1,0,0:0:0:0:
392,248,35494,1,0,0:0:0:0:
280,312,35651,2,0,P|208:304|176:280,2,80
360,216,36125,2,0,L|248:176,2,80
392,200,36599,1,0,0:0:0:0:
256,72,36915,5,0,0:0:0:0:
96,152,37073,1,0,0:0:0:0:
256,216,37231,1,0,0:0:0:0:
160,304,37388,2,0,L|64:256,1,80
240,136,37704,2,0,L|240:224,1,80
56,200,38020,2,0,L|120:128,2,80
176,240,38494,1,0,0:0:0:0:
304,264,38651,2,0,P|368:192|336:136,1,160
280,56,39125,1,0,0:0:0:0:
64,272,39441,6,0,L|176:272,1,80
296,176,39757,2,0,P|320:232|304:280,2,80
184,120,40230,1,0,0:0:0:0:
56,160,40388,2,0,P|88:192|144:200,1,80
200,136,40704,1,0,0:0:0:0:
304,80,40862,1,0,0:0:0:0:
376,200,41020,1,0,0:0:0:0:
264,240,41178,2,0,P|280:296|312:328,2,80
256,192,41651,12,0,44178,0:0:0:0:
96,80,44494,6,0,P|176:72|200:80,2,80
48,168,44967,1,0,0:0:0:0:
168,152,45125,1,0,0:0:0:0:
64,288,45283,1,0,0:0:0:0:
168,152,45441,2,0,P|224:128|256:128,2,80
208,240,45915,1,0,0:0:0:0:
392,216,46073,1,0,0:0:0:0:
272,96,46230,1,0,0:0:0:0:
144,104,46388,2,0,P|120:152|120:200,1,80
176,272,46704,2,0,L|352:272,1,160
424,232,47178,6,0,P|448:176|376:96,1,160
376,80,47651,1,0,0:0:0:0:
264,120,47809,2,0,L|184:160,1,80
104,232,48125,1,0,0:0:0:0:
176,296,48283,2,0,L|280:328,1,80
252,319,48599,1,0,0:0:0:0:
416,288,48757,1,0,0:0:0:0:
416,288,48915,2,0,L|312:240,1,80
112,128,49388,6,0,P|144:80|192:64,1,80
344,160,49704,1,0,0:0:0:0:
152,264,49862,2,0,L|240:328,1,80
256,280,50178,1,0,0:0:0:0:
176,136,50336,1,0,0:0:0:0:
176,136,50494,2,0,P|240:104|272:104,1,80
392,192,50809,1,0,0:0:0:0:
248,240,50967,2,0,L|336:288,2,80
136,264,51441,1,0,0:0:0:0:
232,152,51599,1,0,0:0:0:0:
80,96,51915,6,0,P|112:72|176:88,1,80
232,168,52230,1,0,0:0:0:0:
232,168,52388,1,0,0:0:0:0:
336,80,52546,1,0,0:0:0:0:
416,208,52704,2,0,L|344:272,1,80
272,200,53020,2,0,P|200:176|144:248,1,160
72,128,53651,2,0,L|248:80,1,160
232,232,54125,2,0,P|248:280|360:320,1,160
400,72,54599,6,0,L|288:72,1,95.9999970703126
152,80,54915,1,0,0:0:0:0:
72,232,55073,1,0,0:0:0:0:
304,200,55230,1,0,0:0:0:0:
448,312,55388,2,0,L|336:312,1,95.9999970703126
240,256,55704,1,0,0:0:0:0:
112,304,55862,5,0,0:0:0:0:
248,120,56020,1,0,0:0:0:0:
72,136,56178,1,0,0:0:0:0:
288,272,56336,1,0,0:0:0:0:
208,56,56494,2,0,L|328:96,2,95.9999970703126
432,208,56967,5,0,0:0:0:0:
280,288,57125,1,0,0:0:0:0:
192,192,57283,2,0,P|112:224|104:264,2,95.9999970703126
304,256,57757,1,0,0:0:0:0:
416,176,57915,1,0,0:0:0:0:
296,112,58073,2,0,L|184:88,1,95.9999970703126
72,200,58388,2,0,P|112:272|160:288,2,95.9999970703126
104,104,58862,1,0,0:0:0:0:
184,272,59020,1,0,0:0:0:0:
256,176,59178,5,0,0:0:0:0:
256,176,59336,2,0,P|248:112|352:48,1,191.999994140625
408,144,59809,2,0,P|416:208|368:264,1,95.9999970703126
240,240,60125,2,0,L|80:128,1,191.999994140625
224,104,60599,1,0,0:0:0:0:
224,104,60757,1,0,0:0:0:0:
368,208,60915,1,0,0:0:0:0:
368,208,61073,2,0,P|312:272|280:288,1,95.9999970703126
216,176,61388,2,0,P|160:160|112:168,2,95.9999970703126
216,176,61862,1,0,0:0:0:0:
416,296,62178,5,0,0:0:0:0:
374,319,62256,1,0,0:0:0:0:
328,333,62335,1,0,0:0:0:0:
200,288,62494,1,0,0:0:0:0:
224,64,62809,1,0,0:0:0:0:
176,62,62887,1,0,0:0:0:0:
131,79,62966,1,0,0:0:0:0:
120,208,63125,1,0,0:0:0:0:
288,224,63441,5,0,0:0:0:0:
288,224,63520,1,0,0:0:0:0:
288,224,63599,1,0,0:0:0:0:
216,144,63757,2,0,L|96:152,1,95.9999970703126
88,272,64073,1,0,0:0:0:0:
88,272,64151,1,0,0:0:0:0:
88,272,64230,1,0,0:0:0:0:
408,96,64546,6,0,P|336:80|280:112,1,95.9999970703126
128,88,64862,1,0,0:0:0:0:
384,240,65020,1,0,0:0:0:0:
176,264,65178,1,0,0:0:0:0:
280,160,65336,1,0,0:0:0:0:
96,176,65494,2,0,P|72:240|80:288,1,95.9999970703126
432,120,65967,6,0,P|328:96|304:104,1,95.9999970703126
176,48,66283,1,0,0:0:0:0:
288,272,66441,1,0,0:0:0:0:
112,264,66599,1,0,0:0:0:0:
64,144,66757,1,0,0:0:0:0:
256,176,66915,2,0,P|312:208|336:256,1,95.9999970703126
480,144,67230,5,0,0:0:0:0:
328,64,67388,1,0,0:0:0:0:
384,192,67546,1,0,0:0:0:0:
432,56,67704,1,0,0:0:0:0:
288,160,67862,2,0,L|184:208,1,95.9999970703126
328,288,68178,2,0,P|384:304|440:288,2,95.9999970703126
168,272,68651,1,0,0:0:0:0:
328,128,68809,1,0,0:0:0:0:
176,120,68967,1,0,0:0:0:0:
232,216,69125,1,0,0:0:0:0:
336,224,69283,5,0,0:0:0:0:
336,224,69441,2,0,P|392:248|320:312,1,180.000006866455
208,264,70073,2,0,P|176:232|160:200,1,60.0000022888184
264,160,70388,2,0,P|231:116|207:100,1,60.0000022888184
104,88,70704,1,0,0:0:0:0:
56,208,70862,2,0,P|88:256|112:272,1,60.0000022888184
224,240,71178,2,0,P|256:280|256:352,2,120.000004577637
216,232,71967,1,0,0:0:0:0:
248,64,72283,6,0,L|336:64,2,80
136,80,72757,1,0,0:0:0:0:
288,176,72915,1,0,0:0:0:0:
112,240,73073,1,0,0:0:0:0:
240,320,73230,2,0,P|296:328|400:272,1,160
387,286,73704,1,0,0:0:0:0:
400,144,74020,2,0,P|336:112|296:104,2,80
320,232,74494,2,0,P|240:232|176:296,1,160
182,282,74967,1,0,0:0:0:0:
88,80,75283,6,0,P|96:144|120:176,1,80
256,144,75599,2,0,P|240:208|216:232,2,80
288,48,76073,1,0,0:0:0:0:
440,176,76230,1,0,0:0:0:0:
280,192,76388,1,0,0:0:0:0:
408,80,76546,1,0,0:0:0:0:
400,232,76704,1,0,0:0:0:0:
256,192,76862,1,0,0:0:0:0:
256,192,77020,12,0,78125,0:0:0:0:
168,48,78283,6,0,L|96:104,1,80
96,200,78599,2,0,L|120:272,2,40
360,104,78915,2,0,P|384:160|384:200,1,80
160,104,79230,2,0,P|216:80|256:80,1,80
384,184,79546,1,0,0:0:0:0:
64,256,80020,5,0,0:0:0:0:
144,176,80178,2,0,P|168:224|160:272,1,80
304,312,80494,2,0,P|336:272|376:256,2,80
192,280,80967,1,0,0:0:0:0:
264,136,81125,2,0,P|320:128|352:144,1,80
340,136,81441,1,0,0:0:0:0:
392,288,81599,2,0,L|304:288,2,80
392,288,82073,1,0,0:0:0:0:
96,144,82388,6,0,P|104:192|128:232,1,80
200,72,82704,1,0,0:0:0:0:
320,192,82862,2,0,P|280:224|264:272,1,80
280,272,83178,1,0,0:0:0:0:
432,248,83336,1,0,0:0:0:0:
328,88,83494,1,0,0:0:0:0:
208,200,83651,2,0,L|128:256,2,80
224,96,84125,1,0,0:0:0:0:
384,240,84283,2,0,L|416:296,2,40
392,216,84599,1,0,0:0:0:0:
168,56,85073,6,0,P|128:120|128:232,1,160
184,288,85546,1,0,0:0:0:0:
360,168,85704,1,0,0:0:0:0:
128,96,85862,1,0,0:0:0:0:
240,216,86020,2,0,P|272:272|272:304,2,80
240,216,86494,1,0,0:0:0:0:
320,80,86651,2,0,L|408:128,2,80
304,184,87125,1,0,0:0:0:0:
64,168,87441,6,0,L|72:256,2,80
88,56,87915,1,0,0:0:0:0:
280,152,88073,1,0,0:0:0:0:
160,280,88230,1,0,0:0:0:0:
456,232,88546,2,0,P|432:184|392:160,2,80
336,80,89020,1,0,0:0:0:0:
160,200,89336,5,0,0:0:0:0:
136,176,89415,1,0,0:0:0:0:
128,144,89494,1,0,0:0:0:0:
136,112,89573,2,0,P|168:88|272:120,1,120
368,288,90125,1,0,0:0:0:0:
368,288,90204,1,0,0:0:0:0:
368,288,90283,2,0,P|336:248|224:248,1,160
192,144,90757,1,0,0:0:0:0:
408,56,91073,6,0,P|432:120|416:216,1,160
128,288,91546,2,0,P|88:208|112:120,1,160
296,56,92020,1,0,0:0:0:0:
272,200,92336,2,0,P|224:168|176:160,1,80
200,344,92660,6,0,L|296:304,1,80
104,192,92993,2,0,L|192:160,1,80
416,120,93326,2,0,L|448:208,1,80
304,240,93678,2,0,L|280:152,1,80
88,64,94031,2,0,L|192:64,1,80
256,184,94441,2,0,L|160:184,1,80
448,264,94852,2,0,P|416:304|360:312,1,80
256,192,95716,12,0,96616,0:0:0:0:
