osu file format v14

[General]
AudioFilename: mp3 eroiko.mp3
AudioLeadIn: 0
PreviewTime: 54441
Countdown: 0
SampleSet: Normal
StackLeniency: 0.7
Mode: 0
LetterboxInBreaks: 0
WidescreenStoryboard: 0

[Editor]
Bookmarks: 21757,34388,77020,79546
DistanceSpacing: 0.8
BeatDivisor: 4
GridSize: 8
TimelineZoom: 2

[Metadata]
Title:Eroiko (Short Ver.)
TitleUnicode:Eroiko (Short Ver.)
Artist:Chata
ArtistUnicode:Chata
Creator:Cuenquero
Version:Hard
Source:Dolphin Drivers
Tags:Dolphin Drivers Chata Eroiko Short ver Yuii- Chucentry
BeatmapID:788611
BeatmapSetID:358096

[Difficulty]
HPDrainRate:6
CircleSize:4
OverallDifficulty:6
ApproachRate:8
SliderMultiplier:1.5
SliderTickRate:1

[Events]
//Background and Video events
0,0,"maxresdefault.jpg",0,0
//Break Periods
//Storyboard Layer 0 (Background)
//Storyboard Layer 1 (Fail)
//Storyboard Layer 2 (Pass)
//Storyboard Layer 3 (Foreground)
//Storyboard Sound Samples

[TimingPoints]
1073,315.789473684211,4,1,0,80,1,0
54599,-83.3333333333333,4,1,0,80,0,1
69441,-100,4,1,0,80,0,0
72283,-133.333333333333,4,1,0,50,0,0
75283,-100,4,1,0,80,0,0
75757,-133.333333333333,4,1,0,70,0,0
77020,-100,4,1,0,80,0,0
92660,333.333333333333,4,1,0,60,1,0
93326,352.941176470588,4,1,0,50,1,0
94031,410.958904109589,4,1,0,40,1,0
94853,431.654676258993,4,1,0,30,1,0
95716,400,4,1,0,30,1,0

[Colours]
Combo1 : 255,157,255
Combo2 : 232,102,232

[HitObjects]
104,104,1073,5,0,0:0:0:0:
104,104,1230,2,0,P|176:80|264:120,1,150
312,176,1704,2,0,P|352:208|400:208,2,75
192,152,2336,1,0,0:0:0:0:
80,208,2651,2,0,P|144:248|176:248,1,75
208,320,2967,2,0,P|224:280|256:248,1,75
320,208,3283,2,0,P|352:256|328:344,1,150
64,184,4230,6,0,P|112:144|144:208,1,150
112,288,4704,1,0,0:0:0:0:
192,344,4862,2,0,P|272:360|352:336,1,150
344,256,5336,1,0,0:0:0:0:
352,167,5494,2,0,P|388:163|424:176,2,75
208,88,6125,1,0,0:0:0:0:
160,160,6283,2,0,B|184:208|168:256|168:256|240:280,1,150
320,232,6757,2,0,P|376:224|408:248,1,75
464,320,7073,2,0,P|416:352|384:352,1,75
160,192,7704,2,0,P|216:168|264:176,1,75
328,240,8020,2,0,P|384:232|416:208,2,75
256,144,8494,1,0,0:0:0:0:
256,144,8651,2,0,P|208:128|168:128,2,75
320,232,9283,5,0,0:0:0:0:
208,232,9599,2,0,P|160:256|136:296,1,75
80,160,9915,1,0,0:0:0:0:
160,96,10230,2,0,P|200:128|248:128,1,75
344,176,10546,1,0,0:0:0:0:
272,240,10704,2,0,P|288:296|312:288,3,75
368,288,11336,1,0,0:0:0:0:
200,312,11651,1,0,0:0:0:0:
160,320,11809,6,0,P|96:296|56:288,1,75
89,294,12125,1,0,0:0:0:0:
40,200,12283,1,0,0:0:0:0:
40,200,12441,2,0,B|136:168|136:224|184:176,1,150
256,96,12915,2,0,P|280:136|280:176,2,75
168,72,13388,1,0,0:0:0:0:
168,72,13546,2,0,P|104:48|88:72,2,75
248,144,14178,5,0,0:0:0:0:
328,184,14336,1,0,0:0:0:0:
248,224,14494,2,0,P|192:192|160:184,1,75
152,208,14809,1,0,0:0:0:0:
80,288,14967,1,0,0:0:0:0:
24,168,15125,1,0,0:0:0:0:
24,168,15283,2,0,P|56:128|80:120,2,75
112,208,15757,1,0,0:0:0:0:
192,136,15915,2,0,P|160:104|152:72,2,75
272,64,16388,6,0,P|312:112|296:208,1,150
304,195,16862,1,0,0:0:0:0:
224,232,17020,1,0,0:0:0:0:
224,232,17178,2,0,L|224:320,2,75
136,200,17651,1,0,0:0:0:0:
48,160,17809,2,0,P|80:128|120:128,2,75
48,248,18283,1,0,0:0:0:0:
144,288,18441,2,0,P|192:272|240:288,1,75
215,275,18757,1,0,0:0:0:0:
288,184,18915,6,0,P|318:123|379:153,1,150
440,280,19388,2,0,P|368:304|288:288,1,150
280,272,19862,1,0,0:0:0:0:
192,200,20020,1,0,0:0:0:0:
256,112,20178,1,0,0:0:0:0:
368,152,20494,5,0,0:0:0:0:
368,152,20809,1,0,0:0:0:0:
368,152,21125,1,0,0:0:0:0:
288,192,21283,2,0,P|280:248|296:288,1,75
192,64,21757,6,0,P|144:96|104:96,1,75
96,120,22073,1,0,0:0:0:0:
160,192,22230,2,0,P|176:240|168:288,2,75
200,120,22704,1,0,0:0:0:0:
264,64,22862,2,0,P|320:48|368:48,1,75
368,136,23178,2,0,P|328:184|336:216,2,75
384,96,23651,1,0,0:0:0:0:
456,152,23809,1,0,0:0:0:0:
424,256,23967,2,0,P|368:240|344:240,1,75
288,184,24283,5,0,0:0:0:0:
232,104,24441,2,0,P|184:96|144:120,1,75
120,200,24757,2,0,P|184:192|208:208,1,75
192,288,25073,2,0,P|256:296|280:288,3,75
280,256,25704,1,0,0:0:0:0:
232,152,25862,1,0,0:0:0:0:
232,152,26020,1,0,0:0:0:0:
320,120,26178,1,0,0:0:0:0:
344,96,26336,2,0,P|408:88|456:168,1,150
416,240,26809,6,0,L|328:240,1,75
264,280,27125,2,0,P|240:336|264:360,2,75
264,280,27599,1,0,0:0:0:0:
288,200,27757,2,0,P|224:144|152:168,1,150
104,208,28230,1,0,0:0:0:0:
48,144,28388,1,0,0:0:0:0:
104,80,28546,2,0,L|192:80,2,75
168,160,29020,2,0,P|208:208|176:304,1,150
192,288,29494,1,0,0:0:0:0:
288,336,29651,6,0,L|368:312,1,75
352,224,29967,1,0,0:0:0:0:
440,160,30125,2,0,P|392:136|352:136,1,75
312,80,30441,1,0,0:0:0:0:
232,144,30599,2,0,P|176:152|144:136,2,75
336,168,31073,2,0,P|344:224|320:264,1,75
336,240,31388,5,0,0:0:0:0:
256,192,31546,12,0,32809,0:0:0:0:
112,96,34388,6,0,L|192:96,2,75
48,160,34862,1,0,0:0:0:0:
136,192,35020,1,0,0:0:0:0:
224,232,35178,2,0,P|272:296|256:368,1,150
352,352,35651,1,0,0:0:0:0:
464,296,35809,2,0,L|384:272,2,75
488,288,36283,1,0,0:0:0:0:
464,192,36441,1,0,0:0:0:0:
384,136,36599,2,0,P|312:112|224:136,1,150
224,160,37073,6,0,L|176:224,3,75
104,184,37704,1,0,0:0:0:0:
72,96,37862,2,0,L|160:88,1,75
248,48,38178,2,0,P|272:96|264:144,1,75
336,176,38494,1,0,0:0:0:0:
411,227,38651,2,0,P|432:196|432:160,2,75
411,227,39125,1,0,0:0:0:0:
280,272,39441,6,0,L|240:336,2,75
304,248,39915,1,0,0:0:0:0:
384,208,40073,1,0,0:0:0:0:
384,208,40230,1,0,0:0:0:0:
416,128,40388,2,0,L|424:48,2,75
264,112,40862,2,0,L|292:42,2,75
184,104,41336,1,0,0:0:0:0:
128,168,41494,1,0,0:0:0:0:
160,248,41651,1,0,0:0:0:0:
256,192,41809,12,0,44178,0:0:0:0:
160,80,44494,6,0,P|112:120|112:136,2,75
160,80,44967,1,0,0:0:0:0:
240,112,45125,1,0,0:0:0:0:
312,64,45283,2,0,P|360:48|400:56,2,75
320,152,45757,1,0,0:0:0:0:
320,152,45915,1,0,0:0:0:0:
256,208,46073,2,0,P|208:248|176:256,1,75
144,176,46388,2,0,P|96:216|80:256,1,75
176,312,46704,6,0,P|256:328|360:96,1,375
288,64,47651,1,0,0:0:0:0:
240,136,47809,1,0,0:0:0:0:
144,56,47967,2,0,P|96:112|296:352,1,450
264,224,49388,6,0,L|368:224,1,75
408,160,49704,1,0,0:0:0:0:
416,64,49862,2,0,P|352:72|296:144,1,150
216,168,50336,1,0,0:0:0:0:
112,192,50494,2,0,P|104:264|192:304,1,150
256,264,50967,2,0,P|304:256|360:264,1,75
448,216,51441,2,0,P|400:200|360:200,2,75
416,304,51915,1,0,0:0:0:0:
288,304,52073,1,0,0:0:0:0:
336,200,52230,6,0,P|288:176|176:192,1,150
96,136,52704,2,0,L|160:80,1,75
272,88,53020,2,0,P|344:120|336:200,1,150
160,224,53651,2,0,P|184:280|272:320,1,150
344,248,54125,2,0,L|496:248,1,150
448,104,54599,6,0,P|392:88|336:88,2,89.9999972534181
464,184,55073,1,0,0:0:0:0:
392,264,55230,1,0,0:0:0:0:
360,232,55388,1,0,0:0:0:0:
248,264,55546,1,0,0:0:0:0:
172,175,55704,6,0,P|134:199|104:232,1,89.9999972534181
80,264,56020,1,0,0:0:0:0:
144,328,56178,2,0,P|208:352|248:352,1,89.9999972534181
312,304,56494,1,0,0:0:0:0:
344,280,56651,1,0,0:0:0:0:
280,216,56809,1,0,0:0:0:0:
144,112,57125,6,0,P|192:88|232:96,1,89.9999972534181
304,136,57441,1,0,0:0:0:0:
360,232,57599,2,0,P|328:296|328:328,2,89.9999972534181
424,96,58073,2,0,P|368:72|256:112,1,179.999994506836
259,107,58546,1,0,0:0:0:0:
256,200,58704,1,0,0:0:0:0:
160,192,58862,2,0,P|112:144|112:112,2,89.9999972534181
256,136,59336,2,0,P|336:112|312:240,1,269.999991760254
96,280,60125,6,0,P|120:216|240:160,1,179.999994506836
288,264,60599,2,0,P|368:304|456:264,1,179.999994506836
424,168,61073,2,0,L|248:96,1,179.999994506836
216,152,61546,1,0,0:0:0:0:
240,216,61704,1,0,0:0:0:0:
328,288,61862,2,0,P|400:280|432:248,1,89.9999972534181
408,184,62178,2,0,L|368:144,2,44.999998626709
296,184,62494,2,0,P|240:216|176:208,1,89.9999972534181
128,176,62809,2,0,L|88:136,2,44.999998626709
224,128,63125,2,0,P|272:72|312:64,1,89.9999972534181
344,136,63441,6,0,L|376:192,2,44.999998626709
458,175,63757,2,0,L|440:264,1,89.9999972534181
360,320,64073,2,0,L|280:352,2,44.999998626709
408,192,64546,6,0,P|336:168|224:176,1,179.999994506836
128,232,65020,2,0,P|144:280|200:304,1,89.9999972534181
256,264,65336,1,0,0:0:0:0:
344,256,65494,1,0,0:0:0:0:
448,288,65651,2,0,P|480:232|440:128,1,179.999994506836
360,96,66125,2,0,L|256:72,2,89.9999972534181
424,176,66599,2,0,P|424:232|384:264,1,89.9999972534181
402,255,66915,1,0,0:0:0:0:
256,288,67230,6,0,P|192:248|144:248,2,89.9999972534181
360,288,67704,1,0,0:0:0:0:
304,192,67862,1,0,0:0:0:0:
224,144,68020,2,0,P|160:144|120:168,1,89.9999972534181
64,224,68336,1,0,0:0:0:0:
136,304,68494,2,0,P|192:296|240:264,1,89.9999972534181
288,240,68809,2,0,P|336:216|400:224,1,89.9999972534181
440,288,69125,1,0,0:0:0:0:
496,200,69283,1,0,0:0:0:0:
416,136,69441,2,0,P|344:120|256:144,1,150
192,208,69915,5,0,0:0:0:0:
192,208,70073,2,0,P|160:272|136:288,2,75
128,144,70546,1,0,0:0:0:0:
224,80,70704,2,0,P|288:104|296:192,1,150
302,177,71178,1,0,0:0:0:0:
296,272,71336,2,0,P|352:304|376:304,1,75
440,248,71651,1,0,0:0:0:0:
408,176,71809,2,0,L|360:104,1,75
232,120,72283,6,0,P|192:152|176:176,1,56.2500021457673
144,248,72757,2,0,P|192:280|304:280,1,168.750006437302
240,208,73546,2,0,L|291:185,1,56.2500021457673
128,192,74020,2,0,P|176:232|192:232,2,56.2500021457673
144,88,74494,2,0,P|192:72|320:104,1,168.750006437302
312,272,75283,6,0,P|352:224|352:128,1,150
184,144,75757,2,0,P|152:192|184:296,1,168.750006437302
264,248,76388,1,0,0:0:0:0:
264,248,76546,2,0,P|296:216|312:192,2,56.2500021457673
224,168,77020,2,0,L|120:56,1,150
56,120,77494,2,0,P|72:176|216:272,1,225
201,270,78125,1,0,0:0:0:0:
416,224,78283,6,0,P|368:192|320:184,1,75
256,168,78599,2,0,L|192:152,2,37.5
344,112,78915,1,0,0:0:0:0:
344,112,79073,1,0,0:0:0:0:
408,184,79230,2,0,L|344:240,1,75
312,304,79546,1,0,0:0:0:0:
256,192,79704,12,0,82073,0:0:0:0:
104,200,82388,6,0,L|208:200,1,75
400,240,82862,2,0,P|360:280|328:280,2,75
384,160,83336,2,0,L|312:96,1,75
248,80,83651,1,0,0:0:0:0:
216,152,83809,1,0,0:0:0:0:
184,240,83967,2,0,L|272:264,2,75
184,240,84441,1,0,0:0:0:0:
144,168,84599,2,0,P|96:136|136:48,1,150
264,64,85073,6,0,P|296:112|288:224,1,150
296,312,85546,1,0,0:0:0:0:
296,312,85704,2,0,P|304:264|328:224,1,75
424,216,86020,2,0,P|432:168|424:128,2,75
384,304,86494,2,0,L|288:272,1,75
256,208,86809,1,0,0:0:0:0:
328,144,86967,1,0,0:0:0:0:
264,64,87125,2,0,P|200:96|152:184,1,150
64,208,87599,6,0,P|104:240|208:256,1,150
288,264,88073,1,0,0:0:0:0:
368,232,88230,2,0,P|416:192|416:160,1,75
360,96,88546,2,0,L|272:96,2,75
448,184,89020,2,0,P|408:248|320:256,1,150
288,176,89494,2,0,P|240:144|144:176,1,150
152,280,90125,1,0,0:0:0:0:
296,288,90283,2,0,P|384:272|392:200,1,150
392,128,90757,1,0,0:0:0:0:
296,64,91073,2,0,P|240:64|192:72,2,75
376,144,91546,2,0,P|392:200|368:296,1,150
372,287,92020,1,0,0:0:0:0:
256,192,92336,1,0,0:0:0:0:
176,64,92660,6,0,L|248:104,1,75
304,136,92993,2,0,L|344:208,1,75
368,272,93326,2,0,L|320:336,1,75
256,360,93678,2,0,L|160:336,1,75
120,312,94031,2,0,L|64:248,1,75
40,192,94441,2,0,L|48:96,1,75
96,64,94852,2,0,L|192:32,1,75
240,48,95284,2,0,L|328:80,1,75
256,192,95716,12,0,96616,0:0:0:0:
