osu file format v9

[General]
AudioFilename: DreamTide123.mp3
AudioLeadIn: 0
PreviewTime: 56522
Countdown: 0
SampleSet: Normal
StackLeniency: 0.7
Mode: 1
LetterboxInBreaks: 0

[Editor]
DistanceSpacing: 0.5
BeatDivisor: 4
GridSize: 4

[Metadata]
Title:Dream Tide -Yume no Chouryuu-
Artist:Chata
Creator:hoLysoup
Version:Taiko Oni
Source:Taiko no Tatsujin
Tags:Xellop L_i_a

[Difficulty]
HPDrainRate:5
CircleSize:5
OverallDifficulty:5
ApproachRate:5
SliderMultiplier:1.4
SliderTickRate:1

[Events]
//Background and Video events
0,0,"background.jpg"
//Break Periods
//Storyboard Layer 0 (Background)
//Storyboard Layer 1 (Fail)
//Storyboard Layer 2 (Pass)
//Storyboard Layer 3 (Foreground)
//Storyboard Sound Samples
//Background Colour Transformations
3,100,163,162,255

[TimingPoints]
1205,425.531914893617,4,1,1,100,1,0
57375,-100,4,1,1,100,0,1
84609,-100,4,1,1,100,0,0

[Colours]
Combo1 : 0,0,255
Combo2 : 255,0,0

[HitObjects]
256,192,2056,1,0
256,192,2162,5,8
256,192,2268,1,8
256,192,2481,5,0
256,192,2587,5,8
256,192,2694,1,8
256,192,2907,5,0
256,192,3119,5,8
256,192,3332,1,8
256,192,3545,5,0
256,192,3651,5,8
256,192,3864,1,8
256,192,3970,5,0
256,192,4183,5,8
256,192,4396,1,8
256,192,4609,5,0
256,192,4822,5,8
256,192,5034,1,8
256,192,5247,5,0
256,192,5353,5,8
256,192,5566,1,8
256,192,5673,5,0
256,192,5885,5,8
256,192,6098,1,8
256,192,6311,5,0
256,192,6524,5,8
256,192,6736,1,8
256,192,6949,5,0
256,192,7056,5,8
256,192,7268,1,8
256,192,7375,5,0
256,192,7587,5,8
256,192,7800,1,8
256,192,8013,5,0
256,192,8226,5,8
256,192,8439,1,8
256,192,8651,5,0
256,192,8758,5,8
256,192,8970,1,8
256,192,9077,5,0
256,192,9183,1,0
256,192,9290,5,8
256,192,9502,1,8
256,192,9715,5,0
256,192,9928,5,8
256,192,10141,1,8
256,192,10353,5,0
256,192,10460,5,8
256,192,10673,1,8
256,192,10779,5,0
256,192,10992,5,8
256,192,11205,1,8
256,192,11417,5,0
256,192,11630,5,8
256,192,11843,1,8
256,192,12056,5,0
256,192,12162,5,8
256,192,12375,1,8
256,192,12481,5,0
256,192,12694,5,8
256,192,12907,1,8
256,192,13119,5,0
256,192,13332,5,8
256,192,13545,1,8
256,192,13758,5,0
256,192,13864,5,8
256,192,14077,1,8
256,192,14183,5,0
256,192,14396,5,8
256,192,14609,1,8
256,192,14822,5,0
256,192,15034,5,8
256,192,15247,1,8
256,192,15460,5,0
256,192,15566,1,0
256,192,15673,5,8
256,192,15779,1,8
256,192,15885,5,0
256,192,15992,1,0
256,192,16098,5,8
256,192,16205,1,8
256,192,16311,5,0
256,192,16417,5,8
256,192,16524,5,0
256,192,16736,1,0
256,192,16843,1,0
256,192,16949,5,8
256,192,17162,5,0
256,192,17375,1,0
256,192,17587,1,0
256,192,17694,5,8
256,192,17907,1,8
256,192,18013,5,0
256,192,18226,1,0
256,192,18439,5,8
256,192,18545,1,8
256,192,18651,1,8
256,192,18864,5,0
256,192,19077,1,0
256,192,19183,1,0
256,192,19396,1,0
256,192,19502,5,8
256,192,19715,5,0
256,192,19928,1,0
256,192,20141,1,0
256,192,20247,1,0
256,192,20353,5,8
256,192,20566,5,0
256,192,20779,1,0
256,192,20992,5,8
256,192,21098,5,0
256,192,21311,1,0
256,192,21417,5,8
256,192,21630,5,0
256,192,21843,1,0
256,192,21949,1,0
256,192,22056,5,8
256,192,22268,5,0
256,192,22481,1,0
256,192,22587,1,0
256,192,22800,1,0
256,192,22907,5,8
256,192,23119,5,0
256,192,23332,1,0
256,192,23545,1,0
256,192,23651,1,0
256,192,23758,5,8
256,192,23970,5,0
256,192,24183,1,0
256,192,24396,1,0
256,192,24502,5,8
256,192,24715,1,8
256,192,24822,5,0
256,192,25034,1,0
256,192,25247,5,8
256,192,25353,1,8
256,192,25460,1,8
256,192,25673,5,0
256,192,25885,1,0
256,192,25992,1,0
256,192,26204,1,0
256,192,26311,5,8
256,192,26524,5,0
256,192,26736,1,0
256,192,26949,1,0
256,192,27056,1,0
256,192,27162,5,8
256,192,27375,5,0
256,192,27587,1,0
256,192,27800,5,8
256,192,27907,5,0
256,192,28119,1,0
256,192,28226,5,8
256,192,28439,5,0
256,192,28651,1,0
256,192,28758,1,0
256,192,28864,5,8
256,192,29077,5,0
256,192,29290,1,0
256,192,29396,1,0
256,192,29609,1,0
256,192,29715,5,8
256,192,29928,5,0
256,192,30141,1,0
256,192,30353,1,0
256,192,30460,1,0
256,192,30566,5,8
256,192,30779,5,0
256,192,30992,1,0
256,192,31204,1,0
256,192,31311,5,8
256,192,31524,1,8
256,192,31630,5,0
256,192,31843,1,0
256,192,32056,5,8
256,192,32162,1,8
256,192,32268,1,8
256,192,32481,5,0
256,192,32694,1,0
256,192,32800,1,0
256,192,33013,1,0
256,192,33119,5,8
256,192,33332,5,0
256,192,33545,1,0
256,192,33758,1,0
256,192,33864,1,0
256,192,33970,5,8
256,192,34183,5,0
256,192,34396,1,0
256,192,34609,5,8
256,192,34715,5,0
256,192,34928,1,0
256,192,35034,5,8
256,192,35247,5,0
256,192,35460,1,0
256,192,35566,1,0
256,192,35673,5,8
256,192,35885,5,0
256,192,36098,1,0
256,192,36204,1,0
256,192,36417,1,0
256,192,36524,5,8
256,192,36736,5,0
256,192,36949,1,0
256,192,37162,1,0
256,192,37268,1,0
256,192,37375,5,8
256,192,37587,5,0
256,192,37800,1,0
256,192,38013,1,0
256,192,38119,5,8
256,192,38332,1,8
256,192,38439,5,0
256,192,38651,1,0
256,192,38864,5,8
256,192,38970,1,8
256,192,39077,1,8
256,192,39290,5,0
256,192,39502,1,0
256,192,39609,1,0
256,192,39822,1,0
256,192,39928,5,8
256,192,40141,5,0
256,192,40353,1,0
256,192,40566,1,0
256,192,40673,1,0
256,192,40779,5,8
256,192,40992,5,0
256,192,41204,1,0
256,192,41417,5,8
256,192,41524,5,0
256,192,41736,1,0
256,192,41843,5,8
256,192,42056,5,0
256,192,42268,1,0
256,192,42375,1,0
256,192,42481,5,8
256,192,42694,5,0
256,192,42907,1,0
256,192,43013,1,0
256,192,43226,1,0
256,192,43332,5,8
256,192,43545,5,0
256,192,43758,1,0
256,192,43864,1,0
256,192,43970,1,0
256,192,44183,5,8
256,192,44396,5,0
256,192,44502,5,8
256,192,44715,1,8
256,192,44822,5,0
256,192,45034,5,8
256,192,45247,5,0
256,192,45460,5,8
256,192,45566,1,8
256,192,45673,1,8
256,192,45885,5,0
256,192,46098,5,8
256,192,46205,5,0
256,192,46417,1,0
256,192,46524,5,8
256,192,46736,1,8
256,192,46949,5,0
256,192,47162,1,0
256,192,47268,1,0
256,192,47375,1,0
256,192,47587,5,8
256,192,47694,5,0
256,192,47800,1,0
256,192,47907,5,8
256,192,48119,1,8
256,192,48226,5,0
256,192,48439,5,8
256,192,48651,5,0
256,192,48758,5,8
256,192,48970,1,8
256,192,49077,5,0
256,192,49290,5,8
256,192,49396,5,0
256,192,49502,1,0
256,192,49609,5,8
256,192,49822,1,8
256,192,49928,5,0
256,192,50034,1,0
256,192,50247,5,8
256,192,50353,5,0
256,192,50566,1,0
256,192,50673,1,0
256,192,50779,5,8
256,192,50992,1,8
256,192,51205,5,0
256,192,51311,5,8
256,192,51524,1,8
256,192,51630,5,0
256,192,51843,5,8
256,192,52056,5,0
256,192,52268,5,8
256,192,52375,1,8
256,192,52481,5,0
256,192,52694,1,0
256,192,52907,5,8
256,192,53013,5,0
256,192,53226,1,0
256,192,53332,5,8
256,192,53545,1,8
256,192,53758,5,0
256,192,53970,1,0
256,192,54077,1,0
256,192,54183,1,0
256,192,54396,5,8
256,192,54502,5,0
256,192,54609,1,0
256,192,54715,5,8
256,192,54928,1,8
256,192,55034,5,0
256,192,55141,1,0
256,192,55353,5,8
256,192,55460,5,0
256,192,56524,1,0
256,192,56630,1,0
256,192,56843,1,0
256,192,56949,1,0
256,192,57162,5,8
256,192,57375,5,0
256,192,57587,1,0
256,192,57694,1,0
256,192,57800,5,8
256,192,58013,5,0
256,192,58119,1,0
256,192,58332,5,8
256,192,58439,5,0
256,192,58651,5,8
256,192,58864,5,0
256,192,59077,1,0
256,192,59290,1,0
256,192,59396,1,0
256,192,59502,5,8
256,192,59715,5,0
256,192,59822,1,0
256,192,60034,5,8
256,192,60141,5,0
256,192,60247,1,0
256,192,60353,5,8
256,192,60566,5,0
256,192,60779,1,0
256,192,60992,1,0
256,192,61098,1,0
256,192,61205,5,8
256,192,61417,5,0
256,192,61524,1,0
256,192,61736,5,8
256,192,61843,5,0
256,192,62056,5,8
256,192,62268,5,0
256,192,62481,1,0
256,192,62694,1,0
256,192,62800,1,0
256,192,62907,5,8
256,192,63119,5,0
256,192,63226,1,0
256,192,63439,5,8
256,192,63545,5,0
256,192,63651,1,0
256,192,63758,5,8
256,192,63970,5,0
256,192,64183,1,0
256,192,64396,1,0
256,192,64502,1,0
256,192,64609,5,8
256,192,64822,5,0
256,192,64928,1,0
256,192,65141,5,8
256,192,65247,5,0
256,192,65460,5,8
256,192,65673,5,0
256,192,65885,1,0
256,192,66098,1,0
256,192,66205,1,0
256,192,66311,5,8
256,192,66524,5,0
256,192,66630,1,0
256,192,66843,5,8
256,192,66949,5,0
256,192,67056,1,0
256,192,67162,5,8
256,192,67375,5,0
256,192,67587,1,0
256,192,67800,1,0
256,192,67907,1,0
256,192,68013,5,8
256,192,68226,5,0
256,192,68332,1,0
256,192,68545,5,8
256,192,68651,5,0
256,192,68864,5,8
256,192,69077,5,0
256,192,69290,1,0
256,192,69502,1,0
256,192,69609,1,0
256,192,69715,5,8
256,192,69928,5,0
256,192,70034,1,0
256,192,70247,5,8
256,192,70353,1,8
256,192,70460,5,0
256,192,70566,1,0
256,192,70673,5,8
256,192,70779,1,8
256,192,70885,5,0
256,192,70992,1,0
256,192,71205,5,8
256,192,71311,5,0
256,192,71417,1,0
256,192,71630,1,0
256,192,71736,5,8
256,192,71949,1,8
256,192,72056,5,0
256,192,72268,5,8
256,192,72375,1,8
256,192,72481,5,0
256,192,72694,1,0
256,192,72907,5,8
256,192,73013,5,0
256,192,73119,1,0
256,192,73332,5,8
256,192,73439,5,0
256,192,73651,1,0
256,192,73758,5,8
256,192,73864,1,8
256,192,73970,5,0
256,192,74183,5,8
256,192,74396,5,0
256,192,74609,5,8
256,192,74715,5,0
256,192,74822,1,0
256,192,75034,1,0
256,192,75141,5,8
256,192,75353,1,8
256,192,75460,5,0
256,192,75673,5,8
256,192,75779,1,8
256,192,75885,5,0
256,192,76098,1,0
256,192,76311,5,8
256,192,76417,5,0
256,192,76524,1,0
256,192,76736,5,8
256,192,76843,5,0
256,192,77056,1,0
256,192,77162,5,8
256,192,77268,1,8
256,192,77375,5,0
256,192,77587,5,8
256,192,77800,5,0
256,192,78013,5,8
256,192,78119,5,0
256,192,78226,1,0
256,192,78439,1,0
256,192,78545,5,8
256,192,78758,1,8
256,192,78864,5,0
256,192,79077,5,8
256,192,79183,1,8
256,192,79290,5,0
256,192,79502,1,0
256,192,79715,5,8
256,192,79822,5,0
256,192,79928,1,0
256,192,80141,5,8
256,192,80247,5,0
256,192,80460,1,0
256,192,80566,5,8
256,192,80673,1,8
256,192,80779,5,0
256,192,80992,5,8
256,192,81204,5,0
256,192,81417,5,8
256,192,81524,5,0
256,192,81630,1,0
256,192,81843,1,0
256,192,81949,5,8
256,192,82162,1,8
256,192,82268,5,0
256,192,82481,5,8
256,192,82587,1,8
256,192,82694,5,0
256,192,82907,1,0
256,192,83119,5,8
256,192,83226,5,0
256,192,83332,1,0
256,192,83545,5,8
256,192,83651,5,0
256,192,83864,5,8
256,192,83970,1,8
256,192,84077,5,0
256,192,84183,1,0
256,192,84290,5,8
256,192,84396,1,8
256,192,84502,5,0
256,192,84609,1,0
256,192,84822,5,8
256,192,85034,1,8
256,192,85247,5,0
256,192,85353,5,8
256,192,85566,1,8
256,192,85673,5,0
256,192,85885,5,8
256,192,86098,1,8
256,192,86311,5,0
256,192,86524,5,8
256,192,86736,1,8
256,192,86949,5,0
256,192,87056,5,8
256,192,87268,1,8
256,192,87375,5,0
256,192,87587,5,8
256,192,87800,1,8
256,192,88013,5,0
256,192,88226,5,8
256,192,88439,1,8
256,192,88651,5,0
256,192,88758,5,8
256,192,88970,1,8
256,192,89077,5,0
256,192,89290,5,8
256,192,89502,1,8
256,192,89715,5,0
256,192,89928,5,8
256,192,90141,1,8
256,192,90353,5,0
256,192,90460,5,8
256,192,90673,1,8
256,192,90779,5,0
256,192,90885,1,0
256,192,90992,5,8
256,192,91204,1,8
256,192,91417,5,0
256,192,91630,5,8
256,192,91843,1,8
256,192,92056,5,0
256,192,92162,5,8
256,192,92375,1,8
256,192,92481,5,0
256,192,92694,5,8
256,192,92907,1,8
256,192,93119,5,0
256,192,93332,5,8
256,192,93545,1,8
256,192,93758,5,0
256,192,93864,5,8
256,192,94077,1,8
256,192,94183,5,0
256,192,94396,5,8
256,192,94609,1,8
256,192,94822,5,0
256,192,95034,5,8
256,192,95247,1,8
256,192,95460,5,0
256,192,95566,5,8
256,192,95779,1,8
256,192,95885,5,0
256,192,96098,5,8
256,192,96311,1,8
256,192,96524,12,0,98013
