osu file format v14

[General]
AudioFilename: Dango.mp3
AudioLeadIn: 0
PreviewTime: 47710
Countdown: 0
SampleSet: Soft
StackLeniency: 0.7
Mode: 3
LetterboxInBreaks: 0
SpecialStyle: 0
WidescreenStoryboard: 0

[Editor]
Bookmarks: 37510,38110,38710,56110,67210
DistanceSpacing: 0.9
BeatDivisor: 4
GridSize: 8
TimelineZoom: 1

[Metadata]
Title:Dango Daikazoku - TV animation Ver. -
TitleUnicode:だんご大家族 - TV animation Ver. -
Artist:Chata
ArtistUnicode:茶太
Creator:Julie
Version:Easy Piano
Source:CLANNAD
Tags:Keysound Tasty Cute Round Japanese Food Eat Big Family Funny -クラナド- Key Size Version Sad Cry Comedy Drama Romance School Slice of Life Supernatural Theme
BeatmapID:702435
BeatmapSetID:314954

[Difficulty]
HPDrainRate:6
CircleSize:7
OverallDifficulty:6
ApproachRate:5
SliderMultiplier:1.4
SliderTickRate:1

[Events]
//Background and Video events
0,0,"BG.png",0,0
//Break Periods
//Storyboard Layer 0 (Background)
//Storyboard Layer 1 (Fail)
//Storyboard Layer 2 (Pass)
//Storyboard Layer 3 (Foreground)
//Storyboard Sound Samples
Sample,10510,0,"C#5S_Db5S.wav",45
Sample,11710,0,"F5S.wav",45
Sample,12910,0,"C5S.wav",45
Sample,14110,0,"F5S.wav",45
Sample,15310,0,"C#5S_Db5S.wav",45
Sample,16510,0,"F5S.wav",45
Sample,17710,0,"C5S.wav",45
Sample,18910,0,"G5S.wav",45
Sample,20110,0,"C#5S_Db5S.wav",45
Sample,21310,0,"F5S.wav",45
Sample,22510,0,"C5S.wav",45
Sample,23710,0,"F5S.wav",45
Sample,24910,0,"C#5S_Db5S.wav",45
Sample,26110,0,"F5S.wav",45
Sample,27310,0,"G#5S_Ab5S.wav",45
Sample,27910,0,"D#5S_Eb5S.wav",45
Sample,28510,0,"G5S.wav",45
Sample,29710,0,"F#5S_Gb5S.wav",45
Sample,30910,0,"A#5S_Bb5S.wav",45
Sample,32110,0,"G#5S_Ab5S.wav",45
Sample,33310,0,"D#5S_Eb5S.wav",45
Sample,34510,0,"F5S.wav",45
Sample,35710,0,"G#5S_Ab5S.wav",45
Sample,36910,0,"G#5S_Ab5S.wav",45
Sample,37510,0,"D#5S_Eb5S.wav",45
Sample,38110,0,"F5S.wav",45
Sample,38710,0,"G#5S_Ab5S.wav",45
Sample,39310,0,"F#5S_Gb5S.wav",45
Sample,40510,0,"A#5S_Bb5S.wav",45
Sample,41710,0,"G#5S_Ab5S.wav",45
Sample,42910,0,"D#5S_Eb5S.wav",45
Sample,44110,0,"F5S.wav",45
Sample,46510,0,"D#6S_Eb6S.wav",45
Sample,46810,0,"C#6S_Db6S.wav",45
Sample,47110,0,"D#6S_Eb6S.wav",45
Sample,47410,0,"C#6S_Db6S.wav",45
Sample,47710,0,"G3S.wav",45
Sample,47710,0,"A#4S_Bb4S.wav",45
Sample,48910,0,"C#5S_Db5S.wav",45
Sample,50110,0,"G#5S_Ab5S.wav",45
Sample,51310,0,"C5S.wav",45
Sample,52510,0,"G#5S_Ab5S.wav",45
Sample,53710,0,"F5S.wav",45
Sample,54910,0,"C#5S_Db5S.wav",45
Sample,54910,0,"F5S.wav",45
Sample,55510,0,"G#4S_Ab4S.wav",45
Sample,56110,0,"C5S.wav",45
Sample,56710,0,"C5S.wav",45
Sample,57310,0,"G5S.wav",45
Sample,57910,0,"D#5S_Eb5S.wav",45
Sample,58510,0,"C#5S_Db5S.wav",45
Sample,59710,0,"G#5S_Ab5S.wav",45
Sample,60910,0,"C5S.wav",45
Sample,62110,0,"D#5S_Eb5S.wav",45
Sample,62710,0,"C5S.wav",45
Sample,63310,0,"A#3S_Bb3S.wav",45
Sample,63610,0,"F4S.wav",45
Sample,63910,0,"A#4S_Bb4S.wav",45
Sample,64510,0,"D#4S_Eb4S.wav",45
Sample,64810,0,"A#4S_Bb4S.wav",45
Sample,65110,0,"D#5S_Eb5S.wav",45
Sample,65710,0,"G#4S_Ab4S.wav",45
Sample,66310,0,"C5S.wav",45
Sample,66610,0,"D#4S_Eb4S.wav",45
Sample,66910,0,"G5S.wav",45
Sample,66910,0,"A#3S_Bb3S.wav",45
Sample,67510,0,"D#5S_Eb5S.wav",45
Sample,67810,0,"G5S.wav",45
Sample,68110,0,"C#5S_Db5S.wav",45
Sample,69310,0,"G#5S_Ab5S.wav",45
Sample,70510,0,"C5S.wav",45
Sample,71710,0,"C5S.wav",45
Sample,72910,0,"C#4S_Db4S.wav",45
Sample,74110,0,"G#5S_Ab5S.wav",45
Sample,75310,0,"C5S.wav",45
Sample,75910,0,"G#5S_Ab5S.wav",45
Sample,76510,0,"G5S.wav",45
Sample,77110,0,"D#5S_Eb5S.wav",45
Sample,77710,0,"C#5S_Db5S.wav",45
Sample,78910,0,"G#5S_Ab5S.wav",45
Sample,80110,0,"C5S.wav",45
Sample,81310,0,"D#5S_Eb5S.wav",45
Sample,82510,0,"C#5S_Db5S.wav",45
Sample,82810,0,"G#4S_Ab4S.wav",45
Sample,83110,0,"A#4S_Bb4S.wav",45
Sample,83710,0,"D#4S_Eb4S.wav",45
Sample,84310,0,"G4S_short.wav",45

[TimingPoints]
910,600,4,2,0,45,1,0
48910,-100,4,2,0,45,0,1
82510,-100,4,2,0,45,0,0

[HitObjects]
288,192,910,5,0,0:0:0:45:LR_NBell_F6.wav
109,192,1210,1,0,0:0:0:45:LR_NBell_D#6.wav
402,192,1510,1,0,0:0:0:45:LR_NBell_G#6.wav
36,192,2110,1,0,0:0:0:45:LR_NBell_G#6.wav
329,192,2710,1,0,0:0:0:45:LR_NBell_A#6.wav
182,192,3310,1,0,0:0:0:45:LR_NBell_A#6.wav
480,192,3910,1,0,0:0:0:45:C7.wav
329,192,4510,1,0,0:0:0:45:LR_NBell_G#6.wav
182,192,5110,1,0,0:0:0:45:LR_NBell_D#6.wav
288,192,5710,5,0,0:0:0:45:LR_NBell_F6.wav
109,192,6010,1,0,0:0:0:45:LR_NBell_D#6.wav
402,192,6310,1,0,0:0:0:45:LR_NBell_G#6.wav
182,192,6910,1,0,0:0:0:45:LR_NBell_G#6.wav
475,192,7510,5,0,0:0:0:45:LR_NBell_A#6.wav
256,192,8110,1,0,0:0:0:45:LR_NBell_G#6.wav
36,192,10510,1,0,0:0:0:45:LR_NBell_F5.wav
256,192,10810,1,0,0:0:0:45:LR_NBell_D#5.wav
475,192,11110,1,0,0:0:0:45:LR_NBell_G#5.wav
109,192,11710,1,0,0:0:0:45:LR_NBell_G#5.wav
329,192,12310,1,0,0:0:0:45:LR_NBell_A#5.wav
182,192,12910,1,0,0:0:0:45:LR_NBell_A#5.wav
402,192,13510,1,0,0:0:0:45:LR_NBell_C6.wav
256,192,14110,1,0,0:0:0:45:LR_NBell_G#5.wav
109,192,14710,1,0,0:0:0:45:LR_NBell_D#5.wav
288,192,15310,1,0,0:0:0:45:LR_NBell_F5.wav
182,192,15610,1,0,0:0:0:45:LR_NBell_D#5.wav
352,192,15910,1,0,0:0:0:45:LR_NBell_G#5.wav
36,192,16510,1,0,0:0:0:45:LR_NBell_G#5.wav
329,192,17110,1,0,0:0:0:45:LR_NBell_A#5.wav
182,192,17710,1,0,0:0:0:45:LR_NBell_A#5.wav
480,192,18310,1,0,0:0:0:45:LR_NBell_C6.wav
256,192,18910,1,0,0:0:0:45:LR_NBell_A#5.wav
288,192,20110,1,0,0:0:0:45:LR_NBell_F5.wav
109,192,20410,1,0,0:0:0:45:LR_NBell_D#5.wav
402,192,20710,1,0,0:0:0:45:LR_NBell_G#5.wav
36,192,21310,1,0,0:0:0:45:LR_NBell_G#5.wav
329,192,21910,1,0,0:0:0:45:LR_NBell_A#5.wav
182,192,22510,1,0,0:0:0:45:LR_NBell_A#5.wav
480,192,23110,1,0,0:0:0:45:LR_NBell_C6.wav
352,192,23710,1,0,0:0:0:45:LR_NBell_G#5.wav
182,192,24310,1,0,0:0:0:45:LR_NBell_D#5.wav
288,192,24910,1,0,0:0:0:45:LR_NBell_F5.wav
109,192,25210,1,0,0:0:0:45:LR_NBell_D#5.wav
402,192,25510,1,0,0:0:0:45:LR_NBell_G#5.wav
182,192,26110,1,0,0:0:0:45:LR_NBell_G#5.wav
475,192,26710,1,0,0:0:0:45:LR_NBell_A#5.wav
256,192,27310,1,0,0:0:0:45:LR_NBell_G#5.wav
109,192,28510,1,0,0:0:0:45:LR_NBell_D#5.wav
480,192,29710,1,0,0:0:0:45:LR_NBell_C#6.wav
329,192,30010,1,0,0:0:0:45:LR_NBell_C6.wav
182,192,30310,1,0,0:0:0:45:LR_NBell_G#5.wav
36,192,30610,1,0,0:0:0:45:LR_NBell_F5.wav
256,192,31210,1,0,0:0:0:45:LR_NBell_G#5.wav
475,192,31510,1,0,0:0:0:45:LR_NBell_A#5.wav
109,192,31810,1,0,0:0:0:45:LR_NBell_F5.wav
329,192,32110,1,0,0:0:0:45:LR_NBell_G#5.wav
182,192,32710,1,0,0:0:0:45:LR_NBell_D#5.wav
36,192,33310,1,0,0:0:0:45:LR_NBell_F5.wav
256,192,33910,1,0,0:0:0:45:LR_NBell_G#5.wav
480,192,34510,1,0,0:0:0:45:LR_NBell_C#6.wav
329,192,34810,1,0,0:0:0:45:LR_NBell_C6.wav
182,192,35110,1,0,0:0:0:45:LR_NBell_G#5.wav
36,192,35410,1,0,0:0:0:45:LR_NBell_F5.wav
256,192,36010,1,0,0:0:0:45:LR_NBell_G#5.wav
475,192,36310,1,0,0:0:0:45:LR_NBell_A#5.wav
109,192,36610,1,0,0:0:0:45:LR_NBell_F5.wav
329,192,36910,1,0,0:0:0:45:LR_NBell_G#5.wav
480,192,39310,1,0,0:0:0:45:LR_NBell_C#6.wav
329,192,39610,1,0,0:0:0:45:LR_NBell_C6.wav
182,192,39910,1,0,0:0:0:45:LR_NBell_G#5.wav
36,192,40210,1,0,0:0:0:45:LR_NBell_F5.wav
256,192,40810,1,0,0:0:0:45:LR_NBell_G#5.wav
475,192,41110,1,0,0:0:0:45:LR_NBell_A#5.wav
109,192,41410,1,0,0:0:0:45:LR_NBell_F5.wav
329,192,41710,1,0,0:0:0:45:LR_NBell_G#5.wav
36,192,42310,1,0,0:0:0:45:LR_NBell_D#5.wav
256,192,42910,1,0,0:0:0:45:LR_NBell_F5.wav
475,192,43510,1,0,0:0:0:45:LR_NBell_G#5.wav
109,192,44110,1,0,0:0:0:45:LR_NBell_D#5.wav
329,192,45010,1,0,0:0:0:45:LR_NBell_G#5.wav
36,192,45310,1,0,0:0:0:45:LR_NBell_C#5.wav
256,192,46210,1,0,0:0:0:45:LR_NBell_C#5.wav
36,192,48010,1,0,0:0:0:45:LR_NBell_D#5.wav
182,192,48310,1,0,0:0:0:45:LR_NBell_G#5.wav
329,192,48610,1,0,0:0:0:45:LR_NBell_A#5.wav
480,192,48910,1,0,0:0:0:45:LR_NBell_A#5.wav
402,192,49510,1,0,0:0:0:45:LR_NBell_G#5.wav
256,192,49810,1,0,0:0:0:45:LR_NBell_F5.wav
36,192,50410,1,0,0:0:0:45:LR_NBell_G#5.wav
182,192,50710,1,0,0:0:0:45:LR_NBell_A#5.wav
329,192,51010,1,0,0:0:0:45:LR_NBell_C6.wav
480,192,51310,1,0,0:0:0:45:LR_NBell_D#6.wav
109,192,51610,1,0,0:0:0:45:LR_NBell_A#5.wav
416,192,51910,1,0,0:0:0:45:LR_NBell_C6.wav
256,192,52510,1,0,0:0:0:45:LR_NBell_G#5.wav
36,192,52810,1,0,0:0:0:45:LR_NBell_D#5.wav
182,192,53110,1,0,0:0:0:45:LR_NBell_G#5.wav
329,192,53410,1,0,0:0:0:45:LR_NBell_A#5.wav
475,192,53710,1,0,0:0:0:45:LR_NBell_A#5.wav
402,192,54310,1,0,0:0:0:45:LR_NBell_G#5.wav
256,192,54610,1,0,0:0:0:45:LR_NBell_F5.wav
36,192,55210,1,0,0:0:0:45:LR_NBell_A#5.wav
182,192,55510,1,0,0:0:0:45:LR_NBell_G#5.wav
480,192,55810,1,0,0:0:0:45:LR_NBell_D#6.wav
329,192,56110,1,0,0:0:0:45:LR_NBell_C6.wav
36,192,57610,1,0,0:0:0:45:LR_NBell_D#5.wav
182,192,57910,1,0,0:0:0:45:LR_NBell_G#5.wav
329,192,58210,1,0,0:0:0:45:LR_NBell_A#5.wav
480,192,58510,1,0,0:0:0:45:LR_NBell_A#5.wav
416,192,59110,1,0,0:0:0:45:LR_NBell_G#5.wav
256,192,59410,1,0,0:0:0:45:LR_NBell_F5.wav
36,192,60010,1,0,0:0:0:45:LR_NBell_G#5.wav
182,192,60310,1,0,0:0:0:45:LR_NBell_A#5.wav
329,192,60610,1,0,0:0:0:45:LR_NBell_C6.wav
480,192,60910,1,0,0:0:0:45:LR_NBell_D#6.wav
109,192,61210,1,0,0:0:0:45:LR_NBell_A#5.wav
416,192,61510,1,0,0:0:0:45:LR_NBell_C6.wav
256,192,62110,1,0,0:0:0:45:LR_NBell_G#5.wav
182,192,62710,1,0,0:0:0:45:LR_NBell_G5.wav
109,192,63310,1,0,0:0:0:45:LR_NBell_F5.wav
36,192,64210,1,0,0:0:0:45:LR_NBell_F5.wav
256,192,64510,1,0,0:0:0:45:LR_NBell_G5.wav
402,192,65110,1,0,0:0:0:45:LR_NBell_G#5.wav
182,192,65410,1,0,0:0:0:45:LR_NBell_G5.wav
480,192,66010,1,0,0:0:0:45:LR_NBell_G#5.wav
36,192,67210,1,0,0:0:0:45:LR_NBell_D#5.wav
182,192,67510,1,0,0:0:0:45:LR_NBell_G#5.wav
329,192,67810,1,0,0:0:0:45:LR_NBell_A#5.wav
480,192,68110,1,0,0:0:0:45:LR_NBell_A#5.wav
402,192,68710,1,0,0:0:0:45:LR_NBell_G#5.wav
224,192,69010,1,0,0:0:0:45:LR_NBell_F5.wav
36,192,69610,1,0,0:0:0:45:LR_NBell_G#5.wav
182,192,69910,1,0,0:0:0:45:LR_NBell_A#5.wav
329,192,70210,1,0,0:0:0:45:LR_NBell_C6.wav
480,192,70510,1,0,0:0:0:45:LR_NBell_D#6.wav
109,192,70810,1,0,0:0:0:45:LR_NBell_A#5.wav
416,192,71110,1,0,0:0:0:45:LR_NBell_C6.wav
256,192,71710,1,0,0:0:0:45:LR_NBell_G#5.wav
36,192,72010,1,0,0:0:0:45:LR_NBell_D#5.wav
182,192,72310,1,0,0:0:0:45:LR_NBell_G#5.wav
329,192,72610,1,0,0:0:0:45:LR_NBell_A#5.wav
475,192,72910,1,0,0:0:0:45:LR_NBell_A#5.wav
256,192,73510,1,0,0:0:0:45:LR_NBell_G#5.wav
36,192,73810,1,0,0:0:0:45:LR_NBell_F5.wav
402,192,74410,1,0,0:0:0:45:LR_NBell_A#5.wav
109,192,74710,1,0,0:0:0:45:LR_NBell_G#5.wav
480,192,75010,1,0,0:0:0:45:LR_NBell_D#6.wav
256,192,75310,1,0,0:0:0:45:LR_NBell_C6.wav
36,192,76810,5,0,0:0:0:45:LR_NBell_D#5.wav
182,192,77110,1,0,0:0:0:45:LR_NBell_G#5.wav
329,192,77410,1,0,0:0:0:45:LR_NBell_A#5.wav
480,192,77710,1,0,0:0:0:45:LR_NBell_A#5.wav
416,192,78310,1,0,0:0:0:45:LR_NBell_G#5.wav
256,192,78610,1,0,0:0:0:45:LR_NBell_F5.wav
36,192,79210,1,0,0:0:0:45:LR_NBell_G#5.wav
182,192,79510,1,0,0:0:0:45:LR_NBell_A#5.wav
329,192,79810,1,0,0:0:0:45:LR_NBell_C6.wav
480,192,80110,1,0,0:0:0:45:LR_NBell_D#6.wav
109,192,80410,1,0,0:0:0:45:LR_NBell_A#5.wav
416,192,80710,1,0,0:0:0:45:LR_NBell_C6.wav
256,192,81310,1,0,0:0:0:45:LR_NBell_G#5.wav
182,192,81910,1,0,0:0:0:45:LR_NBell_G5.wav
109,192,82510,1,0,0:0:0:45:LR_NBell_F5.wav
256,192,83710,1,0,0:0:0:45:LR_NBell_G5.wav
475,192,84310,1,0,0:0:0:45:LR_NBell_G#5.wav
36,192,84610,1,0,0:0:0:45:LR_NBell_G5.wav
475,192,85210,1,0,0:0:0:45:LR_NBell_G#5.wav
