osu file format v12

[General]
AudioFilename: Clannad_ending.mp3
AudioLeadIn: 0
PreviewTime: 48825
Countdown: 0
SampleSet: Soft
StackLeniency: 0.7
Mode: 0
LetterboxInBreaks: 0
WidescreenStoryboard: 0

[Editor]
Bookmarks: 48900
DistanceSpacing: 1
BeatDivisor: 4
GridSize: 4

[Metadata]
Title:Dango Daikazoku (TV Animation Ver.)
TitleUnicode:だんご大家族 (TV Animation Ver.)
Artist:Chata
ArtistUnicode:茶太
Creator:-Kirito
Version:Hard
Source:CLANNAD
Tags:ending
BeatmapID:324223
BeatmapSetID:127920

[Difficulty]
HPDrainRate:6
CircleSize:4
OverallDifficulty:6
ApproachRate:7
SliderMultiplier:1.7
SliderTickRate:1

[Events]
//Background and Video events
Video,0,"bgv.avi"
0,0,"dango.jpg",0,0
//Break Periods
//Storyboard Layer 0 (Background)
//Storyboard Layer 1 (Fail)
//Storyboard Layer 2 (Pass)
//Storyboard Layer 3 (Foreground)
//Storyboard Sound Samples
//Background Colour Transformations
3,100,163,162,255

[TimingPoints]
900,600,4,2,1,50,1,0
48900,-90.9090909090909,4,3,1,40,0,1
49200,-90.9090909090909,4,2,1,70,0,1
58500,-90.9090909090909,4,3,1,40,0,1
58800,-100,4,2,1,70,0,1
68100,-100,4,3,1,40,0,1
68400,-100,4,2,1,70,0,1
77700,-100,4,3,1,40,0,1
78000,-100,4,2,1,70,0,1
84600,-100,4,2,1,20,0,1
85350,-100,4,2,1,5,0,1
86100,-100,4,2,1,5,0,0

[Colours]
Combo1 : 194,134,255
Combo2 : 255,193,164
Combo3 : 147,201,255
Combo4 : 121,255,188
Combo5 : 255,166,166

[HitObjects]
196,328,900,1,0,0:0:0:0:
276,304,1200,1,2,0:0:0:0:
216,244,1500,1,0,0:0:0:0:
52,196,2100,1,0,0:0:0:0:
176,80,2700,1,2,0:0:0:0:
216,244,3300,5,0,0:0:0:0:
96,120,3900,1,2,0:0:0:0:
260,80,4500,1,0,0:0:0:0:
216,244,5100,1,2,0:0:0:0:
216,244,5700,5,2,0:0:0:0:
280,188,6000,1,2,0:0:0:0:
364,208,6300,1,0,0:0:0:0:
364,208,6900,2,0,P|416:200|440:180,1,85
456,48,7500,1,2,0:0:0:0:
400,108,7800,1,0,0:0:0:0:
440,180,8100,1,2,0:0:0:0:
488,240,10500,5,2,0:0:0:0:
440,312,10800,1,0,0:0:0:0:
356,300,11100,2,0,P|276:288|208:344,2,170,2|2|0,0:0|0:0|0:0,0:0:0:0:
356,300,12900,2,0,B|368:232|368:232|388:208|388:208|400:140,1,170,2|2,0:0|0:0,0:0:0:0:
112,140,14100,2,0,B|124:208|124:208|144:232|144:232|156:300,1,170,2|2,0:0|0:0,0:0:0:0:
332,88,15300,5,0,0:0:0:0:
256,124,15600,1,2,0:0:0:0:
180,88,15900,1,2,0:0:0:0:
376,12,16500,2,0,P|420:88|388:156,1,170,2|0,0:0|0:0,0:0:0:0:
124,156,17700,2,0,P|92:81|136:12,1,170,2|0,0:0|0:0,0:0:0:0:
256,192,18900,1,2,0:0:0:0:
160,336,20100,5,2,0:0:0:0:
160,336,20400,1,0,0:0:0:0:
112,268,20700,2,0,P|68:260|28:276,1,85,2|0,0:0|0:0,0:0:0:0:
72,348,21300,2,0,B|84:288|84:288|108:240|108:240|116:184,1,170,2|0,0:0|0:0,0:0:0:0:
396,185,22500,2,0,B|404:240|404:240|428:288|428:288|440:348,1,170,2|0,0:0|0:0,0:0:0:0:
312,236,23700,2,0,L|300:152,1,85,2|0,0:0|0:0,0:0:0:0:
232,100,24300,2,0,P|188:96|140:112,1,85,2|0,0:0|0:0,0:0:0:0:
92,168,24900,5,2,0:0:0:0:
92,168,25200,1,2,0:0:0:0:
100,252,25500,2,0,P|136:316|224:300,2,170,2|0|2,0:0|0:0|0:0,0:0:0:0:
256,188,27300,1,2,0:0:0:0:
412,252,27900,1,0,0:0:0:0:
256,188,28500,1,2,0:0:0:0:
60,88,29700,5,2,0:0:0:0:
68,172,30000,1,0,0:0:0:0:
136,120,30300,1,0,0:0:0:0:
148,204,30600,2,0,P|192:184|212:152,1,85
80,260,31200,2,0,P|80:304|96:344,2,85,2|0|2,0:0|0:0|0:0,0:0:0:0:
164,288,32100,2,0,P|244:292|292:372,2,170,2|0|2,0:0|0:0|0:0,0:0:0:0:
24,288,33900,1,0,0:0:0:0:
4,148,34500,5,2,0:0:0:0:
84,124,34800,1,0,0:0:0:0:
148,180,35100,1,2,0:0:0:0:
232,192,35400,2,0,P|312:184|360:112,1,170,2|2,0:0|0:0,0:0:0:0:
320,36,36300,2,0,L|236:28,1,85,0|2,0:0|0:0,0:0:0:0:
272,112,36900,2,0,L|452:128,1,170,2|0,0:0|0:0,0:0:0:0:
460,208,38100,1,2,0:0:0:0:
480,288,38700,1,0,0:0:0:0:
480,288,39300,5,2,0:0:0:0:
420,348,39600,1,0,0:0:0:0:
336,348,39900,1,2,0:0:0:0:
260,312,40200,2,0,L|176:328,1,85,2|0,0:0|0:0,0:0:0:0:
280,224,40800,2,0,P|320:208|364:208,2,85,2|0|2,0:0|0:0|0:0,0:0:0:0:
260,312,41700,2,0,P|216:288|208:176,1,170,2|0,0:0|0:0,0:0:0:0:
368,124,42900,1,2,0:0:0:0:
248,4,43500,1,0,0:0:0:0:
100,84,44100,6,0,P|124:228|212:272,1,255,2|0,0:0|0:0,0:0:0:0:
299,272,45300,2,0,P|403:206|412:84,1,255,2|2,0:0|0:0,0:0:0:0:
344,32,46500,6,0,P|300:32|260:48,1,85,2|0,0:0|0:0,0:0:0:0:
176,48,47100,2,0,P|184:88|216:124,1,85,2|0,0:0|0:0,0:0:0:0:
296,144,47700,5,2,0:0:0:0:
228,192,48000,1,0,0:0:0:0:
200,272,48300,1,2,0:0:0:0:
220,356,48600,1,0,0:0:0:0:
376,372,48900,6,0,P|444:348|464:240,1,187.000005706787,4|0,3:0|0:0,0:0:0:0:
400,180,49800,1,2,0:0:0:0:
316,224,50100,2,0,L|304:320,1,93.5000028533936,8|2,0:0|0:0,0:0:0:0:
220,360,50700,2,0,L|128:340,1,93.5000028533936,0|2,0:0|0:0,0:0:0:0:
36,320,51300,1,2,0:0:0:0:
60,228,51600,1,2,0:0:0:0:
152,244,51900,2,0,P|220:236|284:144,1,187.000005706787,0|4,0:0|0:0,0:0:0:0:
240,60,52800,2,0,P|204:48|144:44,2,93.5000028533936
284,144,53700,6,0,P|388:132|420:60,1,187.000005706787,2|0,0:0|0:0,0:0:0:0:
240,60,54600,2,0,P|192:56|148:64,1,93.5000028533936,2|0,0:0|0:0,0:0:0:0:
192,148,55200,2,0,P|240:152|284:144,1,93.5000028533936,2|0,0:0|0:0,0:0:0:0:
372,180,55800,1,2,0:0:0:0:
372,272,56100,2,0,P|324:336|224:336,1,187.000005706787
80,352,57300,5,4,0:0:0:0:
52,264,57600,1,2,0:0:0:0:
80,176,57900,1,0,0:0:0:0:
164,132,58200,1,2,0:0:0:0:
292,220,58500,6,0,P|392:240|464:200,1,187.000005706787,4|0,0:0|0:0,0:0:0:0:
480,116,59400,1,0,0:0:0:0:
420,56,59700,2,0,L|336:44,1,85,8|0,0:0|0:0,0:0:0:0:
264,128,60300,2,0,L|348:140,1,85,2|0,0:0|0:0,0:0:0:0:
404,204,60900,1,2,0:0:0:0:
376,284,61200,1,0,0:0:0:0:
304,328,61500,2,0,B|264:336|224:328|224:328|184:320|136:328,2,170,0|4|0,0:0|0:0|0:0,0:0:0:0:
404,204,63300,6,0,B|384:132|384:132|356:176|300:168,1,170,2|0,0:0|0:0,0:0:0:0:
256,100,64200,1,2,0:0:0:0:
209,168,64500,2,0,B|156:176|128:132|128:132|108:204,1,170,4|0,0:0|0:0,0:0:0:0:
180,268,65400,2,0,B|224:260|256:296|256:296|288:260|332:268,1,170,2|2,0:0|0:0,0:0:0:0:
416,320,66300,1,2,0:0:0:0:
416,320,66600,1,8,0:0:0:0:
416,320,66900,5,4,0:0:0:0:
488,272,67200,1,0,0:0:0:0:
504,188,67500,1,2,0:0:0:0:
456,120,67800,1,0,0:0:0:0:
336,224,68100,6,0,B|256:192|256:192|177:221,1,170,4|0,0:0|0:0,0:0:0:0:
116,280,69000,2,0,P|72:292|32:284,2,85,2|8|2,0:0|0:0|0:0,0:0:0:0:
96,196,69900,2,0,P|88:148|92:112,1,85,0|2,0:0|0:0,0:0:0:0:
156,56,70500,5,2,0:0:0:0:
236,88,70800,1,0,0:0:0:0:
236,172,71100,1,0,0:0:0:0:
236,172,71700,2,0,P|236:220|244:256,1,85,4|0,0:0|0:0,0:0:0:0:
320,208,72300,2,0,P|368:196|392:172,1,85
320,124,72900,6,0,B|313:180|313:180|322:226|322:226|314:291,1,170,2|0,0:0|0:0,0:0:0:0:
197,291,73800,2,0,B|189:226|189:226|198:180|198:180|192:124,1,170,2|0,0:0|0:0,0:0:0:0:
256,44,74700,1,0,0:0:0:0:
348,64,75000,1,2,0:0:0:0:
404,140,75300,1,2,0:0:0:0:
256,256,75900,1,2,0:0:0:0:
108,140,76500,5,4,0:0:0:0:
164,64,76800,1,2,0:0:0:0:
256,44,77100,1,0,0:0:0:0:
348,64,77400,1,2,0:0:0:0:
416,188,77700,6,0,P|392:288|336:328,1,170,4|0,0:0|0:0,0:0:0:0:
256,360,78600,1,2,0:0:0:0:
164,356,78900,2,0,P|124:352|84:332,1,85,8|0,0:0|0:0,0:0:0:0:
152,264,79500,2,0,L|236:248,1,85,0|2,0:0|0:0,0:0:0:0:
316,272,80100,1,6,0:0:0:0:
384,320,80400,1,0,0:0:0:0:
468,308,80700,1,0,0:0:0:0:
468,308,81300,5,2,0:0:0:0:
480,140,81900,1,0,0:0:0:0:
336,52,82500,2,0,B|288:48|256:24|256:24|224:48|176:52,1,170,2|0,0:0|0:0,0:0:0:0:
176,332,83700,6,0,B|224:336|256:360|256:360|288:336|336:332,1,170,2|0,0:0|0:0,0:0:0:0:
299,258,84600,2,0,L|214:258,1,85,2|0,0:0|0:0,0:0:0:0:
160,192,85200,2,0,P|256:120|352:192,1,255,4|0,0:0|0:0,0:0:0:0:
