osu file format v13

[General]
AudioFilename: CLANNAD Ending - Dango Daikazoku (version Cumbia).mp3
AudioLeadIn: 0
PreviewTime: 47797
Countdown: 0
SampleSet: Normal
StackLeniency: 0.7
Mode: 0
LetterboxInBreaks: 1
WidescreenStoryboard: 0

[Editor]
DistanceSpacing: 0.5
BeatDivisor: 4
GridSize: 4
TimelineZoom: 1.7

[Metadata]
Title:Dango Daikazoku (Cumbia Remix)
TitleUnicode:Dango Daikazoku (Cumbia Remix)
Artist:Chata
ArtistUnicode:Chata
Creator:uNable
Version:Dango Cumbiero
Source:CLANNAD
Tags:clannad after story cumbia temas mas bailados del 2022 100 real no fake 1 link megaupload ezreal 10 y a favoritos bld cuantas dangos tenes salame cumbiero dango dango remix chata unable ar10 ar9 holy shit its dango
BeatmapID:580431
BeatmapSetID:252741

[Difficulty]
HPDrainRate:6
CircleSize:4
OverallDifficulty:7
ApproachRate:9.4
SliderMultiplier:3.59999990463257
SliderTickRate:4

[Events]
//Background and Video events
0,0,"dangocumbiero.png",0,0
//Break Periods
//Storyboard Layer 0 (Background)
//Storyboard Layer 1 (Fail)
//Storyboard Layer 2 (Pass)
//Storyboard Layer 3 (Foreground)
//Storyboard Sound Samples

[TimingPoints]
997,600,4,1,0,30,1,0
48997,-50,4,1,0,30,0,1
66997,-50,4,1,0,30,0,0
68197,-50,4,1,0,30,0,1
84997,-50,4,1,0,30,0,0

[HitObjects]
84,112,997,6,0,P|188:120|224:28,1,179.999995231628,4|0,0:0|0:0,0:0:0:0:
112,208,1597,2,0,B|212:216|272:140|272:140|336:172|432:152|452:96,2,359.999990463257,0|0|0,0:0|0:0|0:0,0:0:0:0:
432,40,3397,1,4,0:0:0:0:
408,368,3997,1,0,0:0:0:0:
80,344,4597,1,0,0:0:0:0:
104,16,5197,1,0,0:0:0:0:
212,244,5797,6,0,P|296:192|328:112,1,179.999995231628,4|0,0:0|0:0,0:0:0:0:
327,120,6397,2,0,B|364:204|480:160|480:160|408:276|472:360,2,359.999990463257,0|0|0,0:0|0:0|0:0,0:0:0:0:
300,300,7897,1,0,0:0:0:0:
392,44,8197,6,4,P|304:16|272:24,1,89.9999976158142,4|4,0:0|0:0,0:0:0:0:
120,44,8647,2,4,P|208:16|240:24,1,89.9999976158142,4|4,0:0|0:0,0:0:0:0:
256,188,9097,1,4,0:0:0:0:
256,188,9697,1,0,0:0:0:0:
96,272,9997,2,0,P|200:332|432:256,1,359.999990463257,4|4,2:0|0:0,0:0:0:0:
420,92,10897,5,0,0:0:0:0:
340,136,11047,1,0,0:0:0:0:
340,48,11197,2,0,B|276:48|252:104|252:104|208:56|104:52,1,269.999992847443,8|0,0:0|0:0,0:0:0:0:
20,28,11797,2,0,P|48:124|132:132,1,179.999995231628
180,200,12247,1,0,0:0:0:0:
112,260,12397,2,0,L|108:384,1,89.9999976158142,8|0,0:0|0:0,0:0:0:0:
220,116,12697,2,0,L|344:119,1,89.9999976158142,0|0,0:0|0:0,0:0:0:0:
356,292,12997,6,0,P|440:244|472:56,1,269.999992847443
396,108,13597,2,0,B|304:80|256:20|256:20|164:28|120:72|128:160,2,359.999990463257,8|0|8,0:0|0:0|0:0,0:0:0:0:
268,236,15097,1,0,0:0:0:0:
124,344,15397,6,0,P|72:264|88:180,1,179.999995231628,4|0,0:0|0:0,0:0:0:0:
164,136,15847,1,0,0:0:0:0:
104,68,15997,2,0,P|212:64|264:124,1,179.999995231629,8|0,0:0|0:0,0:0:0:0:
332,164,16447,1,0,0:0:0:0:
384,88,16597,2,0,L|508:72,1,89.9999976158143
272,244,16897,2,0,L|288:367,1,89.9999976158143,0|0,0:0|0:0,0:0:0:0:
124,140,17197,2,0,L|0:156,1,89.9999976158143,8|0,0:0|0:0,0:0:0:0:
56,64,17497,1,0,0:0:0:0:
148,220,17647,1,0,0:0:0:0:
180,44,17797,6,0,L|452:28,1,269.999992847443,4|0,0:0|0:0,0:0:0:0:
420,112,18397,2,0,B|400:208|400:208|440:272|436:320|436:320|468:248,1,269.999992847443,8|0,0:0|0:0,0:0:0:0:
324,260,18997,2,0,P|180:216|136:232,1,179.999995231629
100,352,19597,2,0,B|48:304|80:240|80:240|60:176|60:176|156:136|104:40|44:40,1,359.999990463257,8|4,0:0|0:0,0:0:0:0:
240,108,20497,5,0,0:0:0:0:
328,100,20647,1,0,0:0:0:0:
392,36,20797,2,0,L|492:28,1,89.9999976158143,8|0,0:0|0:0,0:0:0:0:
400,188,21097,2,0,L|500:180,1,89.9999976158143
416,336,21397,2,0,B|320:304|240:336|240:336|144:304|80:320|32:352,1,359.999990463257,0|8,0:0|0:0,0:0:0:0:
240,196,22297,1,0,0:0:0:0:
64,48,22597,2,0,B|80:64|160:80|240:48|240:48|320:80|448:32,1,359.999990463257,4|8,0:0|0:0,0:0:0:0:
356,216,23497,1,0,0:0:0:0:
384,352,23797,2,0,P|460:296|476:264,1,89.9999976158143
260,144,24097,2,0,P|184:200|168:232,1,89.9999976158143
448,132,24397,2,0,P|456:52|444:20,1,89.9999976158143,8|0,0:0|0:0,0:0:0:0:
64,160,24697,2,0,P|56:240|68:272,1,89.9999976158143
68,336,24997,6,0,P|140:288|140:200,1,179.999995231629,4|0,0:0|0:0,0:0:0:0:
56,44,25597,2,0,B|156:24|220:100|220:100|276:32|276:32|328:72|384:12,2,359.999990463257,8|0|8,0:0|0:0|0:0,0:0:0:0:
264,216,27097,1,0,0:0:0:0:
460,32,27397,2,0,L|468:128,1,89.9999976158143,4|0,0:0|0:0,0:0:0:0:
400,180,27697,2,0,L|408:276,1,89.9999976158143
336,320,27997,2,0,P|240:288|160:352,1,179.999995231629,8|0,0:0|0:0,0:0:0:0:
160,240,28447,1,0,0:0:0:0:
416,352,28597,5,4,0:0:0:0:
276,124,29047,1,0,0:0:0:0:
276,124,29197,1,0,0:0:0:0:
256,304,29497,1,4,0:0:0:0:
80,100,29797,6,0,B|148:32|148:32|220:48|280:16,1,179.999995231629,4|0,0:0|0:0,0:0:0:0:
320,56,30247,1,0,0:0:0:0:
408,32,30397,2,0,L|504:32,1,89.9999976158143,8|0,0:0|0:0,0:0:0:0:
368,160,30697,2,0,L|368:250,1,89.9999976158143
288,304,30997,2,0,P|368:336|464:288,2,179.999995231629,0|0|8,0:0|0:0|0:0,0:0:0:0:
256,128,31897,1,0,0:0:0:0:
104,224,32197,2,0,P|64:124|68:68,1,89.9999976158143,4|0,0:0|0:0,0:0:0:0:
148,104,32497,2,0,P|214:19|265:-5,1,89.9999976158143
288,52,32797,1,8,0:0:0:0:
396,224,33397,1,0,0:0:0:0:
224,332,33997,1,8,0:0:0:0:
116,160,34597,6,0,B|160:84|148:24|148:24|204:72,1,179.999995231629,4|0,0:0|0:0,0:0:0:0:
248,100,35047,1,0,0:0:0:0:
320,44,35197,2,0,L|444:44,1,89.9999976158143,8|0,0:0|0:0,0:0:0:0:
404,132,35497,2,0,P|388:228|400:316,1,179.999995231629
316,272,35947,1,0,0:0:0:0:
228,256,36097,1,0,0:0:0:0:
148,300,36247,1,0,0:0:0:0:
144,212,36397,2,0,P|124:144|88:104,1,89.9999976158143,8|0,0:0|0:0,0:0:0:0:
123,41,36697,2,0,P|79:50|40:72,1,89.9999976158143
204,84,36997,2,0,B|280:84|328:48|328:48|384:80|468:64,1,269.999992847443,4|0,0:0|0:0,0:0:0:0:
436,152,37597,2,0,P|424:248|432:332,1,179.999995231629,8|0,0:0|0:0,0:0:0:0:
344,312,38047,1,0,0:0:0:0:
256,320,38197,2,0,P|168:324|132:336,2,89.9999976158143,0|0|0,0:0|0:0|0:0,0:0:0:0:
292,236,38647,1,0,0:0:0:0:
288,148,38797,2,0,L|284:48,2,89.9999976158143,8|0|0,0:0|0:0|0:0,0:0:0:0:
376,156,39247,1,0,0:0:0:0:
200,184,39397,6,0,P|116:224|72:320,1,179.999995231629,4|0,0:0|0:0,0:0:0:0:
36,120,39997,2,0,P|140:64|232:52,1,179.999995231629,8|0,0:0|0:0,0:0:0:0:
268,112,40447,1,0,0:0:0:0:
336,52,40597,2,0,L|476:40,1,89.9999976158143
380,120,40897,1,0,0:0:0:0:
352,204,41047,1,0,0:0:0:0:
368,292,41197,2,0,P|424:356|452:356,1,89.9999976158143,8|0,0:0|0:0,0:0:0:0:
144,92,41497,2,0,P|88:28|60:28,1,89.9999976158143
228,216,41797,6,0,P|300:144|288:68,2,179.999995231629,4|0|12,0:0|0:0|0:0,0:0:0:0:
88,332,42697,1,0,0:0:0:0:
68,152,42997,1,0,0:0:0:0:
424,332,43597,1,8,0:0:0:0:
444,152,43897,1,0,0:0:0:0:
256,64,44197,1,4,0:0:0:0:
256,192,44347,12,0,47797,0:0:0:0:
112,128,48997,6,0,B|296:128|368:40|368:40|332:168|464:192|464:192|368:248|368:336|368:336|412:304,1,719.999980926514,4|8,0:0|0:0,0:0:0:0:
232,256,49747,1,0,0:0:0:0:
68,40,49897,1,0,0:0:0:0:
44,308,50047,1,0,0:0:0:0:
368,152,50197,2,0,P|420:252|388:344,1,179.999995231629,0|0,0:0|0:0,0:0:0:0:
264,84,50497,2,4,P|364:32|456:64,1,179.999995231629,4|0,0:0|0:0,0:0:0:0:
232,236,50797,1,12,0:0:0:0:
152,192,50947,1,0,0:0:0:0:
120,108,51097,1,4,0:0:0:0:
160,28,51247,1,0,0:0:0:0:
248,32,51397,6,0,P|352:40|440:28,1,179.999995231629,4|0,0:0|0:0,0:0:0:0:
417,362,51697,2,0,P|407:273|416:184,1,179.999995231629
85,353,51997,2,0,P|174:343|264:352,1,179.999995231629,8|0,0:0|0:0,0:0:0:0:
94,21,52297,2,0,P|104:110|96:200,1,179.999995231629
184,212,52597,1,0,0:0:0:0:
260,164,52747,1,0,0:0:0:0:
348,172,52897,1,4,0:0:0:0:
464,32,53047,1,0,0:0:0:0:
464,300,53197,1,12,0:0:0:0:
212,44,53347,1,0,0:0:0:0:
236,312,53497,1,4,0:0:0:0:
460,160,53647,1,0,0:0:0:0:
100,192,53797,6,0,P|36:64|52:32,1,179.999995231629,4|0,0:0|0:0,0:0:0:0:
192,148,54097,2,0,P|320:84|352:100,1,179.999995231629,0|0,0:0|0:0,0:0:0:0:
232,236,54397,2,0,P|296:364|280:396,1,179.999995231629,8|0,0:0|0:0,0:0:0:0:
112,336,54697,5,0,0:0:0:0:
400,336,54847,1,0,0:0:0:0:
400,48,54997,1,0,0:0:0:0:
112,48,55147,1,0,0:0:0:0:
53,209,55297,5,4,0:0:0:0:
273,394,55447,1,0,0:0:0:0:
458,174,55597,1,12,0:0:0:0:
238,0,55747,1,0,0:0:0:0:
248,80,55897,1,4,0:0:0:0:
256,168,56047,1,0,0:0:0:0:
264,256,56197,6,0,P|176:200|176:128,1,179.999995231629,4|0,0:0|0:0,0:0:0:0:
344,192,56497,1,0,0:0:0:0:
280,360,56647,1,0,0:0:0:0:
192,340,56797,1,8,0:0:0:0:
124,280,56947,1,0,0:0:0:0:
84,200,57097,1,0,0:0:0:0:
92,112,57247,1,0,0:0:0:0:
148,44,57397,6,0,L|356:36,1,179.999995231629,4|0,0:0|0:0,0:0:0:0:
410,263,57697,2,0,L|404:84,1,179.999995231629,4|0,0:0|0:0,0:0:0:0:
184,346,57997,2,0,L|364:340,1,179.999995231629,12|0,0:0|0:0,0:0:0:0:
101,120,58297,2,0,L|108:300,1,179.999995231629,4|0,0:0|0:0,0:0:0:0:
256,196,58597,5,4,0:0:0:0:
340,168,58747,1,0,0:0:0:0:
392,92,58897,1,0,0:0:0:0:
344,16,59047,1,0,0:0:0:0:
256,32,59197,1,8,0:0:0:0:
424,244,59347,1,0,0:0:0:0:
156,280,59497,1,0,0:0:0:0:
120,104,59647,1,0,0:0:0:0:
304,300,59797,1,0,0:0:0:0:
412,52,59947,1,0,0:0:0:0:
240,0,60097,1,4,0:0:0:0:
388,328,60247,1,0,0:0:0:0:
209,186,60397,6,0,P|133:230|48:212,1,179.999995231629,12|0,0:0|0:0,0:0:0:0:
209,186,60697,2,0,P|165:110|184:24,1,179.999995231629,4|0,0:0|0:0,0:0:0:0:
209,186,60997,2,0,P|254:262|235:348,1,179.999995231629,4|0,0:0|0:0,0:0:0:0:
388,248,61297,1,0,0:0:0:0:
360,164,61447,1,0,0:0:0:0:
300,96,61597,1,8,0:0:0:0:
472,48,61747,1,0,0:0:0:0:
456,316,61897,1,0,0:0:0:0:
252,20,62047,1,0,0:0:0:0:
200,284,62197,6,0,P|80:344|40:316,1,179.999995231629
176,196,62497,2,0,P|64:122|68:73,1,179.999995231629
312,100,62797,2,0,P|432:40|472:68,1,179.999995231629,8|0,0:0|0:0,0:0:0:0:
336,188,63097,2,0,P|447:261|443:310,1,179.999995231629,0|0,0:0|0:0,0:0:0:0:
276,244,63397,5,0,0:0:0:0:
252,156,63547,1,0,0:0:0:0:
180,104,63697,1,0,0:0:0:0:
96,140,63847,1,0,0:0:0:0:
72,228,63997,1,8,0:0:0:0:
120,304,64147,1,0,0:0:0:0:
208,316,64297,5,0,0:0:0:0:
256,52,64447,1,0,0:0:0:0:
304,316,64597,1,0,0:0:0:0:
392,308,64747,5,0,0:0:0:0:
448,236,64897,1,0,0:0:0:0:
464,148,65047,1,0,0:0:0:0:
436,64,65197,2,0,L|244:28,1,179.999995231629,8|0,0:0|0:0,0:0:0:0:
236,116,65497,2,0,L|44:80,1,179.999995231629,0|0,0:0|0:0,0:0:0:0:
40,172,65797,2,0,B|228:212|228:212|280:344|280:344|324:220|468:268|468:268|408:88,2,719.999980926514,0|8|4,0:0|0:0|0:0,0:0:0:0:
272,32,67447,1,0,0:0:0:0:
272,32,67597,1,0,0:0:0:0:
456,340,67897,1,4,0:0:0:0:
112,256,68197,6,0,B|296:256|368:344|368:344|332:216|464:192|464:192|368:136|368:48|368:48|412:80,1,719.999980926514,4|8,0:0|0:0,0:0:0:0:
232,128,68947,1,0,0:0:0:0:
68,344,69097,1,0,0:0:0:0:
44,76,69247,1,0,0:0:0:0:
368,232,69397,2,0,P|420:132|388:40,1,179.999995231629
264,300,69697,2,0,P|364:352|456:320,1,179.999995231629,4|0,0:0|0:0,0:0:0:0:
232,148,69997,1,12,0:0:0:0:
152,192,70147,1,0,0:0:0:0:
120,276,70297,1,4,0:0:0:0:
160,356,70447,1,0,0:0:0:0:
248,352,70597,6,0,P|352:344|440:356,1,179.999995231629,4|0,0:0|0:0,0:0:0:0:
417,22,70897,2,0,P|407:111|416:200,1,179.999995231629
85,31,71197,2,0,P|174:41|264:32,1,179.999995231629,8|0,0:0|0:0,0:0:0:0:
94,363,71497,2,0,P|104:274|96:184,1,179.999995231629
184,172,71797,1,0,0:0:0:0:
260,220,71947,1,0,0:0:0:0:
348,212,72097,1,4,0:0:0:0:
464,352,72247,1,0,0:0:0:0:
464,84,72397,1,12,0:0:0:0:
212,340,72547,1,0,0:0:0:0:
236,72,72697,1,4,0:0:0:0:
460,224,72847,1,0,0:0:0:0:
100,192,72997,6,0,P|36:320|52:352,1,179.999995231629,4|0,0:0|0:0,0:0:0:0:
192,236,73297,2,0,P|320:300|352:284,1,179.999995231629,0|0,0:0|0:0,0:0:0:0:
232,148,73597,2,0,P|296:20|280:-12,1,179.999995231629,8|0,0:0|0:0,0:0:0:0:
112,48,73897,5,0,0:0:0:0:
400,48,74047,1,0,0:0:0:0:
400,336,74197,1,0,0:0:0:0:
112,336,74347,1,0,0:0:0:0:
53,175,74497,5,4,0:0:0:0:
273,0,74647,1,0,0:0:0:0:
458,210,74797,1,12,0:0:0:0:
238,384,74947,1,0,0:0:0:0:
248,304,75097,1,4,0:0:0:0:
256,216,75247,1,0,0:0:0:0:
264,128,75397,6,0,P|176:184|176:256,1,179.999995231629,4|0,0:0|0:0,0:0:0:0:
344,192,75697,1,0,0:0:0:0:
280,24,75847,1,0,0:0:0:0:
192,44,75997,1,8,0:0:0:0:
124,104,76147,1,0,0:0:0:0:
84,184,76297,1,0,0:0:0:0:
92,272,76447,1,0,0:0:0:0:
148,340,76597,6,0,L|356:348,1,179.999995231629,4|0,0:0|0:0,0:0:0:0:
410,121,76897,2,0,L|404:300,1,179.999995231629,4|0,0:0|0:0,0:0:0:0:
184,38,77197,2,0,L|364:44,1,179.999995231629,12|0,0:0|0:0,0:0:0:0:
101,264,77497,2,0,L|108:84,1,179.999995231629,4|0,0:0|0:0,0:0:0:0:
256,188,77797,5,4,0:0:0:0:
340,216,77947,1,0,0:0:0:0:
392,292,78097,1,0,0:0:0:0:
344,368,78247,1,0,0:0:0:0:
256,352,78397,1,8,0:0:0:0:
424,140,78547,1,0,0:0:0:0:
156,104,78697,1,0,0:0:0:0:
120,280,78847,1,0,0:0:0:0:
304,84,78997,1,0,0:0:0:0:
412,332,79147,1,0,0:0:0:0:
240,384,79297,1,4,0:0:0:0:
388,56,79447,1,0,0:0:0:0:
209,197,79597,6,0,P|133:153|48:172,1,179.999995231629,12|0,0:0|0:0,0:0:0:0:
209,198,79897,2,0,P|165:274|184:360,1,179.999995231629,4|0,0:0|0:0,0:0:0:0:
209,198,80197,2,0,P|254:122|235:36,1,179.999995231629,4|0,0:0|0:0,0:0:0:0:
388,136,80497,1,0,0:0:0:0:
360,220,80647,1,0,0:0:0:0:
300,288,80797,1,8,0:0:0:0:
472,336,80947,1,0,0:0:0:0:
456,68,81097,1,0,0:0:0:0:
252,364,81247,1,0,0:0:0:0:
200,100,81397,6,0,P|80:40|40:68,1,179.999995231629
176,188,81697,2,0,P|64:262|68:311,1,179.999995231629
312,284,81997,2,0,P|432:344|472:316,1,179.999995231629,8|0,0:0|0:0,0:0:0:0:
336,196,82297,2,0,P|447:123|443:74,1,179.999995231629,0|0,0:0|0:0,0:0:0:0:
276,140,82597,5,0,0:0:0:0:
252,228,82747,1,0,0:0:0:0:
180,280,82897,1,0,0:0:0:0:
96,244,83047,1,0,0:0:0:0:
72,156,83197,1,8,0:0:0:0:
120,80,83347,1,0,0:0:0:0:
208,68,83497,5,0,0:0:0:0:
256,332,83647,1,0,0:0:0:0:
304,68,83797,1,0,0:0:0:0:
392,76,83947,5,0,0:0:0:0:
448,148,84097,1,0,0:0:0:0:
464,236,84247,1,0,0:0:0:0:
436,320,84397,2,0,L|244:356,1,179.999995231629,8|0,0:0|0:0,0:0:0:0:
236,268,84697,2,0,L|44:304,1,179.999995231629,0|0,0:0|0:0,0:0:0:0:
44,212,84997,1,4,0:0:0:0:
