osu file format v11

[General]
AudioFilename: koi no uta.mp3
AudioLeadIn: 0
PreviewTime: 174702
Countdown: 0
SampleSet: Soft
StackLeniency: 0.7
Mode: 0
LetterboxInBreaks: 1

[Editor]
DistanceSpacing: 1
BeatDivisor: 4
GridSize: 4

[Metadata]
Title:D Senjou no Koi no Uta
TitleUnicode:D線上の恋のうた
Artist:Chata
ArtistUnicode:茶太
Creator:hoLysoup
Version:Normal
Source:
Tags:PolyphonicBranch RE:Collection
BeatmapID:183385
BeatmapSetID:61414

[Difficulty]
HPDrainRate:3
CircleSize:3
OverallDifficulty:4
ApproachRate:5
SliderMultiplier:1
SliderTickRate:1

[Events]
//Background and Video events
0,0,"022.jpg"
//Break Periods
2,74975,85004
2,136761,145004
//Storyboard Layer 0 (Background)
//Storyboard Layer 1 (Fail)
//Storyboard Layer 2 (Pass)
//Storyboard Layer 3 (Foreground)
//Storyboard Sound Samples
//Background Colour Transformations
3,100,163,162,255

[TimingPoints]
490,357.142857142857,4,1,0,100,1,0
11561,-100,4,2,2,45,0,0
46204,-100,4,2,1,48,0,0
49061,-100,4,2,1,60,0,1
49150,-100,4,2,2,60,0,1
71918,-100,4,2,2,50,0,0
74686,-100,4,2,2,40,0,0
86114,-100,4,2,2,50,0,0
86293,-100,4,2,2,50,0,0
108257,-100,4,2,2,50,0,0
109061,-100,4,2,2,50,0,0
109507,-100,4,2,2,50,0,0
110579,-100,4,2,2,50,0,0
111918,-100,4,2,1,60,0,1
112007,-100,4,2,2,60,0,1
134775,-100,4,2,1,50,0,0
134864,-100,4,2,1,40,0,0
146025,-100,4,2,2,50,0,0
157722,-100,4,2,2,40,0,0
163257,-100,4,2,1,60,0,0
163436,-100,4,2,2,60,0,0
167543,-100,4,2,2,40,0,0
167722,-100,4,2,2,60,0,0
169061,-100,4,2,2,60,0,0
172364,-100,4,2,2,60,0,0
173436,-100,4,2,2,60,0,0
174775,-100,4,2,1,70,0,1
174954,-100,4,2,2,60,0,1
191829,-100,4,2,2,50,0,1
192097,-100,4,2,2,60,0,1
197632,-100,4,2,1,50,0,0
197722,-100,4,2,1,60,0,0
209150,-100,4,2,1,40,0,0
211739,-100,4,2,1,5,0,0

[Colours]
Combo1 : 198,157,113
Combo2 : 172,251,202
Combo3 : 170,170,255
Combo4 : 249,244,187
Combo5 : 240,81,81

[HitObjects]
296,64,11918,2,0,B|446:64,2,150,4|2|8,0:0|0:0|0:0,0:0:0
196,64,13347,2,0,B|172:112|200:160,1,100,0|8,0:0|0:0,0:0:0
296,160,14061,2,0,B|324:208|300:256,1,100,0|8,0:0|0:0,0:0:0
200,256,14775,6,0,B|292:256|292:340|384:340,2,200,2|8|2,0:0|0:0|0:0,0:0:0
124,192,16561,2,0,B|80:184|64:200|20:188,2,100,8|0|8,0:0|0:0|0:0,0:0:0
200,128,17632,6,0,B|292:128|292:44|384:44,2,200,2|8|2,0:0|0:0|0:0,0:0:0
100,124,19418,2,0,B|72:76|8:76,2,100,8|0|8,0:0|0:0|0:0,0:0:0
100,224,20489,6,0,B|100:320|208:332,2,150,4|2|8,0:0|0:0|0:0,0:0:0
200,228,21918,2,0,B|304:228,1,100,0|8,0:0|0:0,0:0:0
304,328,22632,2,0,B|412:328,1,100,0|8,0:0|0:0,0:0:0
504,328,23347,6,0,B|544:256|504:180,2,150,4|2|8,0:0|0:0|0:0,0:0:0
404,328,24775,2,0,B|304:328,1,100,0|8,0:0|0:0,0:0:0
256,240,25489,2,0,B|264:188|248:180|256:140,1,100,0|8,0:0|0:0,0:0:0
356,144,26204,6,0,B|311:166|260:140|260:140|215:118|163:142,2,200,2|8|2,0:0|0:0|0:0,0:0:0
456,144,27989,2,0,B|456:44,2,100,8|0|8,0:0|0:0|0:0,0:0:0
456,244,29061,2,0,B|404:220|356:244|356:244|308:268|263:245,2,200,2|8|2,0:0|0:0|0:0,0:0:0
416,152,30847,6,0,B|428:100|416:48,2,100,8|0|8,0:0|0:0|0:0,0:0:0
332,100,31918,2,0,B|172:100,2,150,4|2|4,0:0|0:0|0:0,0:0:0
296,284,33704,6,0,B|400:284,2,100,8|0|8,0:0|0:0|0:0,0:0:0
220,216,34775,2,8,B|180:240|180:320|216:352,2,150,4|4|8,0:0|0:0|0:0,0:0:0
300,152,36204,2,8,B|340:128|340:48|304:16,2,150,2|2|8,0:0|0:0|0:0,0:0:0
204,108,37632,6,0,B|100:108,2,100,2|8|0,0:0|0:0|0:0,0:0:0
308,108,38704,2,0,B|412:108,2,100,8|2|8,0:0|0:0|0:0,0:0:0
352,196,39775,2,0,B|372:240|352:296,1,100,0|8,0:0|0:0,0:0:0
256,328,40490,6,0,B|264:256|248:248|256:168,2,150,4|6|8,0:0|0:0|0:0,0:0:0
159,293,41918,2,0,B|140:240|160:196,1,100,2|8,0:0|0:0,0:0:0
204,104,42632,1,0,0:0:0
308,104,42990,1,8,0:0:0
332,200,43347,6,8,B|372:224|372:304|336:336,2,150,4|4|8,0:0|0:0|0:0,0:0:0
180,200,44954,2,8,B|140:224|140:304|176:336,1,150
256,268,45847,1,8,0:0:0
256,192,46204,12,0,48347,0:0:0
80,320,49061,6,0,B|128:340|180:320,1,100,4|8,0:0|0:0,0:0:0
256,260,49775,1,0,0:0:0
334,320,50132,2,0,B|383:339|431:319,2,100,8|2|8,0:0|0:0|0:0,0:0:0
356,220,51204,2,0,B|344:172|352:120,1,100,0|8,0:0|0:0,0:0:0
256,64,51918,6,0,B|240:140|272:168|252:220,2,150,2|2|8,0:0|0:0|0:0,0:0:0
160,120,53347,2,0,B|168:172|156:220,2,100,2|8|0,0:0|0:0|0:0,0:0:0
88,52,54418,1,8,0:0:0
64,148,54775,6,0,B|120:168|208:108|268:140,1,200,4|0,0:0|0:0,0:0:0
344,192,55847,1,8,0:0:0
260,248,56204,2,0,B|204:268|116:208|56:240,1,200,2|0,0:0|0:0,0:0:0
92,332,57275,1,8,0:0:0
180,288,57632,6,0,B|140:264|140:180|180:152,2,150,4|4|8,0:0|0:0|0:0,0:0:0
332,288,59240,2,8,B|372:264|372:180|332:152,1,150
256,220,60132,1,8,0:0:0
176,156,60490,6,0,B|144:120|68:120|36:156,2,150,4|2|8,0:0|0:0|0:0,0:0:0
104,224,61918,2,0,B|80:272|104:324,2,100,2|8|0,0:0|0:0|0:0,0:0:0
192,272,62990,1,8,0:0:0
292,276,63347,6,0,B|320:312|396:312|432:276,2,150,2|2|8,0:0|0:0|0:0,0:0:0
360,204,64775,2,0,B|392:160|384:108,1,100,2|8,0:0|0:0,0:0:0
316,36,65490,2,0,B|284:80|292:132,1,100,0|8,0:0|0:0,0:0:0
192,108,66204,6,0,B|224:180|220:272,2,150,4|2|8,0:0|0:0|0:0,0:0:0
108,164,67632,2,0,B|76:92|80:0,2,150,2|2|8,0:0|0:0|0:0,0:0:0
208,176,69061,6,0,B|284:160|364:168,2,150,4|4|4,0:0|0:0|0:0,0:0:0
248,268,70490,2,0,B|172:284|92:276,2,150,2|2|8,0:0|0:0|0:0,0:0:0
332,216,71918,6,0,B|304:144|324:52,2,150,4|4|12,0:0|0:0|0:0,0:0:0
256,280,73347,1,8,0:0:0
256,192,73525,12,4,74775,0:0:0
352,160,86204,6,0,B|372:236|332:312,2,150,4|2|8,0:0|0:0|0:0,0:0:0
256,200,87632,1,2,0:0:0
256,100,87989,2,0,B|240:48|272:48|256:0,2,100,8|0|8,0:0|0:0|0:0,0:0:0
160,160,89061,6,0,B|140:236|180:312,2,150,2|2|8,0:0|0:0|0:0,0:0:0
256,100,90489,1,2,0:0:0
352,160,90847,2,0,B|456:160,2,100,8|0|8,0:0|0:0|0:0,0:0:0
320,256,91918,6,0,B|380:212|320:108|376:68,2,200,2|8|2,0:0|0:0|0:0,0:0:0
256,180,93704,2,0,B|256:72,2,100,8|0|8,0:0|0:0|0:0,0:0:0
192,256,94775,6,0,B|132:212|192:108|136:68,2,200,4|2|2,0:0|0:0|0:0,0:0:0
256,180,96561,1,8,0:0:0
256,80,96918,1,0,0:0:0
156,80,97275,1,8,0:0:0
156,180,97632,6,0,B|72:208|0:180,2,150,4|4|8,0:0|0:0|0:0,0:0:0
152,280,99061,2,0,B|156:332|204:364,1,100,2|8,0:0|0:0,0:0:0
310,362,99775,2,0,B|356:332|360:280,1,100,0|8,0:0|0:0,0:0:0
256,260,100489,6,0,B|236:172|276:148|256:52,2,200,2|2|2,0:0|0:0|0:0,0:0:0
156,260,102275,2,0,B|56:260,2,100,8|0|8,0:0|0:0|0:0,0:0:0
156,160,103347,6,0,B|112:132|112:56|156:32,2,150,4|4|8,0:0|0:0|0:0,0:0:0
232,96,104775,2,0,B|276:72|336:84,1,100,2|8,0:0|0:0,0:0:0
392,160,105489,2,0,B|348:184|288:172,1,100,0|8,0:0|0:0,0:0:0
196,176,106204,6,0,B|152:248|184:328,2,150,4|4|4,0:0|0:0|0:0,0:0:0
316,176,107811,2,8,B|360:248|328:328,1,150
256,252,108704,1,8,0:0:0
256,192,109061,12,0,111204,0:0:0
256,212,111918,6,0,B|248:148|264:132|256:60,2,150,4|2|8,0:0|0:0|0:0,0:0:0
356,228,113347,2,0,B|348:276|308:316,1,100,2|8,0:0|0:0,0:0:0
202,314,114061,2,0,B|164:276|156:228,1,100,0|8,0:0|0:0,0:0:0
240,172,114775,6,0,B|160:180|80:148,2,150,2|2|8,0:0|0:0|0:0,0:0:0
308,100,116204,2,0,B|344:132|408:140,1,100,2|8,0:0|0:0,0:0:0
398,245,116918,2,0,B|344:252|308:284,1,100,0|8,0:0|0:0,0:0:0
268,192,117632,6,0,B|204:176|188:204|112:192,2,150,4|2|8,0:0|0:0|0:0,0:0:0
368,192,119061,2,0,B|384:128|356:112|368:36,2,150,2|2|8,0:0|0:0|0:0,0:0:0
332,284,120489,6,0,B|380:284|436:272,2,100,6|8|0,0:0|0:0|0:0,0:0:0
248,340,121561,2,10,B|196:320|140:332,2,100,12|2|8,0:0|0:0|0:0,0:0:0
212,248,122632,2,0,B|196:200|208:144,1,100,0|8,0:0|0:0,0:0:0
256,64,123347,6,0,B|332:44|408:68,2,150,4|2|8,0:0|0:0|0:0,0:0:0
156,60,124775,2,0,B|104:92|104:152,1,100,2|8,0:0|0:0,0:0:0
104,242,125489,2,0,B|104:292|156:324,1,100,0|8,0:0|0:0,0:0:0
196,232,126204,6,0,B|212:212|324:252|344:232,2,150,2|2|8,0:0|0:0|0:0,0:0:0
104,192,127632,2,0,B|72:236|24:248,2,100,2|8|0,0:0|0:0|0:0,0:0:0
76,96,128704,1,8,0:0:0
172,124,129061,6,0,B|248:120|324:72,2,150,4|2|8,0:0|0:0|0:0,0:0:0
232,204,130489,2,0,B|200:272|208:352,2,150,2|2|8,0:0|0:0|0:0,0:0:0
332,204,131918,6,0,B|372:180|372:96|332:68,2,150,4|4|4,0:0|0:0|0:0,0:0:0
180,204,133525,2,8,B|140:180|140:96|180:68,1,150
256,136,134418,1,8,0:0:0
256,192,134775,12,0,136561,0:0:0
344,332,146204,6,0,B|224:332,2,100,4|0|0,0:0|0:0|0:0,0:0:0
400,248,147275,2,0,B|520:248,2,100
300,248,148347,2,0,B|264:200|300:152,1,100
396,156,149061,6,0,B|184:156,1,200,2|0,0:0|0:0,0:0:0
96,156,150132,2,0,B|62:200|98:248,1,100
196,252,150847,2,0,B|196:352,2,100,2|0|8,0:0|0:0|0:0,0:0:0
196,152,151918,6,0,B|196:52,2,100,4|0|0,0:0|0:0|0:0,0:0:0
296,156,152989,2,0,B|400:156,2,100
196,152,154061,2,0,B|180:204|196:256,1,100,0|0,0:0|0:0,0:0:0
296,256,154775,6,0,B|204:256|204:328|104:324,1,200,2|0,0:0|0:0,0:0:0
28,272,155847,2,0,B|16:224|28:168,1,100
120,136,156561,2,0,B|131:84|119:36,2,100,0|0|8,0:0|0:0|0:0,0:0:0
172,224,157632,6,0,B|224:232|276:228,1,100,12|8,0:0|0:0,0:0:0
352,284,158347,2,8,B|368:180,1,100
416,100,159061,2,8,B|364:92|312:96,1,100
232,40,159775,2,8,B|216:144,1,100
204,236,160489,6,8,B|160:264|92:256,2,100
256,320,161561,1,8,0:0:0
308,236,161918,2,8,B|352:264|420:256,2,100
256,152,162989,1,8,0:0:0
188,80,163347,6,0,B|84:80,2,100,4|8|0,0:0|0:0|0:0,0:0:0
256,152,164418,1,8,0:0:0
324,80,164775,2,0,B|428:80,2,100,0|8|0,0:0|0:0|0:0,0:0:0
256,152,165847,1,8,0:0:0
352,180,166204,6,0,B|372:228|348:280,1,100,2|8,0:0|0:0,0:0:0
408,356,166918,2,0,B|360:380|308:364,1,100,0|8,0:0|0:0,0:0:0
201,364,167632,2,0,B|152:380|104:356,1,100,4|8,0:0|0:0,0:0:0
162,277,168347,2,0,B|140:228|160:180,1,100,0|8,0:0|0:0,0:0:0
256,224,169061,6,0,B|288:152|228:84|260:4,1,200,8|8,0:0|0:0,0:0:0
384,152,170311,2,8,B|392:100|384:44,2,100
352,192,171204,2,8,B|304:180|232:188,1,100
180,252,171918,6,8,B|140:228|140:144|180:120,2,150
332,252,173525,2,8,B|372:228|372:144|332:120,1,150
256,340,174775,5,4,0:0:0
192,264,175132,2,0,B|152:300|96:296,2,100,8|0|8,0:0|0:0|0:0,0:0:0
320,264,176204,2,0,B|360:300|416:296,2,100,2|8|0,0:0|0:0|0:0,0:0:0
256,188,177275,1,8,0:0:0
256,188,177632,6,0,B|240:128|280:96|256:32,2,150,2|2|8,0:0|0:0|0:0,0:0:0
352,212,179061,2,0,B|352:268|308:308,1,100,2|8,0:0|0:0,0:0:0
197,301,179775,2,0,B|160:268|160:212,1,100,0|8,0:0|0:0,0:0:0
244,160,180489,6,0,B|180:144|164:172|88:160,2,150,4|2|8,0:0|0:0|0:0,0:0:0
244,260,181918,2,0,B|308:276|324:248|400:260,2,150,2|2|8,0:0|0:0|0:0,0:0:0
144,260,183347,6,0,B|96:240|40:240,2,100,4|8|0,0:0|0:0|0:0,0:0:0
216,192,184418,1,8,0:0:0
144,124,184775,2,0,B|96:144|40:144,2,100,2|8|0,0:0|0:0|0:0,0:0:0
216,192,185847,1,8,0:0:0
316,192,186204,6,0,B|384:172|400:208|468:188,2,150,4|2|8,0:0|0:0|0:0,0:0:0
256,272,187632,2,0,B|224:312|160:312,1,100,2|8,0:0|0:0,0:0:0
172,212,188347,2,0,B|116:208|88:160,1,100,0|8,0:0|0:0,0:0:0
180,116,189061,6,0,B|240:80|328:84,2,150,2|2|8,0:0|0:0|0:0,0:0:0
260,172,190489,2,0,B|272:220|264:272,1,100,2|8,0:0|0:0,0:0:0
324,352,191204,2,0,B|372:340|428:344,1,100,0|8,0:0|0:0,0:0:0
392,248,191918,6,0,B|364:172|376:84,2,150,4|2|8,0:0|0:0|0:0,0:0:0
280,220,193347,2,0,B|308:296|296:384,2,150,2|2|8,0:0|0:0|0:0,0:0:0
284,120,194775,6,0,B|216:76|136:84,2,150,4|4|4,0:0|0:0|0:0,0:0:0
384,120,196204,2,0,B|488:120,2,100,2|8|0,0:0|0:0|0:0,0:0:0
336,208,197275,1,8,0:0:0
284,120,197632,6,0,B|232:100|168:96,1,100,4|8,0:0|0:0,0:0:0
88,144,198347,2,0,B|80:88|96:40,2,100,0|8|0,0:0|0:0|0:0,0:0:0
176,192,199418,1,8,0:0:0
88,240,199775,2,0,B|80:296|96:344,2,100,0|8|0,0:0|0:0|0:0,0:0:0
176,288,200847,6,8,B|272:304|380:276,1,200
472,300,201918,1,0,0:0:0
440,204,202275,2,0,B|452:152|444:100,2,100,8|0|8,0:0|0:0|0:0,0:0:0
348,244,203347,1,4,0:0:0
352,144,203704,6,8,B|256:176|152:160,1,200
60,132,204775,2,0,B|72:180|72:240,1,100,0|8,0:0|0:0,0:0:0
140,312,205489,2,0,B|32:328,2,100,0|8|0,0:0|0:0|0:0,0:0:0
240,296,206561,6,8,B|192:204|216:88,1,200
304,56,207632,1,0,0:0:0
312,156,207989,2,0,B|368:164|416:144,2,100,8|0|8,0:0|0:0|0:0,0:0:0
256,240,209061,1,4,0:0:0
256,192,209239,12,0,211918,0:0:0
