osu file format v9

[General]
AudioFilename: op.mp3
AudioLeadIn: 2000
PreviewTime: 52812
Countdown: 0
SampleSet: Soft
StackLeniency: 0.7
Mode: 0
LetterboxInBreaks: 1

[Editor]
DistanceSpacing: 1
BeatDivisor: 4
GridSize: 8

[Metadata]
Title:Crazy for you (Short Ver.)
Artist:Chata
Creator:Hinacle
Version:Normal
Source:Lover Able
Tags:kanpakyin

[Difficulty]
HPDrainRate:3
CircleSize:4
OverallDifficulty:3
ApproachRate:4
SliderMultiplier:1.2
SliderTickRate:0.5

[Events]
//Background and Video events
Video,0,"op.flv"
0,0,"BG.jpg"
//Break Periods
//Storyboard Layer 0 (Background)
//Storyboard Layer 1 (Fail)
//Storyboard Layer 2 (Pass)
//Storyboard Layer 3 (Foreground)
//Storyboard Sound Samples
//Background Colour Transformations
3,100,163,162,255

[TimingPoints]
832,382.165605095541,4,2,1,50,1,0
34367,-100,4,2,1,55,0,0
43921,-100,4,2,1,60,0,0
48316,-100,4,2,1,50,0,0
49653,-100,4,2,1,0,0,0
52137,-100,4,2,1,60,0,0
52806,-100,4,2,1,65,0,1
75831,-100,4,2,1,50,0,1
77169,-100,4,2,1,0,0,1
77265,-100,4,2,1,0,0,0
79653,-100,4,2,1,50,0,0
86341,-100,4,2,1,45,0,0
87870,-100,4,2,1,40,0,0
89398,-100,4,2,1,0,0,0

[Colours]
Combo1 : 255,185,255
Combo2 : 255,255,149
Combo3 : 155,255,155
Combo4 : 128,255,255

[HitObjects]
304,80,832,2,0,B|424:80,1,120,0|8
424,200,1596,2,0,B|304:200,1,120,0|8
200,256,2360,6,0,B|144:272|80:256,1,120,0|8
80,136,3124,2,0,B|136:120|200:136,1,120,0|8
320,136,3889,5,0
416,208,4271,1,8
344,304,4653,1,0
248,232,5035,1,8
320,136,5417,6,0,B|352:80|424:72,2,120,0|8|0
416,208,6564,1,8
320,280,6946,6,0,B|288:336|216:344,2,120,0|8|0
224,208,8093,1,8
104,208,8475,6,0,B|80:144|104:80,1,120,0|8
224,88,9239,2,0,B|344:88,1,120,0|8
464,88,10003,5,0
464,208,10386,1,8
344,208,10768,2,0,B|224:208,1,120,0|8
256,192,11532,8,0,13061
72,192,13825,5,0
72,312,14207,1,8
192,312,14589,2,0,B|312:312,2,120,0|8|0
192,192,15736,1,8
256,88,16118,6,0,B|400:88,2,120,0|8|0
136,88,17265,1,8
136,144,17456,2,0,B|88:144|56:208|88:264|136:264,1,180,0|8
200,264,18220,2,0,B|248:264|280:200|248:144|200:144,1,180,0|8
80,144,19175,5,0
80,264,19558,1,8
200,264,19940,2,0,B|264:264,1,60,0|8
376,264,20513,1,0
376,144,20895,2,0,B|376:80,2,60,4|4|4
72,144,22233,6,0,B|56:208|56:208|72:272,1,120,0|8
192,264,22997,2,0,B|208:200|208:200|192:136,1,120,0|8
136,40,23761,6,0,B|256:40,1,120,0|8
376,128,24526,2,0,B|256:128,1,120,0|8
136,128,25290,5,0
40,200,25672,1,8
136,272,26054,1,0
232,200,26437,1,8
328,128,26819,5,0
328,184,27010,1,0
328,240,27201,1,0
328,296,27392,2,0,B|240:320|144:296,1,180,4|0
152,176,28347,5,0
152,56,28730,1,8
32,56,29112,1,0
32,176,29494,1,8
32,296,29876,6,0,B|152:296,1,120,0|8
272,296,30640,2,0,B|272:176,1,120,0|8
272,56,31405,5,0
392,56,31787,1,8
392,176,32169,1,0
336,176,32360,1,0
280,176,32551,1,8
224,176,32742,1,0
104,176,33124,5,0
104,232,33316,1,0
104,288,33507,2,0,B|200:312|288:288,1,180,4|0
400,288,34462,6,0,B|408:224|392:216|400:168,1,120,0|8
400,48,35226,2,0,B|336:40|328:56|280:48,1,120,0|8
160,48,35991,2,0,B|152:112|168:120|160:168,1,120,0|8
160,288,36755,2,0,B|224:296|232:280|280:288,1,120,0|8
280,168,37519,5,0
400,168,37902,1,8
400,288,38284,1,0
280,288,38666,1,8
224,288,38857,2,0,B|136:320|32:280,1,180,0|8
80,168,39812,2,0,B|136:192|200:168,1,120,0|8
256,64,40577,5,0
376,64,40959,1,8
376,184,41341,2,0,B|376:304,1,120,0|8
256,304,42105,5,0
136,304,42488,1,8
136,184,42870,2,0,B|136:64,1,120,0|8
256,64,43634,5,4
256,184,44016,1,8
256,304,44398,2,0,B|352:320|440:304,1,180
432,184,45354,5,0
376,184,45545,1,8
320,184,45736,1,0
264,184,45927,2,0,B|144:184,1,120,0|8
144,64,46691,5,4
264,64,47074,1,8
384,64,47456,2,0,B|416:152|392:248,1,180
272,240,48411,5,0
232,192,48602,2,0,B|168:192,2,60,8|0|0
272,144,49175,2,0,B|272:80,2,60,0|8|0
256,192,49749,12,0,52042
320,192,52806,6,0,B|440:192,2,120,4|8|0
320,312,53953,2,0,B|192:312,2,120,8|0|8
440,312,55099,2,0,B|440:192,1,120,0|8
368,96,55863,6,0,B|304:80|232:96,1,120,2|8
144,152,56628,2,0,B|128:216|144:288,1,120,2|8
256,304,57392,2,0,B|320:320|392:304,1,120,2|8
480,248,58156,2,0,B|496:184|480:112,1,120,2|8
360,128,58921,6,0,B|240:128,1,120,4|8
240,248,59685,2,0,B|112:248,1,120,0|8
48,152,60449,6,0,B|168:152,1,120,4|8
168,32,61214,2,0,B|296:32,1,120,0|8
408,32,61978,5,4
408,152,62360,1,8
288,152,62742,2,0,B|216:152,2,60,2|2|2
288,272,63507,6,0,B|168:272,1,120,0|8
168,152,64271,2,0,B|232:152,2,60,2|2|2
168,32,65035,6,0,B|40:32,2,120,4|8|0
288,32,66182,2,0,B|408:32,2,120,8|0|8
288,152,67328,2,0,B|288:272,1,120,0|8
168,280,68093,6,0,B|112:296|40:280,1,120,2|8
48,160,68857,2,0,B|104:144|176:160,1,120,2|8
288,160,69621,2,0,B|344:144|416:160,1,120,2|8
408,280,70386,2,0,B|352:296|280:280,1,120,2|8
168,280,71150,6,0,B|168:160,1,120,0|8
168,40,71914,1,0
288,40,72296,1,8
288,160,72679,6,0,B|408:160,1,120,0|8
408,280,73443,1,0
288,280,73825,1,8
168,280,74207,5,4
168,160,74589,1,4
168,40,74972,1,4
224,40,75163,1,0
280,40,75354,1,8
336,40,75545,1,4
336,160,75927,5,0
368,208,76118,2,0,B|432:208,2,60,8|0|0
336,256,76691,2,0,B|336:320,2,60,0|8|0
256,192,77265,12,0,79558
288,232,80322,6,0,B|288:304|208:304,2,120,0|8|0
408,232,81468,1,8
408,112,81851,6,0,B|408:40|488:40,2,120,0|8|0
288,112,82997,1,8
168,112,83379,6,0,B|96:112|24:168|96:240|168:240,1,240
288,240,84526,1,8
408,240,84908,6,0,B|480:240|552:184|480:112|408:112,1,240
288,112,86054,1,8
168,112,86437,6,0,B|40:112,2,120,0|8|0
168,232,87583,1,8
288,232,87965,6,0,B|416:232,2,120,0|8|0
288,112,89112,1,8
256,192,89494,12,0,93316
