osu file format v12

[General]
AudioFilename: Anesthesia.mp3
AudioLeadIn: 0
PreviewTime: 170252
Countdown: 1
SampleSet: Normal
StackLeniency: 0.9
Mode: 0
LetterboxInBreaks: 1
WidescreenStoryboard: 0

[Editor]
Bookmarks: 17605,34076,54958,65645,93586,105252,115547,134664,147213,169958,191135
DistanceSpacing: 0.8
BeatDivisor: 4
GridSize: 8
TimelineZoom: 1

[Metadata]
Title:Anesthesia
TitleUnicode:Anesthesia
Artist:Chata
ArtistUnicode:Chata
Creator:Glazbom
Version:GLZ
Source:
Tags:
BeatmapID:223162
BeatmapSetID:80115

[Difficulty]
HPDrainRate:8
CircleSize:4
OverallDifficulty:7
ApproachRate:8
SliderMultiplier:1.5
SliderTickRate:2

[Events]
//Background and Video events
0,0,"Exquisite-watercolors-morning-mist-mountain-temple-and-waterfalls_1280x800.jpg",0,0
//Break Periods
2,78198,83130
2,172315,190385
//Storyboard Layer 0 (Background)
//Storyboard Layer 1 (Fail)
//Storyboard Layer 2 (Pass)
//Storyboard Layer 3 (Foreground)
//Storyboard Sound Samples
//Background Colour Transformations
3,100,163,162,255

[TimingPoints]
2900,392.156862745098,4,1,1,60,1,0
16233,-100,4,1,1,50,0,0
16429,-100,4,1,1,60,0,0
19370,-100,4,1,1,50,0,0
19566,-100,4,1,1,60,0,0
22507,-100,4,1,1,50,0,0
22703,-100,4,1,1,60,0,0
23292,-100,4,1,1,50,0,0
23488,-100,4,1,1,60,0,0
24370,-100,4,2,0,60,0,0
25645,-100,4,1,1,50,0,0
26037,-100,4,2,0,60,0,0
27213,-100,4,1,1,50,0,0
27409,-100,4,2,0,60,0,0
27801,-100,4,2,2,60,0,0
31919,-100,4,2,4,60,0,0
32017,-100,4,2,2,60,0,0
35056,-100,4,2,4,60,0,0
35252,-100,4,2,2,60,0,0
36625,-100,4,2,4,60,0,0
36821,-100,4,2,2,60,0,0
40154,-100,4,2,2,65,0,0
40350,-100,4,2,2,70,0,0
43096,-100,4,2,2,70,0,0
52703,-76.9230769230769,4,2,2,80,0,1
65645,-76.9230769230769,4,2,1,80,0,1
75841,-76.9230769230769,4,2,1,80,0,0
78194,-90.9090909090909,4,1,0,60,0,0
84370,-90.9090909090909,4,2,0,60,0,0
90350,-90.9090909090909,4,1,1,60,0,0
90547,-90.9090909090909,4,1,1,40,0,0
90743,-90.9090909090909,4,2,0,60,0,0
103096,-90.9090909090909,4,1,1,40,0,0
103194,-90.9090909090909,4,2,0,60,0,0
109472,-90.9090909090909,4,2,2,60,0,0
115645,-90.9090909090909,4,2,2,40,0,0
115841,-90.9090909090909,4,2,2,60,0,0
121723,-76.9230769230769,4,1,0,70,0,1
122213,-76.9230769230769,4,2,2,80,0,1
134762,-76.9230769230769,4,2,1,80,0,1
147213,-90.9090909090909,4,1,0,60,0,0
147311,-90.9090909090909,4,2,0,60,0,0
158292,-90.9090909090909,4,2,2,60,0,0
190597,-90.9090909090909,4,2,2,70,0,0
194762,-90.9090909090909,4,2,2,75,0,0
194958,-90.9090909090909,4,2,2,80,0,0
197017,-76.9230769230769,4,2,2,90,0,1
209958,-76.9230769230769,4,2,1,90,0,1
214272,-76.9230769230769,4,1,1,70,0,1
214370,-76.9230769230769,4,2,1,90,0,1
222507,-76.9230769230769,4,2,2,90,0,1
229566,-76.9230769230769,4,1,1,80,0,1
229664,-76.9230769230769,4,2,2,90,0,1
232703,-76.9230769230769,4,1,1,80,0,1
232801,-76.9230769230769,4,2,2,90,0,1
247605,-125,4,3,0,40,0,0

[Colours]
Combo1 : 225,0,113
Combo2 : 197,197,197
Combo3 : 155,84,252
Combo4 : 134,13,255

[HitObjects]
256,64,15449,5,0,0:0:0:0:
256,64,15645,2,0,B|272:160,1,75,0|0,2:0|2:0,0:0:0:0:
416,184,16037,2,0,B|336:216|320:312,1,150,0|0,2:0|0:0,0:0:0:0:
224,336,16625,1,0,2:0:0:0:
120,288,16821,1,0,2:0:0:0:
80,168,17017,2,0,B|160:176,1,75,0|0,0:0|2:0,0:0:0:0:
312,184,17409,1,0,2:0:0:0:
160,288,17605,1,0,2:0:0:0:
288,304,17801,6,0,B|240:232,1,75
272,120,18194,2,0,B|320:192,1,75,0|0,2:0|2:0,0:0:0:0:
448,272,18586,2,0,B|448:347,2,75,0|0|0,0:0|2:0|2:0,0:0:0:0:
456,80,19174,6,0,B|425:148|353:186,1,150,0|0,2:0|0:0,0:0:0:0:
152,200,19762,2,0,B|104:184|80:128,2,75,0|0|0,2:0|2:0|0:0,0:0:0:0:
248,208,20350,1,0,2:0:0:0:
328,160,20547,1,0,2:0:0:0:
304,72,20743,1,0,2:0:0:0:
208,64,20939,1,0,0:0:0:0:
168,144,21135,1,0,0:0:0:0:
448,104,21527,5,0,2:0:0:0:
448,104,21723,1,4,2:0:0:0:
112,304,22115,1,0,2:0:0:0:
112,304,22311,2,0,B|72:248|80:152,1,150,0|0,2:0|0:0,0:0:0:0:
144,48,22900,1,0,2:0:0:0:
280,48,23096,2,0,B|216:96|192:192,1,150,0|0,2:0|2:0,0:0:0:0:
184,288,23684,1,0,2:0:0:0:
288,336,23880,2,0,B|376:336,2,75,0|0|0,2:0|0:0|0:0,0:0:0:0:
152,328,24468,6,0,B|212:283,1,75
368,64,24860,2,0,B|368:152,1,75,0|0,1:0|0:0,0:0:0:0:
368,248,25252,1,0,0:0:0:0:
416,344,25449,2,0,P|480:256|440:152,1,225
328,88,26233,6,0,P|320:56|296:8,2,75,0|0|0,0:0|1:0|0:0,0:0:0:0:
328,184,26821,1,2,0:0:0:0:
272,256,27017,1,0,0:0:0:0:
184,280,27213,2,8,L|104:280,2,75,8|4|0,1:0|0:0|0:0,0:0:0:0:
312,24,27998,6,0,B|264:88|176:112,1,150,4|0,2:0|0:0,0:0:0:0:
48,56,28586,2,0,B|48:136,1,75,0|8,0:0|1:0,0:0:0:0:
136,304,28978,2,0,B|136:216,1,75,0|2,0:0|0:0,0:0:0:0:
224,96,29370,5,0,0:0:0:0:
272,200,29566,1,0,1:0:0:0:
208,280,29762,2,0,B|120:280,2,75,0|2|0,0:0|0:0|0:0,0:0:0:0:
368,272,30350,1,8,1:0:0:0:
368,272,30547,1,0,0:0:0:0:
384,64,30939,6,0,B|400:152,1,75,2|0,0:0|1:0,0:0:0:0:
416,248,31331,1,0,0:0:0:0:
256,288,31527,1,2,0:0:0:0:
352,336,31723,2,0,B|344:256|288:184,1,150
208,104,32311,2,0,B|128:104,2,75,2|0|0,0:0|0:0|1:0,0:0:0:0:
360,120,32900,6,0,P|336:160|304:184,1,75,0|2,0:0|0:0,0:0:0:0:
168,224,33292,2,0,P|200:248|248:256,1,75,0|8,0:0|1:0,0:0:0:0:
392,256,33684,1,0,0:0:0:0:
88,128,34076,5,2,0:0:0:0:
192,80,34272,2,0,P|184:168|144:224,1,150,0|2,1:0|0:0,0:0:0:0:
40,328,34860,2,0,B|136:336|192:296,1,150
344,208,35449,1,2,0:0:0:0:
344,208,35645,1,0,0:0:0:0:
472,320,35841,6,0,B|392:304,1,75,0|0,1:0|0:0,0:0:0:0:
280,280,36233,1,2,0:0:0:0:
168,224,36429,2,0,B|200:144|288:128,1,150
424,64,37017,2,0,B|344:48,1,75,2|0,0:0|0:0,0:0:0:0:
112,88,37409,5,0,1:0:0:0:
120,184,37605,1,0,0:0:0:0:
192,240,37801,1,2,0:0:0:0:
320,144,37998,2,0,L|320:219,1,75,8|8,1:0|1:0,0:0:0:0:
192,240,38390,2,0,L|192:165,1,75,8|4,1:3|1:3,0:0:0:0:
392,320,38782,2,0,L|304:320,1,75,2|4,0:0|0:0,0:0:0:0:
120,64,39174,2,0,L|208:64,1,75,0|0,0:0|1:0,0:0:0:0:
408,232,39566,5,8,1:0:0:0:
352,328,39762,1,8,1:0:0:0:
248,344,39958,1,4,1:3:0:0:
152,288,40154,2,0,P|112:264|72:256,1,75,8|8,1:3|1:3,0:0:0:0:
0,144,40547,2,0,B|72:144|160:80,1,150,4|8,1:2|1:0,0:0:0:0:
248,32,41135,1,0,0:0:0:0:
360,96,41331,2,0,B|408:32,2,75,2|0|8,1:2|0:0|1:0,0:0:0:0:
272,184,41919,5,0,0:0:0:0:
296,304,42115,1,2,1:2:0:0:
176,264,42311,1,0,0:0:0:0:
176,264,42507,1,8,1:0:0:0:
96,360,42703,2,0,B|40:296|64:208,1,150,0|0,0:0|0:0,0:0:0:0:
128,40,43292,6,0,B|160:112,1,75,8|0,1:0|0:0,0:0:0:0:
288,152,43684,2,0,B|256:80,1,75,4|0,1:2|0:0,0:0:0:0:
360,24,44076,1,8,1:0:0:0:
392,112,44272,1,0,0:0:0:0:
360,200,44468,1,2,1:2:0:0:
296,112,44664,6,0,B|200:112,1,75,0|8,0:0|1:0,0:0:0:0:
128,112,45056,1,0,0:0:0:0:
392,112,45252,1,4,1:2:0:0:
216,208,45449,6,0,B|288:240,1,75,0|8,0:0|1:0,0:0:0:0:
424,320,45841,2,0,B|416:240,1,75
392,112,46233,1,0,0:0:0:0:
480,24,46429,1,8,1:0:0:0:
392,112,46625,1,0,0:0:0:0:
304,16,46821,6,0,P|288:48|256:80,1,75,4|0,0:0|0:0,0:0:0:0:
128,104,47213,2,0,P|96:88|32:88,2,75,8|0|0,1:0|0:0|0:0,0:0:0:0:
232,208,47801,1,2,0:0:0:0:
480,240,48194,6,0,B|480:296|464:328,2,75,2|4|0,0:0|0:0|0:0,0:0:0:0:
464,144,48782,1,8,1:0:0:0:
432,32,48978,2,0,B|360:64|352:160,1,150,2|2,0:0|0:0,0:0:0:0:
344,336,49566,1,8,1:0:0:0:
160,48,49958,1,4,1:2:0:0:
416,312,50350,5,8,1:0:0:0:
424,192,50547,1,8,1:0:0:0:
352,96,50743,1,8,1:0:0:0:
224,56,50939,1,8,1:0:0:0:
96,96,51135,1,8,1:0:0:0:
40,200,51331,2,0,B|104:256|112:336,1,150,8|8,1:0|1:0,0:0:0:0:
256,352,51919,1,2,0:0:0:0:
256,32,52115,6,0,B|256:184,1,150,8|8,1:0|1:0,0:0:0:0:
256,344,52703,1,8,1:0:0:0:
256,264,52900,1,0,0:0:0:0:
256,344,53096,1,4,1:2:0:0:
256,264,53292,1,0,0:0:0:0:
392,304,53488,6,0,B|352:208,1,97.4999955368044,8|0,1:0|0:0,0:0:0:0:
120,304,53880,2,0,B|160:208,1,97.4999955368044,4|0,1:3|0:0,0:0:0:0:
256,56,54272,5,8,1:0:0:0:
256,168,54468,1,0,0:0:0:0:
144,208,54664,2,0,B|96:192|72:136,1,97.4999955368044,4|0,1:3|0:0,0:0:0:0:
88,24,55056,2,0,B|136:32|160:96,1,97.4999955368044,8|0,1:0|0:0,0:0:0:0:
184,216,55449,1,4,1:3:0:0:
232,312,55645,1,4,1:3:0:0:
336,336,55841,6,0,B|344:248|440:168,1,194.999991073609,8|4,1:0|1:3,0:0:0:0:
328,128,56429,1,0,0:0:0:0:
352,24,56625,2,0,B|240:40,1,97.4999955368044,8|0,1:0|0:0,0:0:0:0:
112,56,57017,1,4,1:3:0:0:
112,56,57213,1,0,0:0:0:0:
384,328,57605,5,0,0:0:0:0:
312,248,57801,1,4,1:3:0:0:
448,288,57998,1,0,0:0:0:0:
272,312,58194,1,8,1:0:0:0:
416,176,58390,1,0,0:0:0:0:
280,344,58586,6,0,B|184:272,1,97.4999955368044,4|4,1:3|1:3,0:0:0:0:
96,88,58978,2,0,B|184:144,1,97.4999955368044,8|0,1:0|0:0,0:0:0:0:
440,64,59370,5,4,1:2:0:0:
464,216,59566,1,0,0:0:0:0:
352,320,59762,1,8,1:0:0:0:
192,312,59958,2,0,B|296:296|312:176,1,194.999991073609
304,64,60547,1,8,1:0:0:0:
176,168,60743,2,0,B|216:80,1,97.4999955368044
144,8,61135,2,0,B|104:96,1,97.4999955368044,0|8,0:0|1:0,0:0:0:0:
16,360,61723,5,0,0:0:0:0:
440,232,62115,1,8,1:0:0:0:
328,200,62311,1,0,0:0:0:0:
328,200,62409,1,0,0:0:0:0:
328,200,62507,1,4,1:3:0:0:
240,272,62703,1,0,0:0:0:0:
104,248,62900,1,8,1:0:0:0:
64,112,63096,1,0,0:0:0:0:
432,112,63488,6,0,B|392:144|384:216,1,97.4999955368044,4|8,1:3|1:0,0:0:0:0:
384,304,63880,1,0,0:0:0:0:
384,304,64076,1,4,1:3:0:0:
200,352,64272,6,0,B|256:240,1,97.4999955368044,8|8,1:0|1:0,0:0:0:0:
296,184,64664,1,0,0:0:0:0:
344,88,64860,1,4,1:3:0:0:
280,8,65056,1,8,1:0:0:0:
152,32,65252,1,8,1:0:0:0:
296,184,65449,1,8,1:0:0:0:
80,160,65645,6,0,B|112:192|112:272,1,97.4999955368044,4|0,1:2|0:0,0:0:0:0:
104,344,66037,1,8,1:0:0:0:
304,264,66233,1,0,0:0:0:0:
192,280,66429,2,0,B|208:328|256:352,2,97.4999955368044,4|4|8,1:3|1:3|1:0,0:0:0:0:
176,64,67017,6,0,B|216:104|224:152,1,97.4999955368044,0|4,0:0|1:3,0:0:0:0:
416,208,67409,2,0,B|376:232|352:288,1,97.4999955368044,0|8,0:0|1:0,0:0:0:0:
200,344,67801,1,0,0:0:0:0:
96,264,67998,1,4,1:3:0:0:
224,208,68194,1,4,1:3:0:0:
136,56,68390,1,8,1:0:0:0:
16,160,68586,6,0,B|136:160,1,97.4999955368044,0|4,0:0|1:3,0:0:0:0:
224,160,68978,1,0,0:0:0:0:
344,160,69174,2,0,B|448:160,2,97.4999955368044,8|0|4,1:0|0:0|1:3,0:0:0:0:
224,160,69762,1,4,1:3:0:0:
200,336,70154,5,0,0:0:0:0:
112,72,70350,1,4,1:3:0:0:
56,216,70547,1,0,0:0:0:0:
312,56,70743,1,8,1:0:0:0:
416,256,70939,2,0,B|392:344|288:408|168:376,1,292.499986610413,4|8,1:3|1:0,0:0:0:0:
224,264,71723,6,0,B|256:224|272:160,1,97.4999955368044,0|4,0:0|1:2,0:0:0:0:
256,56,72115,1,0,0:0:0:0:
160,128,72311,1,8,1:0:0:0:
56,56,72507,2,0,B|88:160|8:256,1,194.999991073609,4|0,1:3|0:0,0:0:0:0:
72,360,73096,6,0,B|120:264,1,97.4999955368044,8|0,1:0|0:0,0:0:0:0:
272,120,73488,2,0,B|232:208,1,97.4999955368044,4|0,1:3|0:0,0:0:0:0:
256,344,73880,2,0,B|304:248|408:216,1,194.999991073609,8|4,1:0|1:3,0:0:0:0:
448,112,74468,2,0,B|392:72|392:-8,1,97.4999955368044,4|8,1:3|1:0,0:0:0:0:
272,40,74860,5,0,0:0:0:0:
272,40,74958,1,0,0:0:0:0:
272,40,75056,1,4,1:2:0:0:
40,144,75252,2,0,B|136:160,1,97.4999955368044,0|8,0:0|1:0,0:0:0:0:
352,184,75645,1,0,0:0:0:0:
104,336,76037,5,0,0:0:0:0:
176,224,76233,1,8,1:0:0:0:
296,320,76429,1,0,0:0:0:0:
256,104,76625,1,6,0:0:0:0:
480,296,76821,1,6,0:0:0:0:
256,40,77213,5,2,0:0:0:0:
256,352,77605,2,0,B|256:224,1,97.4999955368044,0|2,0:0|0:0,0:0:0:0:
256,104,77998,1,0,0:0:0:0:
424,192,83880,6,0,B|448:288,2,82.5000025177003,2|2|2,0:0|0:0|0:0,0:0:0:0:
392,88,84468,1,4,0:0:0:0:
288,32,84664,2,0,B|304:88|288:128,1,82.5000025177003,0|0,0:0|1:0,0:0:0:0:
248,208,85056,1,0,0:0:0:0:
152,248,85252,1,0,0:0:0:0:
72,64,85449,6,0,P|121:64|168:80,1,82.5000025177003,0|0,0:0|1:0,0:0:0:0:
256,120,85841,1,0,0:0:0:0:
360,176,86037,2,0,B|376:80,2,82.5000025177003,0|0|0,0:0|0:0|1:0,0:0:0:0:
328,320,86625,1,0,0:0:0:0:
112,224,86821,2,0,B|200:224,1,82.5000025177003
328,320,87213,2,0,B|224:320,1,82.5000025177003,0|0,1:0|0:0,0:0:0:0:
200,96,87605,5,0,0:0:0:0:
272,32,87801,1,0,0:0:0:0:
376,24,87998,1,0,1:0:0:0:
464,80,88194,2,0,B|392:136|392:232,1,165.000005035401
392,328,88782,1,0,1:0:0:0:
280,256,88978,1,0,0:0:0:0:
272,136,89174,1,0,0:0:0:0:
160,240,89370,5,0,0:0:0:0:
384,240,89566,1,0,1:0:0:0:
272,136,89762,1,0,0:0:0:0:
208,280,89958,1,0,0:0:0:0:
48,312,90154,2,0,B|88:280|104:216|96:160,1,165.000005035401,0|4,0:0|1:2,0:0:0:0:
240,16,90743,6,0,B|208:112|272:200,1,165.000005035401,4|0,1:0|1:0,0:0:0:0:
344,264,91331,1,0,0:0:0:0:
344,264,91527,1,0,0:0:0:0:
424,160,91723,5,0,0:0:0:0:
424,160,91919,2,0,P|448:192|480:224,2,82.5000025177003,0|0|0,1:0|0:0|0:0,0:0:0:0:
288,128,92507,1,0,0:0:0:0:
288,128,92703,1,0,1:0:0:0:
200,24,92900,2,0,B|184:104|112:168,1,165.000005035401
128,312,93488,1,0,1:0:0:0:
248,360,93684,1,0,0:0:0:0:
392,336,93880,2,0,B|400:240|496:200,1,165.000005035401,0|0,0:0|1:0,0:0:0:0:
256,32,94468,1,0,0:0:0:0:
256,192,94664,12,0,96233,0:0:0:0:
96,88,96429,6,0,B|184:112,1,82.5000025177003,4|0,0:0|0:0,0:0:0:0:
352,200,96821,2,0,B|264:224,1,82.5000025177003,4|4,0:0|1:0,0:0:0:0:
128,256,97213,1,0,0:0:0:0:
352,200,97409,1,0,1:0:0:0:
96,88,97605,1,0,0:0:0:0:
464,152,97998,6,0,B|448:104|416:88,1,82.5000025177003,0|0,0:0|1:0,0:0:0:0:
328,160,98390,2,0,B|280:224|176:224,1,165.000005035401
24,192,98978,1,0,1:0:0:0:
64,72,99174,1,0,0:0:0:0:
168,144,99370,1,0,0:0:0:0:
128,264,99566,1,0,0:0:0:0:
128,264,99762,1,0,1:0:0:0:
272,328,99958,6,0,P|296:296|352:264,1,82.5000025177003,0|0,0:0|0:0,0:0:0:0:
432,224,100350,1,0,0:0:0:0:
480,112,100547,1,0,1:0:0:0:
392,16,100743,2,0,B|360:112|240:136,1,165.000005035401
288,288,101331,6,0,B|336:272|392:256,1,82.5000025177003,0|0,1:0|0:0,0:0:0:0:
448,192,101723,1,0,0:0:0:0:
336,160,101919,1,0,0:0:0:0:
416,72,102115,1,0,1:0:0:0:
120,48,102311,6,0,B|165:117,1,82.5000025177003
240,232,102703,2,0,B|288:160,2,82.5000025177003,0|0|4,0:0|1:0|1:2,0:0:0:0:
64,264,103292,6,0,B|128:328|208:336,1,165.000005035401,4|0,1:0|1:0,0:0:0:0:
376,336,103880,2,0,B|320:264|368:192|368:192|311:187|264:168,1,247.500007553101,0|0,0:0|1:0,0:0:0:0:
184,136,104664,1,0,0:0:0:0:
96,96,104860,1,0,0:0:0:0:
24,32,105056,1,0,0:0:0:0:
0,192,105252,5,0,1:0:0:0:
0,192,105449,2,0,B|80:200|152:264,1,165.000005035401
264,328,106037,1,0,1:0:0:0:
408,344,106233,1,0,0:0:0:0:
464,208,106429,1,0,0:0:0:0:
352,112,106625,1,0,0:0:0:0:
232,200,106821,1,0,1:0:0:0:
344,288,107017,6,0,L|352:192,2,82.5000025177003,0|0|8,0:0|0:0|1:3,0:0:0:0:
240,336,107605,1,4,1:3:0:0:
136,304,107801,1,0,0:0:0:0:
88,192,107998,5,4,0:0:0:0:
112,184,108096,1,0,0:0:0:0:
136,176,108194,1,0,0:0:0:0:
160,168,108292,1,0,0:0:0:0:
184,160,108390,1,0,1:0:0:0:
208,152,108488,1,0,0:0:0:0:
232,144,108586,1,2,0:0:0:0:
256,136,108684,1,0,0:0:0:0:
280,128,108782,1,2,1:2:0:0:
304,120,108880,1,0,0:0:0:0:
328,112,108978,1,0,0:0:0:0:
352,104,109076,1,0,0:0:0:0:
376,96,109174,1,0,1:0:0:0:
488,56,109370,5,0,0:0:0:0:
264,56,109566,2,0,B|368:56|424:136,1,165.000005035401,4|8,0:0|1:0,0:0:0:0:
488,240,110154,1,0,0:0:0:0:
352,248,110350,2,0,B|320:280|328:352,2,82.5000025177003,2|0|8,1:2|0:0|1:0,0:0:0:0:
440,152,110939,5,0,0:0:0:0:
440,152,111135,1,2,1:2:0:0:
288,192,111331,1,0,0:0:0:0:
224,56,111527,1,8,1:0:0:0:
224,56,111723,2,0,P|312:72|352:136,1,165.000005035401
48,344,112507,6,0,B|120:304,1,82.5000025177003,0|2,0:0|1:2,0:0:0:0:
240,240,112900,1,0,0:0:0:0:
240,240,113096,1,8,1:0:0:0:
408,168,113292,2,0,B|312:144,1,82.5000025177003,0|2,0:0|1:2,0:0:0:0:
136,96,113684,2,0,B|232:120,1,82.5000025177003,0|8,0:0|1:0,0:0:0:0:
344,144,114076,5,0,0:0:0:0:
456,216,114272,1,2,1:2:0:0:
424,336,114468,1,0,0:0:0:0:
280,336,114664,1,8,1:0:0:0:
344,224,114860,5,0,0:0:0:0:
224,224,115056,1,2,1:2:0:0:
344,224,115252,1,0,0:0:0:0:
288,120,115449,1,8,1:0:0:0:
288,120,115645,1,4,1:2:0:0:
384,88,115841,6,0,B|392:136|368:168,1,82.5000025177003,4|0,1:0|0:0,0:0:0:0:
280,232,116233,1,8,1:0:0:0:
192,288,116429,2,0,B|240:312|264:360,2,82.5000025177003
40,248,117017,5,8,1:0:0:0:
40,248,117213,1,4,0:0:0:0:
144,120,117409,1,4,1:0:0:0:
144,120,117605,1,0,0:0:0:0:
304,223,117801,1,8,1:0:0:0:
424,112,117998,2,0,B|344:152|304:224,1,165.000005035401
120,344,118586,2,0,B|120:248|168:184,1,165.000005035401,8|4,1:0|0:0,0:0:0:0:
256,88,119174,5,0,0:0:0:0:
424,88,119370,1,8,1:0:0:0:
216,240,119566,1,8,1:0:0:0:
424,176,119762,1,8,1:0:0:0:
216,24,119958,1,8,1:0:0:0:
32,176,120154,1,8,1:0:0:0:
32,176,120350,2,0,B|120:216|144:320,1,165.000005035401,8|8,1:0|1:0,0:0:0:0:
256,192,120939,5,2,0:0:0:0:
256,192,121135,1,8,1:0:0:0:
416,136,121331,1,8,1:0:0:0:
416,136,121527,1,0,0:0:0:0:
456,312,121723,6,2,B|360:280,1,97.4999955368044,2|0,0:0|0:0,0:0:0:0:
96,208,122115,1,4,1:2:0:0:
96,208,122311,2,0,B|200:184,1,97.4999955368044,0|8,0:0|1:0,0:0:0:0:
368,144,122703,1,0,0:0:0:0:
368,144,122899,1,4,1:3:0:0:
256,32,123096,1,4,1:3:0:0:
256,32,123292,1,8,1:0:0:0:
184,216,123488,6,0,B|168:120,1,97.4999955368044,0|4,0:0|1:3,0:0:0:0:
72,64,123880,2,0,B|88:160,1,97.4999955368044,0|8,0:0|1:0,0:0:0:0:
104,288,124272,2,0,L|0:288,2,97.4999955368044,0|4|0,0:0|1:3|0:0,0:0:0:0:
280,240,124860,5,8,1:0:0:0:
280,240,125056,1,0,0:0:0:0:
416,304,125252,1,4,1:3:0:0:
416,304,125449,1,0,0:0:0:0:
504,152,125645,6,0,B|408:136,1,97.4999955368044,8|0,1:0|0:0,0:0:0:0:
176,184,126037,1,4,1:3:0:0:
224,320,126233,1,4,1:3:0:0:
72,336,126429,2,0,B|96:296|88:224,1,97.4999955368044,8|0,1:0|0:0,0:0:0:0:
176,40,126821,6,0,L|208:136,1,97.4999955368044,4|0,1:3|0:0,0:0:0:0:
400,280,127213,2,0,L|448:192,1,97.4999955368044,8|0,1:0|0:0,0:0:0:0:
80,328,127605,2,0,L|168:288,1,97.4999955368044,4|4,1:3|1:3,1:3:0:0:
416,192,127998,1,8,1:0:0:0:
104,192,128194,1,0,0:0:0:0:
272,336,128390,6,0,B|296:296|304:232,1,97.4999955368044,4|0,1:2|0:0,0:0:0:0:
304,136,128782,1,8,1:0:0:0:
400,96,128978,2,0,B|384:48|296:-8|216:72,1,194.999991073609,0|4,0:0|1:3,0:0:0:0:
96,96,129566,1,8,1:0:0:0:
96,96,129762,1,0,0:0:0:0:
16,240,129958,6,0,B|72:240|112:288,1,97.4999955368044,4|0,1:3|0:0,0:0:0:0:
352,312,130350,2,0,B|256:272|216:176,1,194.999991073609,8|4,1:0|1:3,0:0:0:0:
192,40,130939,1,4,1:3:0:0:
392,144,131135,1,8,1:0:0:0:
192,248,131331,5,0,0:0:0:0:
192,248,131429,1,0,0:0:0:0:
192,248,131527,1,4,1:2:0:0:
112,56,131723,2,0,B|144:104|208:120,1,97.4999955368044,0|8,0:0|1:0,0:0:0:0:
472,184,132115,2,0,B|448:240|368:272,1,97.4999955368044,0|4,0:0|1:3,0:0:0:0:
248,304,132507,5,4,1:3:0:0:
168,184,132703,1,8,1:0:0:0:
304,176,132900,1,0,0:0:0:0:
208,8,133096,1,4,1:2:0:0:
208,280,133292,5,8,1:0:0:0:
112,208,133488,1,8,1:0:0:0:
8,144,133684,2,0,B|120:144|176:48,1,194.999991073609,8|12,3:0|3:0,0:0:0:0:
432,48,134272,1,8,1:0:0:0:
432,48,134468,2,0,B|416:152,1,97.4999955368044,0|4,0:0|1:2,0:0:0:0:
384,304,134860,6,0,B|320:304|288:256,1,97.4999955368044,0|8,0:0|1:0,0:0:0:0:
240,184,135252,1,0,0:0:0:0:
192,96,135449,2,0,B|160:56|96:48,2,97.4999955368044,4|4|8,1:3|1:3|1:0,0:0:0:0:
256,208,136037,5,0,0:0:0:0:
376,224,136233,1,4,1:3:0:0:
448,128,136429,1,0,0:0:0:0:
368,24,136625,6,0,B|272:56,1,97.4999955368044,8|0,1:0|0:0,0:0:0:0:
112,112,137017,2,0,B|216:144,1,97.4999955368044,4|4,1:3|1:3,0:0:0:0:
352,184,137409,1,8,1:0:0:0:
352,184,137605,1,0,0:0:0:0:
144,240,137801,1,4,1:3:0:0:
144,240,137998,1,0,0:0:0:0:
256,344,138194,6,0,B|256:224,1,97.4999955368044,8|0,1:0|0:0,0:0:0:0:
256,48,138586,1,4,1:3:0:0:
256,48,138782,1,4,1:3:0:0:
448,344,139174,5,0,0:0:0:0:
144,104,139370,2,0,B|248:104,1,97.4999955368044,4|0,1:2|0:0,0:0:0:0:
464,104,139762,1,8,1:0:0:0:
216,32,139958,2,0,B|216:152|168:240|48:272,1,292.499986610413,0|8,0:0|1:0,0:0:0:0:
72,264,140743,5,0,0:0:0:0:
72,264,140939,1,4,1:2:0:0:
24,136,141135,1,0,0:0:0:0:
24,136,141331,1,8,1:0:0:0:
176,128,141527,2,0,B|296:136|320:248,1,194.999991073609,0|4,0:0|1:3,0:0:0:0:
456,304,142115,6,0,P|416:264|392:224,1,97.4999955368044,8|0,1:0|0:0,0:0:0:0:
328,40,142507,2,0,P|304:80|264:120,1,97.4999955368044,4|0,1:3|0:0,0:0:0:0:
32,232,142900,2,0,P|120:224|224:272,1,194.999991073609,8|4,1:0|1:0,0:0:0:0:
352,112,143684,6,0,P|384:80|400:32,2,97.4999955368044,8|0|4,1:0|0:0|1:3,0:0:0:0:
256,128,144272,1,0,0:0:0:0:
160,112,144468,2,0,P|128:80|112:32,1,97.4999955368044
376,344,145056,5,0,0:0:0:0:
448,296,145252,1,8,1:0:0:0:
488,216,145449,1,0,0:0:0:0:
488,128,145645,1,4,0:0:0:0:
456,48,145841,1,4,0:0:0:0:
32,48,146233,6,0,B|88:88|88:88|8:120|16:192,1,194.999991073609,2|0,0:0|0:0,0:0:0:0:
32,272,146821,1,6,0:0:0:0:
104,328,147017,1,0,0:0:0:0:
200,320,147213,1,4,0:0:0:0:
264,248,147409,1,0,0:0:0:0:
312,160,147605,1,2,0:0:0:0:
376,88,147801,2,0,B|408:56|480:48,2,82.5000025177003,0|0|0,0:0|1:0|1:0,0:0:0:0:
296,200,148390,5,2,0:0:0:0:
296,200,148586,1,0,0:0:0:0:
400,288,148782,1,0,1:0:0:0:
400,288,148978,2,0,B|312:288,1,82.5000025177003,0|2,0:0|0:0,0:0:0:0:
72,288,149370,5,0,0:0:0:0:
72,288,149566,1,0,1:0:0:0:
184,56,149762,2,0,B|184:144,1,82.5000025177003,0|2,1:0|0:0,0:0:0:0:
184,328,150154,1,0,0:0:0:0:
256,192,150252,12,0,151919,0:0:0:0:
224,280,152115,6,0,L|312:280,1,82.5000025177003,0|2,0:0|0:0,0:0:0:0:
448,272,152507,2,0,P|416:232|389:213,1,82.5000025177003,0|2,0:0|0:0,0:0:0:0:
288,160,152900,1,0,0:0:0:0:
184,152,153096,1,2,0:0:0:0:
88,176,153292,1,0,0:0:0:0:
136,304,154076,6,0,B|232:304,1,82.5000025177003,0|2,0:0|0:0,0:0:0:0:
320,304,154468,1,0,0:0:0:0:
320,208,154664,2,0,B|232:208,1,82.5000025177003,0|0,1:0|0:0,0:0:0:0:
136,48,155056,1,2,0:0:0:0:
136,128,155252,1,0,0:0:0:0:
136,208,155449,1,0,1:0:0:0:
48,320,155645,6,0,B|136:320,1,82.5000025177003
232,320,156037,1,0,1:0:0:0:
352,320,156233,1,0,1:0:0:0:
488,320,156429,1,0,0:0:0:0:
256,192,156527,12,0,158194,0:0:0:0:
256,56,158390,5,8,1:0:0:0:
200,168,158586,1,8,1:0:0:0:
296,248,158782,1,8,1:0:0:0:
328,224,158880,1,0,1:0:0:0:
344,192,158978,1,0,1:0:0:0:
344,152,159076,1,0,1:0:0:0:
336,120,159174,1,0,1:0:0:0:
208,56,159370,5,0,0:0:0:0:
80,96,159566,2,0,B|112:121|128:161,1,82.5000025177003,8|4,1:0|0:0,0:0:0:0:
431,291,159958,2,0,B|400:264|384:224,1,82.5000025177003,0|8,0:0|1:0,0:0:0:0:
256,40,160350,2,0,B|256:128,1,82.5000025177003,0|0,0:0|1:0,0:0:0:0:
256,216,160743,1,0,1:0:0:0:
336,272,160939,2,0,B|320:320|272:352,2,82.5000025177003,8|0|0,1:0|0:0|1:0,0:0:0:0:
352,160,161527,5,0,0:0:0:0:
304,56,161723,1,8,1:0:0:0:
184,24,161919,1,0,0:0:0:0:
72,80,162115,1,0,1:0:0:0:
48,192,162311,1,0,1:0:0:0:
112,296,162507,1,8,1:0:0:0:
232,320,162703,1,0,0:0:0:0:
256,192,162801,12,8,164076,1:0:0:0:
336,80,164272,5,0,0:0:0:0:
336,80,164468,1,0,1:0:0:0:
320,208,164664,1,0,0:0:0:0:
320,208,164860,1,8,1:0:0:0:
216,280,165056,1,0,0:0:0:0:
216,280,165252,1,0,1:0:0:0:
168,120,165449,5,4,1:2:0:0:
72,160,165645,1,8,1:0:0:0:
56,264,165841,1,4,1:2:0:0:
152,224,166037,1,4,1:0:0:0:
256,176,166233,6,0,B|288:256,1,82.5000025177003,0|8,0:0|1:0,0:0:0:0:
328,336,166625,1,0,0:0:0:0:
216,88,166821,1,0,1:0:0:0:
288,256,167017,1,0,1:0:0:0:
352,160,167213,5,8,1:0:0:0:
352,160,167409,1,0,0:0:0:0:
160,216,167605,1,0,1:0:0:0:
160,216,167801,1,0,0:0:0:0:
256,352,167998,6,0,L|256:264,1,82.5000025177003,8|0,1:0|0:0,0:0:0:0:
216,144,168390,1,0,1:0:0:0:
296,240,168586,1,0,1:0:0:0:
288,96,168782,1,8,1:0:0:0:
224,288,168978,1,0,0:0:0:0:
376,80,169174,1,4,0:0:0:0:
136,304,169370,1,0,0:0:0:0:
248,112,169566,6,0,B|305:174,1,82.5000025177003,8|0,1:0|0:0,0:0:0:0:
264,272,169958,2,0,B|208:208,1,82.5000025177003,8|0,1:0|0:0,0:0:0:0:
112,88,170350,2,0,L|112:0,2,82.5000025177003,8|0|4,1:0|0:0|1:2,0:0:0:0:
112,88,170939,1,4,0:0:0:0:
256,328,171331,5,2,0:0:0:0:
176,80,171723,1,2,0:0:0:0:
480,112,172115,1,2,0:0:0:0:
168,320,191135,5,4,0:0:0:0:
168,320,191331,1,0,0:0:0:0:
328,224,191527,1,8,1:0:0:0:
328,224,191723,1,0,1:0:0:0:
144,160,191919,5,8,1:0:0:0:
104,56,192115,1,0,0:0:0:0:
248,168,192311,1,8,1:0:0:0:
248,24,192507,1,0,0:0:0:0:
352,200,192703,1,4,0:0:0:0:
416,16,192900,1,0,0:0:0:0:
352,200,193096,1,8,1:0:0:0:
192,32,193292,6,0,P|264:80|352:104,1,165.000005035401
320,352,193880,2,0,P|248:304|160:280,1,165.000005035401,8|4,1:0|0:0,0:0:0:0:
32,160,194468,5,0,0:0:0:0:
144,96,194664,1,8,1:0:0:0:
280,80,194860,1,8,1:0:0:0:
440,296,195056,5,8,1:0:0:0:
304,288,195252,1,8,1:0:0:0:
184,192,195449,1,8,1:0:0:0:
144,40,195645,1,8,1:0:0:0:
144,40,196037,1,8,1:0:0:0:
408,304,196429,1,8,1:0:0:0:
408,304,196625,1,8,1:0:0:0:
256,96,197017,5,8,1:0:0:0:
256,96,197213,1,0,0:0:0:0:
376,144,197409,2,0,P|338:172|304:216,1,97.4999955368044,4|0,0:0|0:0,0:0:0:0:
224,312,197801,1,8,1:0:0:0:
80,352,197998,2,0,P|96:288|80:216,1,97.4999955368044,0|4,0:0|3:0,0:0:0:0:
176,160,198390,5,4,3:0:0:0:
272,136,198586,1,8,1:0:0:0:
240,232,198782,1,0,0:0:0:0:
336,208,198978,1,4,3:0:0:0:
208,72,199174,1,0,0:0:0:0:
144,248,199370,1,8,1:0:0:0:
336,304,199566,5,0,0:0:0:0:
336,304,199762,2,0,L|232:304,1,97.4999955368044,4|4,3:0|3:0,0:0:0:0:
80,216,200154,1,8,1:0:0:0:
80,216,200350,2,0,L|184:216,1,97.4999955368044,0|4,0:0|3:0,0:0:0:0:
288,184,200743,6,0,P|320:232|368:264,2,97.4999955368044,0|8|0,0:0|1:0|0:0,0:0:0:0:
168,152,201331,2,0,P|144:112|88:80,2,97.4999955368044,4|4|8,3:0|3:0|1:0,0:0:0:0:
240,328,201919,1,0,0:0:0:0:
240,328,202115,1,4,0:0:0:0:
328,248,202311,1,0,0:0:0:0:
240,168,202507,1,8,1:0:0:0:
152,248,202703,1,0,0:0:0:0:
240,328,202900,5,4,3:0:0:0:
106,204,203096,1,4,3:0:0:0:
240,82,203292,1,8,1:0:0:0:
376,204,203488,1,0,0:0:0:0:
248,208,203684,6,0,P|264:144|296:104,1,97.4999955368044,4|0,0:0|0:0,0:0:0:0:
360,32,204076,1,8,1:0:0:0:
496,32,204272,2,0,P|456:112|440:224,1,194.999991073609,0|4,0:0|3:0,0:0:0:0:
384,352,204860,2,0,L|295:305,1,97.4999955368044,8|0,1:0|0:0,0:0:0:0:
200,256,205252,1,4,0:0:0:0:
104,200,205449,1,0,0:0:0:0:
24,144,205645,2,0,P|112:104|184:160,1,194.999991073609,8|4,1:0|3:0,0:0:0:0:
64,344,206429,5,8,1:0:0:0:
72,208,206625,1,0,0:0:0:0:
72,208,206723,1,0,0:0:0:0:
72,208,206821,1,4,0:0:0:0:
208,256,207017,1,0,0:0:0:0:
248,80,207213,6,0,P|272:128|328:168,1,97.4999955368044,8|0,1:0|0:0,0:0:0:0:
480,240,207605,2,0,P|472:176|432:128,1,97.4999955368044,4|4,3:0|3:0,0:0:0:0:
368,88,207998,1,8,1:0:0:0:
264,64,208194,1,0,0:0:0:0:
160,80,208390,1,4,0:0:0:0:
160,80,208586,1,8,1:0:0:0:
384,280,208782,1,8,1:0:0:0:
384,280,208978,1,4,3:0:0:0:
112,336,209174,6,0,P|104:280|88:232,1,97.4999955368044,0|4,0:0|3:0,0:0:0:0:
56,136,209566,1,8,1:0:0:0:
56,136,209762,2,0,P|120:152|168:168,1,97.4999955368044,0|4,0:0|0:0,0:0:0:0:
296,208,210154,1,0,0:0:0:0:
384,280,210350,5,8,1:0:0:0:
296,208,210547,1,0,0:0:0:0:
480,208,210743,1,4,3:0:0:0:
288,88,210939,1,4,3:0:0:0:
480,208,211135,1,8,1:0:0:0:
144,216,211331,5,0,0:0:0:0:
368,304,211527,1,4,3:0:0:0:
256,280,211723,2,0,L|256:384,2,97.4999955368044,0|8|0,0:0|1:0|0:0,0:0:0:0:
256,88,212311,5,4,3:0:0:0:
256,88,212507,1,4,3:0:0:0:
56,192,212703,2,0,L|152:216,1,97.4999955368044,8|0,1:0|0:0,0:0:0:0:
456,192,213096,2,0,L|360:216,1,97.4999955368044,4|0,0:0|0:0,0:0:0:0:
72,272,213488,5,8,1:0:0:0:
192,208,213684,1,0,0:0:0:0:
56,96,213880,1,4,3:0:0:0:
288,48,214076,2,0,P|320:152|392:224,1,194.999991073609,4|0,3:0|0:0,0:0:0:0:
480,280,214664,5,4,0:0:0:0:
296,360,214860,1,0,0:0:0:0:
112,256,215056,1,8,1:0:0:0:
56,48,215252,2,0,P|184:112|264:248,1,292.499986610413,0|8,0:0|1:0,0:0:0:0:
496,208,216037,5,0,0:0:0:0:
416,152,216233,2,0,L|416:256,1,97.4999955368044,4|0,0:0|0:0,0:0:0:0:
416,352,216625,1,8,1:0:0:0:
416,352,216821,2,0,P|352:288|336:176,1,194.999991073609
104,40,217409,6,0,P|88:104|96:160,1,97.4999955368044,8|0,1:0|0:0,0:0:0:0:
144,248,217801,1,4,0:0:0:0:
256,296,217998,1,0,0:0:0:0:
480,184,218194,2,0,P|400:152|328:72,1,194.999991073609,8|4,1:0|3:0,0:0:0:0:
216,48,218782,5,4,3:0:0:0:
200,160,218978,1,8,1:0:0:0:
104,96,219174,1,0,0:0:0:0:
104,96,219272,1,0,0:0:0:0:
104,96,219370,1,4,0:0:0:0:
64,216,219566,6,0,P|128:232|184:280,1,97.4999955368044,0|8,0:0|1:0,0:0:0:0:
272,328,219958,1,0,0:0:0:0:
432,328,220154,2,0,P|416:248|400:208,1,97.4999955368044,4|4,3:0|3:0,0:0:0:0:
344,112,220547,1,8,1:0:0:0:
192,32,220743,1,0,0:0:0:0:
24,80,220939,1,4,0:0:0:0:
24,80,221135,1,4,0:0:0:0:
168,296,221331,5,0,0:0:0:0:
184,160,221527,2,0,P|224:224|320:296,1,194.999991073609,2|4,0:0|0:0,0:0:0:0:
432,328,222115,1,4,0:0:0:0:
432,328,222311,1,0,0:0:0:0:
256,192,222507,5,4,1:2:0:0:
256,192,222703,1,2,3:0:0:0:
360,136,222899,2,0,B|392:176|384:232,1,97.4999955368044,8|2,1:0|3:0,0:0:0:0:
152,136,223292,2,0,B|120:176|128:232,1,97.4999955368044,0|2,1:0|3:0,0:0:0:0:
368,344,223684,2,0,P|336:304|328:240,1,97.4999955368044,8|2,1:0|3:0,0:0:0:0:
144,344,224076,2,0,P|176:304|184:240,1,97.4999955368044,0|2,1:0|3:0,1:0:0:0:
256,56,224468,1,8,1:0:0:0:
256,328,224664,1,2,3:0:0:0:
256,192,224860,5,0,1:0:0:0:
256,192,225056,1,2,3:0:0:0:
328,168,225252,1,8,1:0:0:0:
184,224,225449,1,2,3:0:0:0:
256,80,225645,5,4,1:2:0:0:
256,304,225841,1,2,3:0:0:0:
136,192,226037,1,8,1:0:0:0:
376,192,226233,1,2,3:0:0:0:
256,192,226429,1,0,1:0:0:0:
256,192,226625,1,2,3:0:0:0:
424,56,227017,5,2,3:0:0:0:
328,32,227213,2,0,P|336:96|368:136,1,97.4999955368044,4|2,1:2|0:0,0:0:0:0:
416,216,227605,2,0,L|352:296,2,97.4999955368044,8|2|0,1:0|3:0|1:0,0:0:0:0:
432,96,228194,2,0,L|512:152,2,97.4999955368044,2|8|2,3:0|1:0|3:0,0:0:0:0:
296,72,228782,5,4,1:2:0:0:
280,184,228978,1,2,3:0:0:0:
168,208,229174,1,8,1:0:0:0:
56,72,229370,2,0,P|88:144|72:256,1,194.999991073609,2|2,3:0|3:0,0:0:0:0:
200,336,229958,5,8,1:0:0:0:
296,240,230154,1,2,3:0:0:0:
200,144,230350,1,0,1:0:0:0:
296,48,230547,1,2,3:0:0:0:
440,48,230743,2,0,P|384:128|376:256,1,194.999991073609,8|0,1:0|1:0,0:0:0:0:
376,320,231331,1,2,3:0:0:0:
376,320,231527,1,8,1:0:0:0:
160,336,231723,5,2,3:0:0:0:
160,336,231821,1,0,0:0:0:0:
160,336,231919,1,4,1:2:0:0:
256,216,232115,1,2,3:0:0:0:
80,192,232311,1,8,1:0:0:0:
144,48,232507,2,0,B|192:144|192:144|288:128,1,194.999991073609,2|2,3:0|3:0,0:0:0:0:
392,104,233096,1,8,1:0:0:0:
232,32,233292,1,2,3:0:0:0:
392,104,233488,1,0,1:0:0:0:
128,160,233684,1,8,1:0:0:0:
256,320,233880,5,8,1:0:0:0:
256,320,234076,2,0,L|256:96,1,194.999991073609,8|8,3:0|3:0,0:0:0:0:
400,192,234664,6,0,L|400:88,2,97.4999955368044,8|0|4,1:0|0:0|1:2,0:0:0:0:
256,192,235252,1,2,3:0:0:0:
128,96,235449,2,0,L|67:172,1,97.4999955368044,8|2,1:0|3:0,0:0:0:0:
384,288,235841,2,0,L|445:212,1,97.4999955368044,4|2,3:0|3:0,0:0:0:0:
216,152,236233,5,8,1:0:0:0:
296,232,236429,1,2,3:0:0:0:
168,328,236625,2,0,P|208:256|208:208,1,97.4999955368044,0|2,0:0|3:0,0:0:0:0:
368,64,237017,2,0,P|328:104|312:144,1,97.4999955368044,8|2,1:0|3:0,0:0:0:0:
296,232,237409,5,4,3:0:0:0:
216,152,237605,1,2,3:0:0:0:
456,248,237801,5,8,1:0:0:0:
56,136,237997,1,2,3:0:0:0:
152,224,238193,1,4,3:0:0:0:
360,160,238390,1,2,3:0:0:0:
256,40,238586,1,8,1:0:0:0:
256,344,238782,1,2,3:0:0:0:
256,192,238978,5,4,3:0:0:0:
256,192,239174,2,0,P|208:256|88:288,1,194.999991073609,2|2,3:0|3:0,0:0:0:0:
80,96,239762,5,4,1:2:0:0:
296,48,239958,2,0,P|352:80|416:88,1,97.4999955368044,2|8,3:0|1:0,0:0:0:0:
464,336,240350,2,0,P|384:256|216:200,1,292.499986610413,2|8,3:0|1:0,0:0:0:0:
40,192,241135,5,0,0:0:0:0:
40,192,241331,1,4,2:0:0:0:
136,88,241527,1,0,0:0:0:0:
136,88,241723,1,8,1:0:0:0:
40,192,241919,2,0,P|96:264|112:368,1,194.999991073609
280,288,242507,5,8,1:0:0:0:
336,128,242703,1,0,0:0:0:0:
384,312,242899,1,0,0:0:0:0:
184,208,243096,1,0,0:0:0:0:
24,344,243292,1,8,1:0:0:0:
424,208,243684,1,0,0:0:0:0:
72,96,244076,1,8,1:0:0:0:
256,48,244272,5,0,0:0:0:0:
256,48,244370,1,0,0:0:0:0:
256,48,244468,1,4,0:0:0:0:
256,152,244664,1,0,0:0:0:0:
136,120,244860,1,8,1:0:0:0:
128,232,245056,2,0,P|208:264|328:264,1,194.999991073609
424,232,245645,1,4,0:0:0:0:
496,152,245841,1,0,0:0:0:0:
304,80,246037,5,4,0:0:0:0:
304,80,246233,1,0,0:0:0:0:
88,280,246625,2,0,B|152:280|184:184|256:192,1,194.999991073609,2|2,0:0|0:0,0:0:0:0:
80,168,247213,1,0,0:0:0:0:
256,296,247409,1,2,0:0:0:0:
424,64,248194,6,0,L|360:64,1,60
288,64,248586,1,0,0:0:0:0:
208,64,248782,1,0,0:0:0:0:
152,144,248978,2,0,L|224:144,1,60
288,144,249370,1,0,0:0:0:0:
368,144,249566,1,0,0:0:0:0:
456,152,249762,2,0,L|424:216,1,60
352,224,250154,2,0,L|292:224,2,60
