osu file format v12

[General]
AudioFilename: .mp3
AudioLeadIn: 0
PreviewTime: 93072
Countdown: 0
SampleSet: Soft
StackLeniency: 0.7
Mode: 0
LetterboxInBreaks: 1
EpilepsyWarning: 1
WidescreenStoryboard: 0

[Editor]
Bookmarks: 23985,47258,70167,93803,115622,143254,166167,189803,211622,238894,262531,285803,309076,332349,354167,381258
DistanceSpacing: 1.2
BeatDivisor: 4
GridSize: 4

[Metadata]
Title:Yuune Zekka, Ryouran no Sai
TitleUnicode:幽音絶花、繚乱ノ彩
Artist:Chata & nayuta
ArtistUnicode:茶太 & nayuta
Creator:sjoy
Version:Replay
Source:Touhou
Tags:Felsic Mirage EastNewSound chenwu eggache0 SelisiPhoenix Kazami Yuuka Gensokyo, Past and Present ~ Flower Land kokuchou usagi kinoko
BeatmapID:295544
BeatmapSetID:114065

[Difficulty]
HPDrainRate:7
CircleSize:4
OverallDifficulty:8
ApproachRate:9
SliderMultiplier:1.8
SliderTickRate:2

[Events]
//Background and Video events
0,0,"bg.jpg",0,0
//Break Periods
2,140545,142290
2,236545,238654
//Storyboard Layer 0 (Background)
//Storyboard Layer 1 (Fail)
//Storyboard Layer 2 (Pass)
//Storyboard Layer 3 (Foreground)
//Storyboard Sound Samples
//Background Colour Transformations
3,100,0,0,0

[TimingPoints]
709,363.636363636364,4,2,2,40,1,0
890,-100,4,2,1,40,0,0
12345,-100,4,2,2,50,0,0
12436,-100,4,2,1,50,0,0
21163,-100,4,2,2,60,0,0
23981,-100,4,2,1,60,0,0
29072,-100,4,2,2,60,0,0
29163,-100,4,2,1,60,0,0
32345,-100,4,2,2,60,0,0
32799,-100,4,2,1,60,0,0
33254,-100,4,2,1,60,0,0
34890,-100,4,2,2,60,0,0
35072,-100,4,2,1,60,0,0
35254,-66.6666666666667,4,2,1,60,0,0
35799,-100,4,2,1,60,0,0
40709,-100,4,2,2,60,0,0
40799,-100,4,2,1,60,0,0
43981,-100,4,2,2,60,0,0
44345,-100,4,2,1,60,0,0
44436,-100,4,2,2,60,0,0
47254,-100,4,2,1,65,0,0
47345,-100,4,2,1,65,0,0
52345,-100,4,2,2,65,0,0
52436,-100,4,2,1,65,0,0
55618,-100,4,2,2,65,0,0
56072,-100,4,2,1,65,0,0
58163,-100,4,2,2,65,0,0
58254,-100,4,2,1,65,0,0
58527,-100,4,2,2,40,0,0
58890,-100,4,2,1,65,0,0
63799,-100,4,2,2,40,0,0
63890,-100,4,2,1,65,0,0
63981,-100,4,2,2,65,0,0
64072,-100,4,2,1,65,0,0
67254,-100,4,2,2,65,0,0
67618,-100,4,2,1,65,0,0
67709,-100,4,2,1,65,0,0
70163,-133.333333333333,4,2,1,70,0,0
70527,-133.333333333333,4,2,2,70,0,0
70709,-133.333333333333,4,2,1,70,0,0
75618,-133.333333333333,4,2,2,70,0,0
75709,-133.333333333333,4,2,1,70,0,0
81254,-133.333333333333,4,2,2,30,0,0
81345,-133.333333333333,4,2,1,70,0,0
81436,-133.333333333333,4,2,2,70,0,0
81527,-133.333333333333,4,2,1,70,0,0
82163,-133.333333333333,4,2,2,70,0,0
82254,-133.333333333333,4,2,1,70,0,0
87072,-133.333333333333,4,2,2,30,0,0
87163,-133.333333333333,4,2,1,70,0,0
87254,-133.333333333333,4,2,2,70,0,0
87345,-133.333333333333,4,2,1,70,0,0
90890,-100,4,2,2,60,0,0
90981,-100,4,2,1,60,0,0
91163,-100,4,2,2,60,0,0
91618,-83.3333333333333,4,2,2,70,0,0
91709,-83.3333333333333,4,2,1,70,0,0
91890,-83.3333333333333,4,2,2,70,0,0
92345,-71.4285714285714,4,2,0,80,0,0
92436,-71.4285714285714,4,2,1,80,0,0
92618,-71.4285714285714,4,2,2,80,0,0
92981,-71.4285714285714,4,2,1,80,0,0
93072,-71.4285714285714,4,2,2,80,0,0
93254,-71.4285714285714,4,2,1,80,0,0
93436,-71.4285714285714,4,2,2,80,0,0
93799,-76.9230769230769,4,2,2,85,0,1
93890,-76.9230769230769,4,2,1,85,0,1
95981,-76.9230769230769,4,2,2,70,0,1
96072,-76.9230769230769,4,2,1,85,0,1
98890,-76.9230769230769,4,2,2,70,0,1
98981,-76.9230769230769,4,2,1,85,0,1
100345,-76.9230769230769,4,2,2,70,0,1
100436,-76.9230769230769,4,2,1,85,0,1
101072,-76.9230769230769,4,2,2,70,0,1
101163,-76.9230769230769,4,2,1,85,0,1
101799,-76.9230769230769,4,2,2,70,0,1
101890,-76.9230769230769,4,2,1,85,0,1
103254,-76.9230769230769,4,2,2,70,0,1
103345,-76.9230769230769,4,2,1,85,0,1
104709,-76.9230769230769,4,2,2,70,0,1
104799,-76.9230769230769,4,2,1,85,0,1
105436,-76.9230769230769,4,2,2,85,0,1
105527,-76.9230769230769,4,2,1,85,0,1
106163,-76.9230769230769,4,2,2,70,0,1
106254,-76.9230769230769,4,2,1,85,0,1
107072,-76.9230769230769,4,2,2,70,0,1
107163,-76.9230769230769,4,2,1,85,0,1
107618,-76.9230769230769,4,2,2,70,0,1
107709,-76.9230769230769,4,2,1,85,0,1
108527,-76.9230769230769,4,2,2,70,0,1
108618,-76.9230769230769,4,2,1,85,0,1
109618,-76.9230769230769,4,2,2,70,0,1
109709,-76.9230769230769,4,2,1,85,0,1
110527,-76.9230769230769,4,2,2,70,0,1
110618,-76.9230769230769,4,2,1,75,0,1
111254,-76.9230769230769,4,2,2,70,0,1
111345,-76.9230769230769,4,2,1,85,0,1
112890,-76.9230769230769,4,2,2,70,0,1
112981,-76.9230769230769,4,2,1,85,0,1
113436,-76.9230769230769,4,2,2,70,0,1
113527,-76.9230769230769,4,2,1,85,0,1
115618,-100,4,2,1,60,0,0
115709,-100,4,2,2,60,0,0
116436,-100,4,2,1,60,0,0
116618,-100,4,2,2,60,0,0
117254,-100,4,2,2,40,0,0
117436,-100,4,2,1,60,0,0
117618,-100,4,2,2,30,0,0
117709,-100,4,2,1,60,0,0
118345,-100,4,2,2,40,0,0
118436,-100,4,2,1,60,0,0
118709,-100,4,2,2,40,0,0
118799,-100,4,2,1,60,0,0
119072,-100,4,2,2,30,0,0
119163,-100,4,2,1,60,0,0
119799,-100,4,2,2,40,0,0
119890,-100,4,2,1,60,0,0
120163,-100,4,2,2,40,0,0
120254,-100,4,2,1,60,0,0
120527,-100,4,2,2,30,0,0
120618,-100,4,2,1,60,0,0
121254,-100,4,2,2,40,0,0
121345,-100,4,2,1,60,0,0
121618,-100,4,2,2,40,0,0
121709,-100,4,2,1,60,0,0
121981,-100,4,2,2,30,0,0
122072,-100,4,2,1,60,0,0
122163,-100,4,2,2,60,0,0
122345,-100,4,2,1,60,0,0
122709,-100,4,2,2,35,0,0
122799,-100,4,2,1,60,0,0
123072,-100,4,2,2,40,0,0
123163,-100,4,2,1,60,0,0
123436,-100,4,2,2,30,0,0
123527,-100,4,2,1,60,0,0
124163,-100,4,2,2,40,0,0
124254,-100,4,2,1,60,0,0
124527,-100,4,2,2,40,0,0
124618,-100,4,2,1,60,0,0
124890,-100,4,2,2,30,0,0
124981,-100,4,2,1,60,0,0
125618,-100,4,2,2,40,0,0
125709,-100,4,2,1,60,0,0
125981,-100,4,2,2,40,0,0
126072,-100,4,2,1,60,0,0
126345,-100,4,2,2,30,0,0
126436,-100,4,2,1,60,0,0
127072,-100,4,2,2,40,0,0
127163,-100,4,2,1,60,0,0
127436,-100,4,2,2,40,0,0
127527,-100,4,2,1,60,0,0
127799,-100,4,2,2,30,0,0
127890,-100,4,2,1,60,0,0
127981,-100,4,2,2,60,0,0
128163,-100,4,2,1,60,0,0
128527,-100,4,2,2,40,0,0
128618,-100,4,2,1,60,0,0
128709,-100,4,2,2,60,0,0
128890,-100,4,2,2,40,0,0
129072,-100,4,2,1,60,0,0
129254,-100,4,2,2,30,0,0
129345,-100,4,2,1,60,0,0
129981,-100,4,2,2,40,0,0
130072,-100,4,2,1,60,0,0
130345,-100,4,2,2,40,0,0
130436,-100,4,2,1,60,0,0
130709,-100,4,2,2,30,0,0
130799,-100,4,2,1,60,0,0
131436,-100,4,2,2,40,0,0
131527,-100,4,2,1,60,0,0
131799,-100,4,2,2,40,0,0
131890,-100,4,2,1,60,0,0
132163,-100,4,2,2,30,0,0
132254,-100,4,2,1,60,0,0
132890,-100,4,2,2,40,0,0
132981,-100,4,2,1,60,0,0
133254,-100,4,2,2,40,0,0
133345,-100,4,2,1,60,0,0
133618,-100,4,2,2,30,0,0
133709,-100,4,2,1,60,0,0
133799,-100,4,2,2,60,0,0
133981,-100,4,2,1,60,0,0
134345,-100,4,2,2,35,0,0
134436,-100,4,2,1,60,0,0
134709,-100,4,2,2,40,0,0
134799,-100,4,2,1,60,0,0
135072,-100,4,2,2,30,0,0
135163,-100,4,2,1,60,0,0
135799,-100,4,2,2,40,0,0
135890,-100,4,2,1,60,0,0
136163,-100,4,2,2,40,0,0
136254,-100,4,2,1,60,0,0
136527,-100,4,2,2,30,0,0
136618,-100,4,2,1,60,0,0
137254,-100,4,2,2,40,0,0
137345,-100,4,2,1,60,0,0
137618,-100,4,2,2,40,0,0
137709,-100,4,2,1,60,0,0
137981,-100,4,2,2,30,0,0
138072,-100,4,2,1,60,0,0
138709,-100,4,2,2,40,0,0
138799,-100,4,2,1,60,0,0
139072,-100,4,2,2,40,0,0
139163,-100,4,2,1,60,0,0
139436,-100,4,2,2,30,0,0
139527,-100,4,2,1,60,0,0
139618,-100,4,2,2,60,0,0
139799,-100,4,2,1,60,0,0
140163,-100,4,2,2,35,0,0
140254,-100,4,2,2,60,0,0
142890,-133.333333333333,4,2,2,60,0,0
143254,-100,4,2,1,60,0,0
148163,-100,4,2,2,30,0,0
148254,-100,4,2,1,60,0,0
148345,-100,4,2,2,60,0,0
148527,-100,4,2,1,60,0,0
151709,-100,4,2,2,60,0,0
151981,-100,4,2,1,60,0,0
153981,-100,4,2,2,30,0,0
154072,-100,4,2,1,60,0,0
154163,-100,4,2,2,60,0,0
154345,-100,4,2,1,60,0,0
154527,-66.6666666666667,4,2,1,60,0,0
154890,-100,4,2,1,60,0,0
159799,-100,4,2,2,30,0,0
159890,-100,4,2,1,60,0,0
159981,-100,4,2,2,60,0,0
160163,-100,4,2,1,60,0,0
165618,-100,4,2,2,30,0,0
165709,-100,4,2,1,60,0,0
166527,-133.333333333333,4,2,2,60,0,0
166709,-133.333333333333,4,2,2,40,0,0
166890,-133.333333333333,4,2,1,60,0,0
167072,-133.333333333333,4,2,2,30,0,0
167163,-133.333333333333,4,2,1,60,0,0
167799,-133.333333333333,4,2,2,40,0,0
167890,-133.333333333333,4,2,1,60,0,0
168163,-133.333333333333,4,2,2,40,0,0
168345,-133.333333333333,4,2,1,60,0,0
168527,-133.333333333333,4,2,2,30,0,0
168618,-133.333333333333,4,2,1,60,0,0
169254,-133.333333333333,4,2,2,40,0,0
169345,-133.333333333333,4,2,1,60,0,0
169618,-133.333333333333,4,2,2,40,0,0
169709,-133.333333333333,4,2,1,60,0,0
169981,-133.333333333333,4,2,2,30,0,0
170072,-133.333333333333,4,2,1,60,0,0
170709,-133.333333333333,4,2,2,40,0,0
170799,-133.333333333333,4,2,1,60,0,0
171072,-133.333333333333,4,2,2,60,0,0
171163,-133.333333333333,4,2,1,60,0,0
171618,-133.333333333333,4,2,2,60,0,0
171799,-133.333333333333,4,2,1,60,0,0
172163,-133.333333333333,4,2,2,35,0,0
172254,-133.333333333333,4,2,1,60,0,0
172527,-133.333333333333,4,2,2,40,0,0
172709,-133.333333333333,4,2,1,60,0,0
172890,-133.333333333333,4,2,2,30,0,0
172981,-133.333333333333,4,2,1,60,0,0
173618,-133.333333333333,4,2,2,40,0,0
173709,-133.333333333333,4,2,1,60,0,0
173981,-133.333333333333,4,2,2,40,0,0
174072,-133.333333333333,4,2,1,60,0,0
174345,-133.333333333333,4,2,2,30,0,0
174436,-133.333333333333,4,2,1,60,0,0
175072,-133.333333333333,4,2,2,40,0,0
175163,-133.333333333333,4,2,1,60,0,0
175436,-133.333333333333,4,2,2,40,0,0
175527,-133.333333333333,4,2,1,60,0,0
175799,-133.333333333333,4,2,2,30,0,0
175981,-133.333333333333,4,2,1,60,0,0
176527,-133.333333333333,4,2,2,40,0,0
176618,-133.333333333333,4,2,1,60,0,0
176890,-133.333333333333,4,2,2,40,0,0
176981,-133.333333333333,4,2,1,60,0,0
177254,-133.333333333333,4,2,2,30,0,0
177345,-133.333333333333,4,2,1,60,0,0
177436,-133.333333333333,4,2,2,60,0,0
177618,-133.333333333333,4,2,1,60,0,0
177981,-133.333333333333,4,2,2,35,0,0
178163,-133.333333333333,4,2,2,60,0,0
178345,-133.333333333333,4,2,2,40,0,0
178527,-133.333333333333,4,2,1,60,0,0
178709,-133.333333333333,4,2,2,40,0,0
178799,-133.333333333333,4,2,1,60,0,0
179436,-133.333333333333,4,2,2,40,0,0
179527,-133.333333333333,4,2,1,60,0,0
179799,-133.333333333333,4,2,2,40,0,0
179890,-133.333333333333,4,2,1,60,0,0
180163,-133.333333333333,4,2,2,30,0,0
180254,-133.333333333333,4,2,1,60,0,0
180890,-133.333333333333,4,2,2,40,0,0
180981,-133.333333333333,4,2,1,60,0,0
181254,-133.333333333333,4,2,2,40,0,0
181345,-133.333333333333,4,2,1,60,0,0
181618,-133.333333333333,4,2,2,30,0,0
181709,-133.333333333333,4,2,1,60,0,0
182345,-133.333333333333,4,2,2,40,0,0
182436,-133.333333333333,4,2,1,60,0,0
182709,-133.333333333333,4,2,2,40,0,0
182799,-133.333333333333,4,2,1,60,0,0
183254,-133.333333333333,4,2,2,60,0,0
183436,-133.333333333333,4,2,1,60,0,0
183799,-133.333333333333,4,2,2,35,0,0
183890,-133.333333333333,4,2,1,60,0,0
184163,-133.333333333333,4,2,2,40,0,0
184254,-133.333333333333,4,2,1,60,0,0
184527,-133.333333333333,4,2,2,30,0,0
184618,-133.333333333333,4,2,1,60,0,0
185254,-133.333333333333,4,2,2,40,0,0
185345,-133.333333333333,4,2,1,60,0,0
185618,-133.333333333333,4,2,2,40,0,0
185799,-133.333333333333,4,2,1,60,0,0
185981,-133.333333333333,4,2,2,30,0,186072
186163,-133.333333333333,4,2,1,60,0,0
186709,-133.333333333333,4,2,2,40,0,0
186799,-133.333333333333,4,2,1,60,0,0
186890,-111.111111111111,4,2,2,60,0,0
187072,-111.111111111111,4,2,2,40,0,0
187254,-111.111111111111,4,2,1,60,0,0
187436,-111.111111111111,4,2,2,30,0,0
187618,-90.9090909090909,4,2,2,60,0,0
187799,-90.9090909090909,4,2,1,60,0,0
188163,-90.9090909090909,4,2,2,40,0,0
188345,-76.9230769230769,4,2,2,60,0,0
188527,-76.9230769230769,4,2,2,40,0,0
188709,-76.9230769230769,4,2,1,60,0,0
188890,-76.9230769230769,4,2,2,30,0,0
188981,-76.9230769230769,4,2,1,60,0,0
189072,-76.9230769230769,4,2,2,60,0,0
189254,-76.9230769230769,4,2,1,60,0,0
189436,-76.9230769230769,4,2,2,60,0,0
189618,-76.9230769230769,4,2,2,35,0,0
189799,-71.4285714285714,4,2,2,70,0,1
190072,-71.4285714285714,4,2,1,70,0,1
190345,-71.4285714285714,4,2,2,50,0,1
190527,-71.4285714285714,4,2,2,70,0,1
190618,-71.4285714285714,4,2,1,70,0,1
191072,-71.4285714285714,4,2,2,70,0,1
191163,-71.4285714285714,4,2,1,70,0,1
191436,-71.4285714285714,4,2,2,70,0,1
191618,-71.4285714285714,4,2,1,70,0,1
191799,-71.4285714285714,4,2,2,50,0,1
191981,-71.4285714285714,4,2,2,70,0,1
192072,-71.4285714285714,4,2,1,70,0,1
192527,-71.4285714285714,4,2,2,70,0,1
192618,-71.4285714285714,4,2,1,70,0,1
192890,-71.4285714285714,4,2,2,70,0,1
192981,-71.4285714285714,4,2,1,70,0,1
193254,-71.4285714285714,4,2,2,50,0,1
193345,-71.4285714285714,4,2,2,70,0,1
193527,-71.4285714285714,4,2,1,70,0,1
193981,-71.4285714285714,4,2,2,70,0,1
194072,-71.4285714285714,4,2,1,70,0,1
194345,-71.4285714285714,4,2,2,70,0,1
194436,-71.4285714285714,4,2,1,70,0,1
194709,-71.4285714285714,4,2,2,50,0,1
194799,-71.4285714285714,4,2,1,70,0,1
194890,-71.4285714285714,4,2,2,70,0,1
195072,-71.4285714285714,4,2,1,70,0,1
195436,-71.4285714285714,4,2,2,70,0,1
195527,-71.4285714285714,4,2,1,70,0,1
195799,-71.4285714285714,4,2,2,70,0,1
195890,-71.4285714285714,4,2,1,70,0,1
196163,-71.4285714285714,4,2,2,50,0,1
196345,-71.4285714285714,4,2,2,70,0,1
196436,-71.4285714285714,4,2,1,70,0,1
196890,-71.4285714285714,4,2,2,70,0,1
196981,-71.4285714285714,4,2,1,70,0,1
197254,-71.4285714285714,4,2,2,70,0,1
197345,-71.4285714285714,4,2,1,70,0,1
197618,-71.4285714285714,4,2,2,50,0,1
197799,-71.4285714285714,4,2,2,70,0,1
197890,-71.4285714285714,4,2,1,70,0,1
198345,-71.4285714285714,4,2,2,70,0,1
198436,-71.4285714285714,4,2,1,70,0,1
198709,-71.4285714285714,4,2,2,70,0,1
198799,-71.4285714285714,4,2,1,70,0,1
199072,-71.4285714285714,4,2,2,50,0,1
199254,-71.4285714285714,4,2,2,70,0,1
199345,-71.4285714285714,4,2,1,70,0,1
199799,-71.4285714285714,4,2,2,70,0,1
199981,-71.4285714285714,4,2,1,70,0,1
200163,-71.4285714285714,4,2,2,70,0,1
200254,-71.4285714285714,4,2,1,70,0,1
200527,-71.4285714285714,4,2,2,50,0,1
200618,-71.4285714285714,4,2,1,70,0,1
200709,-71.4285714285714,4,2,2,70,0,1
200890,-71.4285714285714,4,2,1,70,0,1
201254,-71.4285714285714,4,2,2,70,0,1
201345,-71.4285714285714,4,2,1,70,0,1
201436,-71.4285714285714,4,2,2,70,0,1
201709,-71.4285714285714,4,2,1,70,0,1
201981,-71.4285714285714,4,2,2,50,0,1
202163,-71.4285714285714,4,2,2,70,0,1
202254,-71.4285714285714,4,2,1,70,0,1
202709,-71.4285714285714,4,2,2,70,0,1
202799,-71.4285714285714,4,2,1,70,0,1
203072,-71.4285714285714,4,2,2,70,0,1
203163,-71.4285714285714,4,2,1,70,0,1
203436,-71.4285714285714,4,2,2,50,0,1
203618,-71.4285714285714,4,2,2,70,0,1
203709,-71.4285714285714,4,2,1,70,0,1
204163,-71.4285714285714,4,2,2,70,0,1
204254,-71.4285714285714,4,2,1,70,0,1
204527,-71.4285714285714,4,2,2,70,0,1
204618,-71.4285714285714,4,2,1,70,0,1
204890,-71.4285714285714,4,2,2,50,0,1
205072,-71.4285714285714,4,2,2,70,0,1
205163,-71.4285714285714,4,2,1,70,0,1
205618,-71.4285714285714,4,2,2,70,0,1
205709,-71.4285714285714,4,2,1,70,0,1
205981,-71.4285714285714,4,2,2,70,0,1
206072,-71.4285714285714,4,2,1,70,0,1
206527,-71.4285714285714,4,2,2,70,0,1
206709,-71.4285714285714,4,2,1,70,0,1
207072,-71.4285714285714,4,2,2,70,0,1
207163,-71.4285714285714,4,2,1,70,0,1
207436,-71.4285714285714,4,2,2,70,0,1
207618,-71.4285714285714,4,2,1,70,0,1
207799,-71.4285714285714,4,2,2,50,0,1
207981,-71.4285714285714,4,2,2,70,0,1
208072,-71.4285714285714,4,2,1,70,0,1
208527,-71.4285714285714,4,2,2,70,0,1
208618,-71.4285714285714,4,2,1,70,0,1
208890,-71.4285714285714,4,2,2,70,0,1
208981,-71.4285714285714,4,2,1,70,0,1
209254,-71.4285714285714,4,2,2,50,0,1
209436,-71.4285714285714,4,2,2,70,0,1
209527,-71.4285714285714,4,2,1,70,0,1
209981,-71.4285714285714,4,2,2,70,0,1
210072,-71.4285714285714,4,2,1,70,0,1
210345,-71.4285714285714,4,2,2,70,0,1
210436,-71.4285714285714,4,2,1,70,0,1
210709,-71.4285714285714,4,2,2,50,0,1
210890,-71.4285714285714,4,2,2,70,0,1
210981,-71.4285714285714,4,2,1,70,0,1
211436,-71.4285714285714,4,2,2,70,0,1
211618,-100,4,2,1,60,0,0
211709,-100,4,2,2,60,0,0
212436,-100,4,2,1,60,0,0
212618,-100,4,2,2,60,0,0
213254,-100,4,2,2,40,0,0
213436,-100,4,2,1,60,0,0
213618,-100,4,2,2,30,0,0
213709,-100,4,2,1,60,0,0
214345,-100,4,2,2,40,0,0
214436,-100,4,2,1,60,0,0
214709,-100,4,2,2,40,0,0
214799,-100,4,2,1,60,0,0
215072,-100,4,2,2,30,0,0
215163,-100,4,2,1,60,0,0
215799,-100,4,2,2,40,0,0
215890,-100,4,2,1,60,0,0
216163,-100,4,2,2,30,0,0
216254,-100,4,2,1,60,0,0
216527,-100,4,2,2,30,0,0
216618,-100,4,2,1,60,0,0
217254,-100,4,2,2,40,0,0
217345,-100,4,2,1,60,0,0
217618,-100,4,2,2,40,0,0
217709,-100,4,2,1,60,0,0
217981,-100,4,2,2,30,0,0
218072,-100,4,2,1,60,0,0
218163,-100,4,2,2,60,0,0
218345,-100,4,2,1,60,0,0
218709,-100,4,2,2,35,0,0
218799,-100,4,2,1,60,0,0
219072,-100,4,2,2,40,0,0
219163,-100,4,2,1,60,0,0
219436,-100,4,2,2,30,0,0
219527,-100,4,2,1,60,0,0
220163,-100,4,2,2,40,0,0
220254,-100,4,2,1,60,0,0
220527,-100,4,2,2,40,0,0
220618,-100,4,2,1,60,0,0
220890,-100,4,2,2,30,0,0
220981,-100,4,2,1,60,0,0
221618,-100,4,2,2,40,0,0
221709,-100,4,2,1,60,0,0
221981,-100,4,2,2,40,0,0
222072,-100,4,2,1,60,0,0
222345,-100,4,2,2,30,0,0
222436,-100,4,2,1,60,0,0
223072,-100,4,2,2,40,0,0
223163,-100,4,2,1,60,0,0
223436,-100,4,2,2,40,0,0
223527,-100,4,2,1,60,0,0
223799,-100,4,2,2,30,0,0
223890,-100,4,2,1,60,0,0
223981,-100,4,2,2,50,0,0
224072,-100,4,2,1,60,0,0
224527,-100,4,2,2,40,0,0
224618,-100,4,2,1,60,0,0
224709,-100,4,2,2,60,0,0
224890,-100,4,2,2,40,0,0
224981,-100,4,2,1,60,0,0
225254,-100,4,2,2,30,0,0
225345,-100,4,2,1,60,0,0
225981,-100,4,2,2,40,0,0
226072,-100,4,2,1,60,0,0
226345,-100,4,2,2,40,0,0
226436,-100,4,2,1,60,0,0
226709,-100,4,2,2,30,0,0
226799,-100,4,2,1,60,0,0
227436,-100,4,2,2,40,0,0
227527,-100,4,2,1,60,0,0
227799,-100,4,2,2,40,0,0
227890,-100,4,2,1,60,0,0
228163,-100,4,2,2,30,0,0
228254,-100,4,2,1,60,0,0
228890,-100,4,2,2,40,0,0
228981,-100,4,2,1,60,0,0
229254,-100,4,2,2,40,0,0
229436,-100,4,2,1,60,0,0
229618,-100,4,2,2,30,0,0
229709,-100,4,2,1,60,0,0
229799,-100,4,2,2,60,0,0
229981,-100,4,2,1,60,0,0
230345,-100,4,2,2,35,0,0
230436,-100,4,2,1,60,0,0
230709,-100,4,2,2,40,0,0
230799,-100,4,2,1,60,0,0
231072,-100,4,2,2,30,0,0
231163,-100,4,2,1,60,0,0
231799,-100,4,2,2,40,0,0
231981,-71.4285714285714,4,2,1,60,0,0
232163,-71.4285714285714,4,2,2,40,0,0
232345,-71.4285714285714,4,2,1,60,0,0
232527,-100,4,2,2,30,0,0
232618,-100,4,2,1,60,0,0
233254,-100,4,2,2,40,0,0
233345,-100,4,2,1,60,0,0
233618,-100,4,2,2,40,0,0
233709,-100,4,2,1,60,0,0
233981,-100,4,2,1,30,0,0
234072,-100,4,2,1,60,0,0
234709,-100,4,2,2,40,0,0
234799,-100,4,2,1,60,0,0
235072,-100,4,2,2,40,0,0
235163,-100,4,2,1,60,0,0
235436,-100,4,2,2,30,0,0
235527,-100,4,2,1,60,0,0
235618,-100,4,2,2,50,0,0
235799,-100,4,2,1,60,0,0
236163,-100,4,2,2,40,0,0
236345,-100,4,2,2,60,0,0
238890,-133.333333333333,4,2,2,50,0,0
239345,-133.333333333333,4,2,1,55,0,0
239709,-133.333333333333,4,2,2,50,0,0
239890,-133.333333333333,4,2,1,55,0,0
240345,-133.333333333333,4,2,2,50,0,0
240436,-133.333333333333,4,2,1,55,0,0
240709,-133.333333333333,4,2,2,50,0,0
240799,-133.333333333333,4,2,1,55,0,0
241254,-133.333333333333,4,2,2,50,0,0
241345,-133.333333333333,4,2,1,55,0,0
242345,-133.333333333333,4,2,2,50,0,0
242436,-133.333333333333,4,2,1,55,0,0
242890,-133.333333333333,4,2,2,50,0,0
242981,-133.333333333333,4,2,1,55,0,0
243618,-133.333333333333,4,2,2,50,0,0
243709,-133.333333333333,4,2,1,55,0,0
244709,-133.333333333333,4,2,2,50,0,0
244799,-133.333333333333,4,2,1,55,0,0
246163,-133.333333333333,4,2,2,50,0,0
246254,-133.333333333333,4,2,1,55,0,0
246527,-133.333333333333,4,2,2,50,0,0
246618,-133.333333333333,4,2,1,55,0,0
247072,-133.333333333333,4,2,2,50,0,0
247163,-133.333333333333,4,2,1,55,0,0
247981,-133.333333333333,4,2,2,50,0,0
248072,-133.333333333333,4,2,1,55,0,0
250890,-117.647058823529,4,2,2,60,0,0
250981,-117.647058823529,4,2,1,60,0,0
255981,-117.647058823529,4,2,2,50,0,0
256072,-117.647058823529,4,2,1,60,0,0
259618,-117.647058823529,4,2,2,60,0,0
259709,-117.647058823529,4,2,1,60,0,0
260345,-117.647058823529,4,2,2,60,0,0
260436,-117.647058823529,4,2,1,60,0,0
261072,-117.647058823529,4,2,2,60,0,0
261163,-117.647058823529,4,2,1,60,0,0
261799,-117.647058823529,4,2,2,50,0,0
261890,-117.647058823529,4,2,1,60,0,0
262527,-166.666666666667,4,2,1,60,0,0
262618,-166.666666666667,4,2,3,50,0,0
274163,-166.666666666667,4,2,1,60,0,0
274527,-166.666666666667,4,2,3,50,0,0
281436,-166.666666666667,4,2,1,70,0,0
285709,-166.666666666667,4,2,3,5,0,0
285799,-100,4,2,3,70,0,0
285890,-100,4,2,2,70,0,0
288709,-100,4,2,2,60,0,0
289618,-100,4,2,2,50,0,0
290163,-100,4,2,1,70,0,0
290254,-100,4,2,2,40,0,0
290890,-100,4,2,2,50,0,0
291618,-100,4,2,2,70,0,0
294527,-100,4,2,2,60,0,0
295618,-100,4,2,2,50,0,0
297436,-100,4,2,2,50,0,0
297527,-100,4,2,2,60,0,0
300345,-100,4,2,2,60,0,0
301709,-100,4,2,1,50,0,0
303072,-100,4,2,0,50,0,0
303254,-100,4,2,2,50,0,0
306163,-90.9090909090909,4,2,2,40,0,0
306345,-100,4,2,2,5,0,0
306527,-83.3333333333333,4,2,2,50,0,0
306709,-100,4,2,2,5,0,0
306890,-76.9230769230769,4,2,2,60,0,0
307072,-100,4,2,2,5,0,0
307254,-71.4285714285714,4,2,2,70,0,0
307436,-100,4,2,1,5,0,0
307618,-100,4,2,2,70,0,0
307799,-100,4,2,2,60,0,0
308072,-100,4,2,1,50,0,0
308163,-100,4,2,1,60,0,0
308345,-66.6666666666667,4,2,1,70,0,0
308709,-66.6666666666667,4,2,1,100,0,0
308799,-66.6666666666667,4,2,1,5,0,0
308890,-66.6666666666667,4,2,1,100,0,0
309072,-66.6666666666667,4,2,2,70,0,1
309436,-66.6666666666667,4,2,1,70,0,1
309527,-66.6666666666667,4,2,1,70,0,1
314072,-66.6666666666667,4,2,1,60,0,1
314163,-66.6666666666667,4,2,1,80,0,1
314618,-66.6666666666667,4,2,1,60,0,1
314890,-66.6666666666667,4,2,1,70,0,1
325709,-66.6666666666667,4,2,1,60,0,1
325799,-66.6666666666667,4,2,1,80,0,1
326254,-66.6666666666667,4,2,1,40,0,1
326527,-66.6666666666667,4,2,1,70,0,1
329436,-66.6666666666667,4,2,2,70,0,1
329527,-66.6666666666667,4,2,1,70,0,1
330890,-66.6666666666667,4,2,2,80,0,0
330981,-66.6666666666667,4,2,1,80,0,0
332345,-66.6666666666667,4,2,2,70,0,1
332709,-66.6666666666667,4,2,1,70,0,1
332890,-66.6666666666667,4,2,2,50,0,1
332981,-66.6666666666667,4,2,1,70,0,1
333072,-66.6666666666667,4,2,2,70,0,1
333254,-66.6666666666667,4,2,1,70,0,1
333618,-66.6666666666667,4,2,2,70,0,1
333709,-66.6666666666667,4,2,1,70,0,1
333981,-66.6666666666667,4,2,2,70,0,1
334072,-66.6666666666667,4,2,1,70,0,1
334345,-66.6666666666667,4,2,2,50,0,1
334527,-66.6666666666667,4,2,2,70,0,1
334618,-66.6666666666667,4,2,1,70,0,1
335072,-66.6666666666667,4,2,2,70,0,1
335163,-66.6666666666667,4,2,1,70,0,1
335436,-66.6666666666667,4,2,2,70,0,1
335527,-66.6666666666667,4,2,1,70,0,1
335799,-66.6666666666667,4,2,2,50,0,1
335890,-66.6666666666667,4,2,2,70,0,1
336072,-66.6666666666667,4,2,1,70,0,1
336527,-66.6666666666667,4,2,2,70,0,1
336618,-66.6666666666667,4,2,1,70,0,1
336890,-66.6666666666667,4,2,2,70,0,1
336981,-66.6666666666667,4,2,1,70,0,1
337436,-66.6666666666667,4,2,2,70,0,1
337618,-66.6666666666667,4,2,1,70,0,1
337981,-66.6666666666667,4,2,2,70,0,1
338072,-66.6666666666667,4,2,1,70,0,1
338345,-66.6666666666667,4,2,2,70,0,1
338436,-66.6666666666667,4,2,1,70,0,1
338709,-66.6666666666667,4,2,2,50,0,1
338799,-66.6666666666667,4,2,1,70,0,1
338890,-66.6666666666667,4,2,2,70,0,1
339072,-66.6666666666667,4,2,1,70,0,1
339436,-66.6666666666667,4,2,2,70,0,1
339527,-66.6666666666667,4,2,1,70,0,1
339799,-66.6666666666667,4,2,2,70,0,1
339890,-66.6666666666667,4,2,1,70,0,1
340163,-66.6666666666667,4,2,2,50,0,1
340345,-66.6666666666667,4,2,2,70,0,1
340436,-66.6666666666667,4,2,1,70,0,1
340890,-66.6666666666667,4,2,2,70,0,1
340981,-66.6666666666667,4,2,1,70,0,1
341254,-66.6666666666667,4,2,2,70,0,1
341345,-66.6666666666667,4,2,1,70,0,1
341618,-66.6666666666667,4,2,2,50,0,1
341709,-66.6666666666667,4,2,1,70,0,1
341799,-66.6666666666667,4,2,2,70,0,1
341890,-66.6666666666667,4,2,1,70,0,1
342345,-66.6666666666667,4,2,2,70,0,1
342436,-66.6666666666667,4,2,1,70,0,1
342709,-66.6666666666667,4,2,2,70,0,1
342799,-66.6666666666667,4,2,1,70,0,1
343254,-66.6666666666667,4,2,2,70,0,1
343436,-66.6666666666667,4,2,1,70,0,1
343799,-66.6666666666667,4,2,2,70,0,1
343890,-66.6666666666667,4,2,1,70,0,1
344163,-66.6666666666667,4,2,2,70,0,1
344254,-66.6666666666667,4,2,1,70,0,1
344527,-66.6666666666667,4,2,2,50,0,1
344618,-66.6666666666667,4,2,1,70,0,1
344709,-66.6666666666667,4,2,2,70,0,1
344890,-66.6666666666667,4,2,1,70,0,1
345254,-66.6666666666667,4,2,2,70,0,1
345345,-66.6666666666667,4,2,1,70,0,1
345618,-66.6666666666667,4,2,2,70,0,1
345709,-66.6666666666667,4,2,1,70,0,1
345981,-66.6666666666667,4,2,2,50,0,1
346163,-66.6666666666667,4,2,2,70,0,1
346254,-66.6666666666667,4,2,1,70,0,1
346709,-66.6666666666667,4,2,2,70,0,1
346799,-66.6666666666667,4,2,1,70,0,1
347072,-66.6666666666667,4,2,2,70,0,1
347163,-66.6666666666667,4,2,1,70,0,1
347436,-66.6666666666667,4,2,2,50,0,1
347618,-66.6666666666667,4,2,2,70,0,1
347709,-66.6666666666667,4,2,1,70,0,1
348163,-66.6666666666667,4,2,2,70,0,1
348254,-66.6666666666667,4,2,1,70,0,1
348527,-66.6666666666667,4,2,2,70,0,1
348618,-66.6666666666667,4,2,1,70,0,1
349072,-66.6666666666667,4,2,2,70,0,1
349254,-66.6666666666667,4,2,1,70,0,1
349618,-66.6666666666667,4,2,2,70,0,1
349709,-66.6666666666667,4,2,1,70,0,1
349981,-66.6666666666667,4,2,2,70,0,1
350072,-66.6666666666667,4,2,1,70,0,1
350345,-66.6666666666667,4,2,2,50,0,1
350436,-66.6666666666667,4,2,1,70,0,1
350527,-66.6666666666667,4,2,2,70,0,1
350709,-66.6666666666667,4,2,1,70,0,1
351072,-66.6666666666667,4,2,2,70,0,1
351163,-66.6666666666667,4,2,1,70,0,1
351436,-66.6666666666667,4,2,2,70,0,1
351527,-66.6666666666667,4,2,1,70,0,1
351799,-66.6666666666667,4,2,2,50,0,1
351981,-66.6666666666667,4,2,2,70,0,1
352072,-66.6666666666667,4,2,1,70,0,1
352527,-66.6666666666667,4,2,2,70,0,1
352618,-66.6666666666667,4,2,1,70,0,1
352890,-66.6666666666667,4,2,2,70,0,1
352981,-66.6666666666667,4,2,1,70,0,1
353254,-66.6666666666667,4,2,2,50,0,1
353436,-66.6666666666667,4,2,2,70,0,1
353527,-66.6666666666667,4,2,1,70,0,1
353981,-66.6666666666667,4,2,2,70,0,1
354163,-100,4,2,1,60,0,0
354254,-100,4,2,2,60,0,0
354981,-100,4,2,1,60,0,0
355163,-100,4,2,2,60,0,0
355799,-100,4,2,2,40,0,0
355981,-100,4,2,1,60,0,0
356163,-100,4,2,2,30,0,0
356254,-100,4,2,1,60,0,0
356890,-100,4,2,2,40,0,0
356981,-100,4,2,1,60,0,0
357254,-100,4,2,2,40,0,0
357345,-100,4,2,1,60,0,0
357618,-100,4,2,2,30,0,0
357709,-100,4,2,1,60,0,0
358345,-100,4,2,2,40,0,0
358436,-100,4,2,1,60,0,0
358709,-100,4,2,2,40,0,0
358799,-100,4,2,1,60,0,0
359072,-100,4,2,2,30,0,0
359163,-100,4,2,1,60,0,0
359799,-100,4,2,2,40,0,0
359890,-100,4,2,1,60,0,0
360163,-100,4,2,2,40,0,0
360254,-100,4,2,1,60,0,0
360527,-100,4,2,2,30,0,0
360618,-100,4,2,1,60,0,0
360709,-100,4,2,2,60,0,0
360890,-100,4,2,1,60,0,0
361254,-100,4,2,2,35,0,0
361345,-100,4,2,1,60,0,0
361618,-100,4,2,2,40,0,0
361709,-100,4,2,1,60,0,0
361981,-100,4,2,2,30,0,0
362072,-100,4,2,1,60,0,0
362709,-100,4,2,2,40,0,0
362799,-100,4,2,1,60,0,0
363072,-100,4,2,2,40,0,0
363163,-100,4,2,1,60,0,0
363436,-100,4,2,2,30,0,0
363527,-100,4,2,1,60,0,0
364163,-100,4,2,2,40,0,0
364254,-100,4,2,1,60,0,0
364527,-100,4,2,2,40,0,0
364618,-100,4,2,1,60,0,0
364890,-100,4,2,2,30,0,0
364981,-100,4,2,1,60,0,0
365618,-100,4,2,2,40,0,0
365709,-100,4,2,1,60,0,0
365981,-100,4,2,2,40,0,0
366163,-100,4,2,1,60,0,0
366345,-100,4,2,2,30,0,0
366436,-100,4,2,1,60,0,0
366527,-100,4,2,2,60,0,0
366709,-100,4,2,1,60,0,0
367072,-100,4,2,2,35,0,0
367254,-100,4,2,2,60,0,0
367436,-100,4,2,2,40,0,0
367618,-100,4,2,1,60,0,0
367799,-100,4,2,2,30,0,0
367890,-100,4,2,1,60,0,0
368527,-100,4,2,2,40,0,0
368618,-100,4,2,1,60,0,0
368890,-100,4,2,2,40,0,0
368981,-100,4,2,1,60,0,0
369254,-100,4,2,2,30,0,0
369345,-100,4,2,1,60,0,0
369981,-100,4,2,2,40,0,0
370072,-100,4,2,1,60,0,0
370345,-100,4,2,2,40,0,0
370436,-100,4,2,1,60,0,0
370709,-100,4,2,2,30,0,0
370799,-100,4,2,1,60,0,0
371436,-100,4,2,2,40,0,0
371527,-100,4,2,1,60,0,0
371799,-100,4,2,2,40,0,0
371890,-100,4,2,1,60,0,0
372163,-100,4,2,2,30,0,0
372254,-100,4,2,1,60,0,0
372345,-100,4,2,2,60,0,0
372527,-100,4,2,1,60,0,0
372890,-100,4,2,2,35,0,0
372981,-100,4,2,1,60,0,0
373254,-100,4,2,2,40,0,0
373345,-100,4,2,1,60,0,0
373618,-100,4,2,2,30,0,0
373709,-100,4,2,1,60,0,0
374345,-100,4,2,2,40,0,0
374436,-100,4,2,1,60,0,0
374709,-100,4,2,2,40,0,0
374799,-100,4,2,1,60,0,0
375072,-100,4,2,2,30,0,0
375163,-100,4,2,1,60,0,0
375799,-100,4,2,2,40,0,0
375981,-100,4,2,1,60,0,0
378890,-100,4,2,2,60,0,0
379072,-100,4,2,1,40,0,0

[Colours]
Combo1 : 208,208,208
Combo2 : 160,205,133
Combo3 : 233,114,122
Combo4 : 107,184,167
Combo5 : 113,113,113
SliderBorder : 192,192,192

[HitObjects]
296,32,709,54,0,P|346:38|381:62,1,90,4|0,0:0|0:0,0:0:0:0:
442,148,1073,1,0,0:0:0:0:
344,340,1436,2,0,P|336:286|307:252,1,90
236,332,1799,1,0,0:0:0:0:
236,332,1981,2,0,P|148:348|80:276,1,180
280,192,2527,6,0,L|283:102,1,90
332,248,2891,2,0,L|328:337,1,90,0|8,0:0|0:0,0:0:0:0:
356,168,3254,2,0,L|359:78,1,90
412,224,3618,54,0,L|408:313,2,90,8|0|0,0:0|0:0|0:0,0:0:0:0:
272,84,4345,2,0,P|225:77|176:87,1,90,0|0,0:0|0:0,0:0:0:0:
95,147,4709,1,0,0:0:0:0:
83,254,4890,2,0,P|127:261|171:254,1,90,0|0,0:0|0:0,0:0:0:0:
277,280,5254,6,0,P|283:232|238:175,1,90
209,103,5618,2,0,P|254:83|308:97,1,90
372,164,5981,2,0,P|417:184|471:170,2,90,8|0|0,0:0|0:0|0:0,0:0:0:0:
372,276,6527,54,0,P|417:256|471:270,2,90,8|0|0,0:0|0:0|0:0,0:0:0:0:
304,184,7254,1,0,0:0:0:0:
342,82,7436,1,0,0:0:0:0:
260,11,7618,1,0,0:0:0:0:
210,106,7800,2,0,P|169:128|103:133,1,90
84,234,8163,5,0,0:0:0:0:
200,304,8345,1,0,0:0:0:0:
120,304,8527,1,0,0:0:0:0:
236,234,8709,1,0,0:0:0:0:
368,208,8890,1,0,0:0:0:0:
392,76,9072,1,0,0:0:0:0:
292,123,9254,1,0,0:0:0:0:
181,139,9436,54,0,P|188:94|206:53,2,90,8|0|0,0:0|0:0|0:0,0:0:0:0:
277,187,10163,2,0,L|373:219,1,90
411,315,10527,2,0,L|295:275,1,90
132,100,11072,6,0,P|183:35|216:32,1,90
92,192,11436,2,0,P|38:184|0:144,1,90
188,186,11799,2,0,P|208:236|194:289,2,90,8|0|0,0:0|0:0|0:0,0:0:0:0:
188,186,12345,53,4,0:0:0:0:
92,192,12527,1,0,0:0:0:0:
132,100,12709,1,0,0:0:0:0:
328,32,13072,2,0,L|432:12,1,90
292,112,13436,2,0,L|404:92,1,90
220,268,13981,6,0,L|131:283,1,90
80,220,14345,1,0,0:0:0:0:
216,348,14527,2,0,L|304:329,1,90,0|8,0:0|0:0,0:0:0:0:
412,330,14890,2,0,L|528:354,1,90
360,268,15254,54,0,L|360:160,2,90,8|0|0,0:0|0:0|0:0,0:0:0:0:
344,60,15981,2,0,L|224:108,1,90
191,43,16345,2,0,P|228:69|195:195,1,180
91,119,16890,6,0,P|107:55|147:35,1,90
129,194,17254,2,0,P|85:202|44:188,1,90
197,281,17618,1,8,0:0:0:0:
241,197,17799,1,0,0:0:0:0:
201,113,17981,1,0,0:0:0:0:
271,50,18163,54,0,P|319:42|393:56,1,90,8|0,0:0|0:0,0:0:0:0:
427,131,18527,1,0,0:0:0:0:
365,334,18890,2,0,P|317:342|243:328,1,90
106,290,19254,2,0,P|154:282|228:296,1,90
368,152,19799,6,0,L|356:56,1,90
192,40,20163,2,0,L|160:128,1,90
256,200,20527,2,0,L|272:88,2,90,8|0|0,0:0|0:0|0:0,0:0:0:0:
240,290,21072,1,8,0:0:0:0:
256,192,21163,12,4,23618,2:2:0:0:
472,218,23981,38,0,P|448:303|379:359,1,180,4|0,0:0|1:0,0:0:0:0:
196,260,24709,1,0,0:0:0:0:
324,220,24890,1,8,0:0:0:0:
188,164,25072,1,0,1:0:0:0:
316,124,25254,1,0,0:0:0:0:
147,37,25436,37,8,0:0:0:0:
32,188,25618,2,0,P|56:220|128:244,1,90,0|0,0:0|1:0,0:0:0:0:
280,252,25981,1,0,0:0:0:0:
236,112,26163,2,0,L|160:188,1,90,0|8,0:0|0:0,0:0:0:0:
212,312,26527,2,0,L|284:248,1,90,0|0,1:0|0:0,0:0:0:0:
500,272,26890,5,8,0:0:0:0:
392,180,27072,1,0,0:0:0:0:
472,64,27254,1,0,1:0:0:0:
208,128,27618,2,0,L|141:67,1,90,0|8,0:0|0:0,0:0:0:0:
208,240,27981,2,0,L|274:300,2,90,0|0|8,1:0|0:0|0:0,0:0:0:0:
44,180,28527,5,0,0:0:0:0:
124,292,28709,1,0,1:0:0:0:
208,180,28890,1,0,0:0:0:0:
208,180,28981,1,0,0:0:0:0:
208,180,29072,2,2,P|256:176|312:188,1,90,8|8,0:0|0:0,0:0:0:0:
436,284,29436,2,0,P|391:291|346:286,1,90,0|0,1:0|0:0,0:0:0:0:
501,209,29799,38,0,P|508:164|503:119,1,90,8|0,0:0|0:0,0:0:0:0:
332,44,30163,1,0,1:0:0:0:
208,340,30527,1,0,0:0:0:0:
104,260,30709,1,8,0:0:0:0:
208,180,30890,1,0,1:0:0:0:
48,104,31072,1,0,0:0:0:0:
208,24,31254,22,0,P|252:24|328:40,1,90,8|0,0:0|0:0,0:0:0:0:
444,72,31618,1,0,1:0:0:0:
364,152,31799,1,0,0:0:0:0:
281,304,31981,1,0,0:0:0:0:
361,224,32162,1,8,0:0:0:0:
242,149,32345,53,0,0:0:0:0:
246,159,32436,1,2,0:0:0:0:
249,170,32527,1,2,0:0:0:0:
253,181,32618,1,2,0:0:0:0:
256,192,32709,2,2,B|316:276|252:360,1,180,0|0,0:0|1:0,0:0:0:0:
53,258,33436,6,0,P|71:305|107:335,1,90,0|8,0:0|0:0,0:0:0:0:
312,256,33799,1,0,1:0:0:0:
240,82,33981,2,0,P|195:77|151:80,1,90,0|8,0:0|0:0,0:0:0:0:
255,211,34345,37,0,0:0:0:0:
354,134,34527,1,0,1:0:0:0:
432,232,34709,1,0,0:0:0:0:
432,232,34799,1,2,0:0:0:0:
432,232,34890,2,0,P|472:260|492:299,1,90,8|8,0:0|0:0,0:0:0:0:
304,312,35254,2,0,B|296:320|296:320|288:312|288:312|280:320|280:320|272:312|272:312|264:320|264:320|256:312|256:312|248:320|248:320|240:312|240:312|232:320|232:320|224:312|224:312|216:320|216:320|208:312|208:312|200:320|200:320|191:312|191:312|184:320|184:320|176:312|176:312|168:320|168:320|160:312|160:312|152:320|152:320|144:312|144:312|136:320|136:320|128:312|128:312|120:320|120:320|112:312,1,270.000010299683,0|4,0:0|0:0,0:0:0:0:
96,191,35799,5,0,0:0:0:0:
152,77,35981,2,0,P|197:85|260:118,1,90,0|0,1:0|0:0,0:0:0:0:
420,196,36345,1,0,0:0:0:0:
286,265,36527,1,8,0:0:0:0:
388,312,36709,1,0,1:0:0:0:
316,144,36890,1,0,0:0:0:0:
227,58,37072,5,8,0:0:0:0:
105,92,37254,1,0,0:0:0:0:
76,213,37436,1,0,1:0:0:0:
165,300,37618,1,0,0:0:0:0:
285,265,37799,2,0,L|345:177,1,90,0|8,0:0|0:0,0:0:0:0:
227,58,38163,2,0,L|167:146,1,90,0|0,1:0|0:0,0:0:0:0:
176,132,38527,37,8,0:0:0:0:
285,265,38709,1,0,0:0:0:0:
439,188,38890,2,0,P|421:144|386:111,1,90,0|0,1:0|0:0,0:0:0:0:
220,203,39254,1,0,0:0:0:0:
340,204,39436,1,8,0:0:0:0:
288,79,39618,1,0,1:0:0:0:
160,30,39799,1,0,0:0:0:0:
288,79,39981,5,8,0:0:0:0:
414,25,40163,2,0,P|434:68|433:133,1,90,0|0,0:0|1:0,0:0:0:0:
357,292,40527,1,0,0:0:0:0:
357,292,40618,1,2,0:0:0:0:
357,292,40709,2,0,P|337:249|338:184,1,90,8|0,0:0|0:0,0:0:0:0:
429,320,41072,2,0,P|395:358|344:370,1,90,0|0,1:0|0:0,1:0:0:0:
154,321,41436,5,8,0:0:0:0:
277,127,41618,1,0,0:0:0:0:
50,127,41799,2,0,L|92:206,1,90,0|0,1:0|0:0,0:0:0:0:
224,206,42163,1,0,0:0:0:0:
168,56,42345,1,8,0:0:0:0:
93,206,42527,2,0,L|143:299,1,90,0|0,1:0|0:0,0:0:0:0:
277,127,42890,37,8,0:0:0:0:
465,116,43072,2,0,P|484:157|481:215,1,90,0|0,0:0|1:0,0:0:0:0:
449,338,43436,1,0,0:0:0:0:
326,251,43618,2,0,P|350:213|387:189,1,90,0|8,0:0|0:0,0:0:0:0:
300,322,43981,5,0,0:2:0:0:
279,328,44072,1,2,0:0:0:0:
257,324,44163,1,2,0:0:0:0:
236,316,44254,1,2,0:0:0:0:
216,316,44344,1,8,0:0:0:0:
256,192,44436,12,4,46890,0:0:0:0:
57,161,47254,6,0,P|106:88|192:68,1,180,4|2,0:0|0:0,0:0:0:0:
176,192,47799,1,0,0:0:0:0:
288,232,47981,2,0,P|256:280|220:304,1,90,0|8,0:0|0:0,0:0:0:0:
128,352,48345,2,0,P|95:321|79:280,1,90
56,160,48709,37,0,0:0:0:0:
164,64,48890,1,0,0:0:0:0:
276,160,49072,2,0,P|319:135|349:80,1,90,2|0,0:0|0:0,0:0:0:0:
169,256,49436,1,0,0:0:0:0:
260,72,49618,1,8,0:0:0:0:
428,188,49799,2,0,P|472:200|510:222,1,90
392,330,50163,5,8,0:0:0:0:
255,351,50345,1,0,0:0:0:0:
128,324,50527,2,0,L|72:220,1,90,2|0,0:0|0:0,0:0:0:0:
128,60,50890,2,0,L|72:164,1,90,0|8,0:0|0:0,0:0:0:0:
274,192,51254,2,0,L|184:192,1,90
274,192,51618,5,8,0:0:0:0:
395,133,51799,1,0,0:0:0:0:
284,56,51981,1,2,0:0:0:0:
176,120,52163,1,0,0:0:0:0:
176,120,52254,1,2,0:0:0:0:
175,120,52345,2,0,P|135:139|105:172,1,90,8|8,0:0|0:0,0:0:0:0:
26,270,52709,2,0,P|56:305|100:325,1,90,0|0,0:0|0:0,0:0:0:0:
198,222,53072,38,0,P|243:235|278:263,1,90,8|0,0:0|0:0,0:0:0:0:
276,261,53436,1,2,0:0:0:0:
176,120,53618,1,0,0:0:0:0:
317,81,53799,2,0,P|362:83|416:95,1,90,0|8,0:0|0:0,0:0:0:0:
512,240,54163,2,0,P|497:196|473:159,1,90,0|0,0:0|0:0,0:0:0:0:
392,300,54527,6,0,P|345:305|280:344,1,90,8|0,0:0|0:0,0:0:0:0:
109,349,54890,2,0,P|156:344|221:305,1,90,2|0,0:0|0:0,0:0:0:0:
135,207,55254,1,0,0:0:0:0:
256,192,55436,1,8,0:0:0:0:
360,260,55618,5,0,0:0:0:0:
396,232,55709,1,2,0:0:0:0:
408,192,55799,1,2,0:0:0:0:
396,152,55890,1,2,0:0:0:0:
360,124,55981,1,0,0:0:0:0:
256,192,56163,37,0,0:0:0:0:
169,281,56345,2,0,P|122:275|74:247,1,90,2|0,0:0|0:0,0:0:0:0:
35,140,56709,1,0,0:0:0:0:
136,68,56890,1,8,0:0:0:0:
256,68,57072,2,0,P|296:87|330:117,1,90
398,220,57436,5,8,0:0:0:0:
330,321,57618,1,0,0:0:0:0:
267,220,57799,1,2,0:0:0:0:
330,118,57981,2,0,L|387:118,2,45,0|2|8,0:0|0:0|0:0,0:0:0:0:
200,65,58345,1,8,0:0:0:0:
140,192,58527,2,2,L|127:173,7,22.5,0|2|2|2|2|2|2|2,0:0|0:0|0:0|0:0|0:0|0:0|0:0|0:0,0:0:0:0:
140,192,58890,6,0,B|192:236|192:296|252:344,1,180,12|2,0:0|0:0,0:0:0:0:
292,244,59436,1,0,0:0:0:0:
112,284,59618,1,0,0:0:0:0:
164,112,59799,1,8,0:0:0:0:
228,180,59981,2,0,P|220:226|179:287,1,90
162,111,60345,37,8,0:0:0:0:
291,34,60527,1,0,0:0:0:0:
376,164,60709,2,0,P|389:205|438:266,1,90,2|0,0:0|0:0,0:0:0:0:
430,98,61072,2,0,P|390:79|335:88,1,90,0|8,0:0|0:0,0:0:0:0:
206,146,61436,1,0,0:0:0:0:
335,249,61617,1,0,0:0:0:0:
187,304,61799,5,8,0:0:0:0:
290,168,61981,1,0,0:0:0:0:
464,178,62163,2,0,P|420:167|376:165,1,90,2|0,0:0|0:0,0:0:0:0:
285,282,62527,2,0,P|329:293|373:295,1,90,0|8,0:0|0:0,0:0:0:0:
266,187,62890,2,0,P|221:183|177:170,1,90,0|0,0:0|0:0,0:0:0:0:
208,64,63254,6,0,B|145:37|93:77|29:53,1,180,8|2,0:0|0:0,0:0:0:0:
36,168,63799,1,2,0:0:0:0:
36,168,63890,1,2,0:0:0:0:
36,168,63981,2,0,P|55:208|104:260,1,90,8|8,0:0|0:0,0:0:0:0:
232,316,64345,2,0,P|267:283|292:220,1,90
412,120,64709,38,0,B|349:146|297:106|233:130,1,180,8|2,0:0|0:0,0:0:0:0:
155,44,65254,1,0,0:0:0:0:
272,39,65436,1,0,0:0:0:0:
328,130,65618,1,8,0:0:0:0:
289,241,65799,2,0,P|239:250|173:247,1,90,0|0,0:0|0:0,0:0:0:0:
72,98,66163,5,8,0:0:0:0:
286,177,66345,1,0,0:0:0:0:
92,211,66527,1,2,0:0:0:0:
267,63,66709,1,0,0:0:0:0:
199,249,66890,1,0,0:0:0:0:
161,25,67072,1,8,0:0:0:0:
177,135,67254,5,0,0:0:0:0:
177,135,67345,1,2,0:0:0:0:
177,135,67436,1,2,0:0:0:0:
177,135,67527,1,2,0:0:0:0:
177,135,67618,1,8,0:0:0:0:
256,192,67709,12,0,69799,0:0:0:0:
308,48,70163,54,0,P|344:65|371:96,1,67.5000025749208,0|0,0:0|0:0,0:0:0:0:
452,108,70527,2,0,P|418:161|332:176,1,135.000005149842,4|2,0:0|0:0,0:0:0:0:
272,228,71072,2,0,P|293:253|324:266,2,67.5000025749208,0|0|8,0:0|0:0|0:0,0:0:0:0:
268,132,71618,1,0,0:0:0:0:
188,180,71799,1,0,0:0:0:0:
104,224,71981,6,0,P|108:256|140:312,1,67.5000025749208,8|0,0:0|0:0,0:0:0:0:
212,316,72345,1,2,0:0:0:0:
308,356,72527,2,0,P|316:312|300:268,1,67.5000025749208
280,164,72890,2,0,P|298:193|325:213,1,67.5000025749208,8|0,0:0|0:0,0:0:0:0:
464,227,73254,2,0,P|431:236|398:232,1,67.5000025749208,0|8,0:0|0:0,0:0:0:0:
357,142,73618,37,0,0:0:0:0:
204,64,73799,1,2,0:0:0:0:
124,218,73981,1,0,0:0:0:0:
278,296,74163,1,0,0:0:0:0:
309,64,74345,1,8,0:0:0:0:
144,117,74527,1,0,0:0:0:0:
198,281,74709,1,0,0:0:0:0:
362,228,74890,5,8,0:0:0:0:
256,176,75072,1,0,0:0:0:0:
256,176,75254,1,2,0:0:0:0:
237,49,75436,1,0,0:0:0:0:
216,64,75527,1,2,0:0:0:0:
199,78,75618,2,0,L|144:117,1,67.5000025749208,8|0,0:0|0:0,0:0:0:0:
33,212,75981,2,0,L|88:250,1,67.5000025749208
150,321,76345,6,0,P|174:291|181:235,2,67.5000025749208,8|0|2,0:0|0:0|0:0,0:0:0:0:
265,355,76890,2,0,B|311:343|328:285|372:269,1,135.000005149842,0|8,0:0|0:0,0:0:0:0:
476,248,77436,2,0,P|461:212|428:180,1,67.5000025749208
348,176,77799,38,0,P|314:179|282:170,1,67.5000025749208
224,96,78163,1,2,0:0:0:0:
144,48,78345,2,0,P|110:44|76:48,1,67.5000025749208,0|0,0:0|0:0,0:0:0:0:
28,132,78709,1,8,0:0:0:0:
72,216,78890,2,0,P|105:219|138:215,1,67.5000025749208,0|0,0:0|0:0,0:0:0:0:
228,252,79254,5,8,0:0:0:0:
228,252,79436,1,0,0:0:0:0:
276,344,79618,2,0,P|320:304|320:212,1,135.000005149842,2|0,0:0|0:0,0:0:0:0:
260,152,80163,1,8,0:0:0:0:
212,60,80345,2,0,P|179:83|161:126,1,67.5000025749208
136,197,80709,5,8,0:0:0:0:
216,248,80890,2,0,P|252:264|301:268,1,67.5000025749208,0|2,0:0|0:0,0:0:0:0:
408,216,81254,1,2,0:0:0:0:
408,216,81345,1,2,0:0:0:0:
408,216,81436,2,0,P|404:255|388:296,1,67.5000025749208,8|8,0:0|0:0,0:0:0:0:
312,340,81799,2,0,L|232:304,1,67.5000025749208
133,249,82163,38,0,B|184:292|124:328|176:372,1,135.000005149842,4|2,0:0|0:0,0:0:0:0:
56,304,82709,1,0,0:0:0:0:
58,204,82890,2,0,P|79:178|130:164,1,67.5000025749208,0|8,0:0|0:0,0:0:0:0:
292,76,83254,2,0,P|266:107|218:126,1,67.5000025749208
208,224,83618,6,0,P|248:264|328:276,1,135.000005149842,8|2,0:0|0:0,0:0:0:0:
408,224,84163,1,0,0:0:0:0:
495,175,84345,2,0,P|446:131|380:127,1,135.000005149842
296,184,84890,1,0,0:0:0:0:
302,285,85072,5,8,0:0:0:0:
408,224,85254,1,0,0:0:0:0:
315,112,85436,2,0,L|223:130,1,67.5000025749208,2|0,0:0|0:0,0:0:0:0:
32,172,85799,2,0,L|129:191,1,67.5000025749208,0|8,0:0|0:0,0:0:0:0:
302,285,86163,2,0,L|210:303,1,67.5000025749208,0|0,0:0|0:0,0:0:0:0:
114,371,86527,38,0,B|149:338|149:338|133:296|143:269|159:244,1,135.000005149842,8|2,0:0|0:0,0:0:0:0:
272,148,87072,1,2,0:0:0:0:
272,148,87163,1,2,0:0:0:0:
272,148,87254,2,0,P|316:156|356:192,1,67.5000025749208,8|8,0:0|0:0,0:0:0:0:
440,216,87618,2,0,P|429:247|410:275,1,67.5000025749208,0|0,0:0|0:0,0:0:0:0:
358,74,87981,6,0,B|392:97|392:97|416:73|446:61|479:67,1,135.000005149842,8|2,0:0|0:0,0:0:0:0:
468,152,88527,1,0,0:0:0:0:
256,192,88618,12,0,90527,0:0:0:0:
168,88,90890,54,0,B|200:72|200:72|232:88|232:88|264:72|264:72|296:88|296:88|328:72|328:72|360:88,1,180,4|0,0:0|0:0,0:0:0:0:
400,144,91436,1,2,0:0:0:0:
420,248,91618,6,0,B|392:264|392:264|364:248|364:248|336:264|336:264|304:248|304:248|276:264|276:264|248:248|248:248|224:264,1,215.999993408203,4|0,0:0|0:0,0:0:0:0:
144,176,92163,1,2,0:0:0:0:
24,232,92345,6,0,B|55:231|55:231|64:260|64:260|96:260|96:260|112:288|112:288|144:288|144:288|160:312|160:312|192:312|192:312|216:340|216:340,1,251.999992309571,4|0,0:0|0:0,0:0:0:0:
282,166,92890,1,0,0:0:0:0:
282,166,92981,1,2,0:0:0:0:
282,166,93072,1,8,0:0:0:0:
420,299,93254,5,8,0:0:0:0:
488,123,93436,1,4,0:0:0:0:
297,30,93618,1,0,0:0:0:0:
110,128,93799,22,0,P|56:152|21:198,1,116.999994644165,4|0,0:0|0:0,0:0:0:0:
216,146,94163,2,0,P|209:88|173:44,1,116.999994644165,2|0,0:0|0:0,0:0:0:0:
110,128,94527,1,0,0:0:0:0:
256,246,94709,1,8,0:0:0:0:
81,310,94890,1,2,0:0:0:0:
216,146,95072,1,0,0:0:0:0:
313,76,95254,6,0,P|378:62|436:76,1,116.999994644165,8|0,0:0|0:0,0:0:0:0:
389,224,95618,1,2,0:0:0:0:
248,328,95799,5,0,0:0:0:0:
216,312,95889,1,2,0:0:0:0:
200,280,95980,1,8,0:0:0:0:
196,244,96071,1,2,0:0:0:0:
207,210,96162,1,8,0:0:0:0:
362,176,96345,2,0,P|330:225|280:253,1,116.999994644165,2|0,0:0|0:0,0:0:0:0:
131,70,96709,38,0,P|192:61|258:79,1,116.999994644165,8|0,0:0|0:0,0:0:0:0:
168,295,97072,2,0,P|119:263|90:212,1,116.999994644165,2|0,0:0|0:0,0:0:0:0:
285,331,97436,1,0,0:0:0:0:
91,213,97618,1,8,0:0:0:0:
300,123,97799,1,2,0:0:0:0:
168,295,97981,5,0,0:0:0:0:
190,146,98163,1,8,0:0:0:0:
315,233,98345,1,0,0:0:0:0:
466,259,98527,1,2,0:0:0:0:
417,142,98709,1,0,0:0:0:0:
409,120,98799,1,2,0:0:0:0:
402,99,98890,1,8,0:0:0:0:
391,77,98981,1,2,0:0:0:0:
380,54,99072,6,0,P|325:32|258:29,1,116.999994644165,8|2,0:0|0:0,0:0:0:0:
304,192,99436,1,0,0:0:0:0:
112,268,99618,2,0,P|167:290|234:293,1,116.999994644165,8|0,0:0|0:0,0:0:0:0:
376,240,99981,1,2,0:0:0:0:
342,75,100163,1,0,0:0:0:0:
321,86,100254,1,2,0:0:0:0:
300,97,100345,1,8,0:0:0:0:
282,108,100436,1,2,0:0:0:0:
260,118,100527,2,0,P|213:110|151:71,1,116.999994644165,8|2,0:0|0:0,0:0:0:0:
54,218,100890,37,0,0:0:0:0:
60,231,100981,1,2,0:0:0:0:
64,243,101072,2,0,P|122:253|170:286,1,116.999994644165,8|0,0:0|0:0,0:0:0:0:
348,298,101436,1,2,0:0:0:0:
403,129,101618,1,0,0:0:0:0:
398,116,101709,1,2,0:0:0:0:
392,103,101800,2,0,P|337:93|285:60,1,116.999994644165,8|0,0:0|0:0,0:0:0:0:
494,63,102163,2,0,P|495:127|458:182,1,116.999994644165,2|0,0:0|0:0,0:0:0:0:
441,282,102527,6,0,P|396:248|376:181,1,116.999994644165,8|0,0:0|0:0,0:0:0:0:
412,75,102890,1,2,0:0:0:0:
292,65,103072,1,0,0:0:0:0:
276,69,103163,1,2,0:0:0:0:
260,75,103254,1,8,0:0:0:0:
133,107,103436,2,0,P|74:124|30:171,1,116.999994644165,8|2,0:0|0:0,0:0:0:0:
35,162,103799,1,0,0:0:0:0:
148,325,103981,6,0,P|227:256|198:134,1,233.999989288331,8|2,0:0|0:0,0:0:0:0:
124,67,104527,1,0,0:0:0:0:
124,67,104618,1,2,0:0:0:0:
124,67,104709,2,0,P|168:38|254:59,1,116.999994644165,8|8,0:0|0:0,0:0:0:0:
342,222,105072,2,0,P|317:274|268:304,1,116.999994644165,2|0,0:0|0:0,0:0:0:0:
200,120,105436,38,0,P|207:173|255:214,1,116.999994644165,4|0,0:0|0:0,0:0:0:0:
363,70,105799,1,2,0:0:0:0:
505,187,105981,1,0,0:0:0:0:
493,230,106072,1,2,0:0:0:0:
472,264,106163,1,8,0:0:0:0:
433,273,106254,1,2,0:0:0:0:
390,273,106345,1,8,0:0:0:0:
303,144,106527,2,0,P|361:155|409:187,1,116.999994644165,2|0,0:0|0:0,0:0:0:0:
329,313,106890,5,8,0:0:0:0:
312,323,106981,1,2,0:0:0:0:
293,329,107072,2,0,P|231:348|162:350,1,116.999994644165
63,208,107436,1,0,0:0:0:0:
61,194,107527,1,2,0:0:0:0:
61,181,107618,2,0,P|108:156|191:141,1,116.999994644165,8|8,0:0|0:0,0:0:0:0:
341,245,107981,2,0,P|285:232|222:198,1,116.999994644165,2|0,0:0|0:0,0:0:0:0:
332,84,108345,5,8,0:0:0:0:
337,72,108436,1,2,0:0:0:0:
342,58,108527,2,0,P|397:70|456:103,1,116.999994644165,8|2,0:0|0:0,0:0:0:0:
508,218,108890,1,0,0:0:0:0:
246,111,109072,2,0,P|263:166|251:222,1,116.999994644165
77,330,109436,1,2,0:0:0:0:
72,313,109527,1,2,0:0:0:0:
66,297,109618,2,0,B|58:260|58:260|91:229|91:185,1,116.999994644165,8|8,0:0|0:0,0:0:0:0:
114,27,109981,37,0,0:0:0:0:
178,224,110163,1,2,0:0:0:0:
379,171,110345,1,0,0:0:0:0:
406,161,110436,1,2,0:0:0:0:
425,142,110527,1,8,0:0:0:0:
435,115,110618,1,2,0:0:0:0:
436,86,110709,1,8,0:0:0:0:
512,192,110890,5,2,0:0:0:0:
419,282,111072,1,8,0:0:0:0:
408,286,111163,1,2,0:0:0:0:
397,291,111254,2,0,P|343:294|271:323,1,116.999994644165,8|0,0:0|0:0,0:0:0:0:
134,338,111618,2,0,P|80:335|8:306,1,116.999994644165,2|0,0:0|0:0,0:0:0:0:
183,260,111981,2,0,P|194:203|183:139,1,116.999994644165,0|8,0:0|0:0,0:0:0:0:
14,107,112345,2,0,P|64:78|127:69,1,116.999994644165,2|0,0:0|0:0,0:0:0:0:
324,47,112709,5,8,0:0:0:0:
295,51,112799,1,2,0:0:0:0:
270,62,112890,2,0,P|224:96|223:184,1,116.999994644165,8|2,0:0|0:0,0:0:0:0:
73,204,113254,1,0,0:0:0:0:
80,233,113345,1,2,0:0:0:0:
94,258,113436,1,8,0:0:0:0:
116,273,113527,1,2,0:0:0:0:
145,280,113618,2,0,P|217:266|271:219,1,116.999994644165,8|2,0:0|0:0,0:0:0:0:
349,134,113981,1,0,0:0:0:0:
392,264,114163,38,0,B|342:292|342:292|275:314,1,116.999994644165,8|0,0:0|0:0,0:0:0:0:
119,156,114527,2,0,B|169:127|169:127|230:112,1,116.999994644165,2|0,0:0|0:0,0:0:0:0:
224,264,114890,53,0,0:0:0:0:
256,279,114981,1,2,0:0:0:0:
292,279,115072,1,8,0:0:0:0:
336,188,115254,1,2,0:0:0:0:
351,156,115345,1,0,0:0:0:0:
351,120,115436,1,0,0:0:0:0:
240,80,115618,53,8,0:0:0:0:
204,62,115709,1,2,0:0:0:0:
164,58,115799,1,2,0:0:0:0:
119,156,115981,1,10,0:0:0:0:
108,195,116072,1,2,0:0:0:0:
115,235,116163,1,2,0:0:0:0:
144,264,116254,1,2,0:0:0:0:
184,274,116345,5,8,0:0:0:0:
205,264,116436,1,2,0:0:0:0:
227,253,116527,1,8,0:0:0:0:
248,242,116618,1,0,0:0:0:0:
270,231,116709,1,4,0:0:0:0:
368,280,116890,1,2,0:0:0:0:
472,312,117072,6,0,P|466:214|404:172,1,180,4|2,0:0|0:0,0:0:0:0:
292,162,117618,1,2,0:0:0:0:
176,284,117799,2,0,P|172:260|184:188,1,90,0|8,0:0|0:0,0:0:0:0:
68,160,118163,2,0,P|88:112|120:72,1,90,2|2,0:0|0:0,0:0:0:0:
228,64,118527,5,8,0:0:0:0:
336,72,118709,1,2,0:0:0:0:
428,128,118890,1,2,0:0:0:0:
456,232,119072,1,2,0:0:0:0:
416,332,119254,2,0,P|376:360|328:364,1,90,0|8,0:0|0:0,0:0:0:0:
348,256,119618,2,0,P|344:212|316:176,1,90,2|2,0:0|0:0,0:0:0:0:
220,128,119981,5,8,0:0:0:0:
148,212,120163,1,2,0:0:0:0:
248,260,120345,1,2,0:0:0:0:
220,128,120527,1,2,0:0:0:0:
324,40,120709,1,0,0:0:0:0:
340,192,120890,1,8,0:0:0:0:
220,128,121072,1,2,0:0:0:0:
248,260,121254,1,2,0:0:0:0:
148,212,121436,38,0,B|100:204|100:204|52:204,1,90,8|2,0:0|0:0,0:0:0:0:
248,260,121799,1,2,0:0:0:0:
72,300,121981,1,2,0:0:0:0:
72,300,122072,1,2,0:0:0:0:
72,300,122163,2,0,B|120:308|120:308|168:308,1,90,8|8,0:0|0:0,0:0:0:0:
240,164,122527,1,2,0:0:0:0:
332,104,122709,1,2,0:0:0:0:
396,192,122890,6,0,P|404:148|424:104,1,90,8|2,0:0|0:0,0:0:0:0:
412,320,123254,2,0,P|380:284|348:256,1,90,2|2,0:0|0:0,0:0:0:0:
240,164,123618,1,0,0:0:0:0:
160,308,123799,1,8,0:0:0:0:
248,260,123981,1,2,0:0:0:0:
80,256,124163,1,2,0:0:0:0:
64,160,124345,6,0,P|56:104|68:72,1,90,8|2,0:0|0:0,0:0:0:0:
160,308,124709,1,2,0:0:0:0:
152,120,124890,2,0,P|184:84|224:72,1,90,2|0,0:0|0:0,0:0:0:0:
80,256,125254,1,8,0:0:0:0:
332,248,125436,2,0,P|332:200|312:148,1,90,2|2,0:0|0:0,0:0:0:0:
176,224,125799,38,0,P|160:252|160:308,1,90,8|2,0:0|0:0,0:0:0:0:
248,280,126163,1,2,0:0:0:0:
260,192,126345,1,2,0:0:0:0:
152,120,126527,1,0,0:0:0:0:
144,248,126709,1,8,0:0:0:0:
332,248,126890,1,2,0:0:0:0:
236,84,127072,1,2,0:0:0:0:
144,248,127254,6,0,P|168:292|204:316,1,90,8|2,0:0|0:0,0:0:0:0:
316,332,127618,1,2,0:0:0:0:
416,272,127799,1,2,0:0:0:0:
416,272,127890,1,2,0:0:0:0:
416,272,127981,2,0,P|428:244|428:184,1,90,8|8,0:0|0:0,0:0:0:0:
236,84,128345,1,2,0:0:0:0:
232,212,128527,1,10,0:0:0:0:
128,276,128709,6,0,P|84:196|100:108,1,180,4|2,0:0|0:0,0:0:0:0:
236,84,129254,2,0,P|280:80|328:88,1,90,2|0,0:0|0:0,0:0:0:0:
352,220,129618,1,8,0:0:0:0:
172,204,129799,1,2,0:0:0:0:
236,84,129981,1,2,0:0:0:0:
260,264,130163,37,8,0:0:0:0:
372,124,130345,1,2,0:0:0:0:
344,328,130527,1,2,0:0:0:0:
444,288,130709,1,2,0:0:0:0:
352,220,130890,2,0,P|312:188|268:176,1,90,0|8,0:0|0:0,0:0:0:0:
236,84,131254,2,0,P|192:108|152:116,1,90,2|2,0:0|0:0,0:0:0:0:
56,92,131618,5,8,0:0:0:0:
92,220,131799,1,2,0:0:0:0:
224,244,131981,1,2,0:0:0:0:
312,140,132163,1,2,0:0:0:0:
176,152,132345,1,0,0:0:0:0:
144,316,132527,1,8,0:0:0:0:
340,288,132709,1,2,0:0:0:0:
372,124,132891,1,2,0:0:0:0:
236,84,133072,6,0,P|152:64|140:68,2,90,8|2|2,0:0|0:0|0:0,0:0:0:0:
176,152,133618,1,2,0:0:0:0:
164,176,133709,1,2,0:0:0:0:
152,200,133799,1,8,0:0:0:0:
144,316,133981,1,8,0:0:0:0:
256,340,134163,1,2,0:0:0:0:
340,288,134345,1,2,0:0:0:0:
408,216,134527,38,0,P|400:152|376:116,1,90,8|2,0:0|0:0,0:0:0:0:
316,192,134890,2,0,P|280:216|232:236,1,90,2|2,0:0|0:0,0:0:0:0:
124,276,135254,1,0,0:0:0:0:
68,184,135436,1,8,0:0:0:0:
112,84,135618,1,2,0:0:0:0:
220,72,135799,1,2,0:0:0:0:
228,180,135981,6,0,P|272:192|320:192,1,90,8|2,0:0|0:0,0:0:0:0:
372,124,136345,2,0,P|340:152|316:192,1,90,2|2,0:0|0:0,0:0:0:0:
344,276,136709,2,0,P|336:232|316:192,1,90,0|8,0:0|0:0,0:0:0:0:
216,88,137072,1,2,0:0:0:0:
132,208,137254,1,2,0:0:0:0:
132,352,137436,6,0,P|168:364|228:356,1,90,8|2,0:0|0:0,0:0:0:0:
292,236,137799,2,0,P|304:200|296:140,1,90,2|2,0:0|0:0,0:0:0:0:
188,184,138163,2,0,P|176:220|184:280,1,90,0|8,0:0|0:0,0:0:0:0:
348,312,138527,1,2,0:0:0:0:
428,192,138709,1,2,0:0:0:0:
340,76,138890,38,0,P|304:104|256:116,1,90,8|2,0:0|0:0,0:0:0:0:
164,68,139254,1,2,0:0:0:0:
92,148,139436,1,2,0:0:0:0:
84,184,139527,1,2,0:0:0:0:
92,220,139618,1,8,0:0:0:0:
164,300,139799,1,8,0:0:0:0:
188,184,139981,2,0,P|224:156|272:144,1,90,2|2,0:0|0:0,0:0:0:0:
348,312,140345,1,4,0:0:0:0:
256,296,142890,22,0,L|256:204,1,67.5000025749208,4|0,0:0|0:0,0:0:0:0:
348,72,143254,54,0,P|376:104|384:152,1,90,4|0,0:0|0:0,0:0:0:0:
308,220,143618,1,2,0:0:0:0:
224,92,143799,2,0,P|188:76|120:80,1,90,0|0,0:0|0:0,0:0:0:0:
156,200,144163,1,8,0:0:0:0:
308,220,144345,1,2,0:0:0:0:
348,72,144527,1,0,0:0:0:0:
388,276,144709,5,8,0:0:0:0:
240,352,144890,1,0,0:0:0:0:
156,200,145072,2,0,P|184:172|236:160,1,90,2|0,0:0|0:0,0:0:0:0:
308,220,145436,1,0,0:0:0:0:
304,304,145618,1,8,0:0:0:0:
384,168,145799,2,0,P|356:140|304:128,1,90,2|0,0:0|0:0,0:0:0:0:
92,160,146163,37,8,0:0:0:0:
248,84,146345,1,0,0:0:0:0:
304,304,146527,2,0,P|324:348|356:380,1,90,2|0,0:0|0:0,0:0:0:0:
388,264,146890,2,0,P|424:272|476:272,1,90,0|8,0:0|0:0,0:0:0:0:
416,176,147254,2,0,P|456:148|480:112,1,90,2|0,0:0|0:0,0:0:0:0:
372,92,147618,5,8,0:0:0:0:
248,84,147799,1,0,0:0:0:0:
316,192,147981,1,2,0:0:0:0:
152,144,148163,2,0,L|120:112,2,45,2|2|8,0:0|0:0|0:0,0:0:0:0:
192,312,148527,1,8,0:0:0:0:
316,192,148709,1,2,0:0:0:0:
152,144,148890,1,0,0:0:0:0:
192,312,149072,6,0,B|216:332|216:332|296:332|352:272,1,180,8|2,0:0|0:0,0:0:0:0:
404,212,149618,1,0,0:0:0:0:
228,180,149799,2,0,P|184:208|152:248,1,90,0|8,0:0|0:0,0:0:0:0:
316,192,150163,2,0,P|304:136|280:96,1,90,2|0,0:0|0:0,0:0:0:0:
260,268,150527,38,0,P|272:272|360:272,1,90,8|0,0:0|0:0,0:0:0:0:
228,180,150890,1,2,0:0:0:0:
196,92,151072,2,0,P|184:88|96:88,1,90,0|0,0:0|0:0,0:0:0:0:
228,180,151436,1,8,0:0:0:0:
316,192,151618,1,2,0:0:0:0:
340,224,151709,1,2,0:0:0:0:
348,276,151799,1,2,0:0:0:0:
372,308,151890,1,2,0:0:0:0:
412,316,151981,6,0,P|452:296|488:268,1,90,8|0,0:0|0:0,0:0:0:0:
380,167,152345,2,0,P|416:140|456:120,2,90,2|0|0,0:0|0:0|0:0,0:0:0:0:
260,268,152890,1,8,0:0:0:0:
76,236,153072,1,2,0:0:0:0:
196,92,153254,1,0,0:0:0:0:
376,228,153436,6,0,P|396:192|392:144,1,90,8|0,0:0|0:0,0:0:0:0:
276,76,153799,1,2,0:0:0:0:
116,108,153981,1,2,0:0:0:0:
136,148,154072,1,2,0:0:0:0:
144,192,154163,1,8,0:0:0:0:
260,268,154345,1,8,0:0:0:0:
376,228,154527,2,0,B|384:220|384:220|376:212|376:212|384:204|384:204|376:196|376:196|384:188|384:188|376:180|376:180|384:172|384:172|376:164|376:164|384:156|384:156|376:148|376:148|384:140|384:140|376:132|376:132|384:124|384:124|376:116|376:116|384:108|384:108|376:100|376:100|384:92|384:92|376:84|376:84|384:76|384:76|376:68|376:68|384:60|384:60|376:52|376:52|384:44|384:44|376:36,1,270.000010299683,2|12,0:0|0:0,0:0:0:0:
276,76,155072,38,0,P|260:112|264:164,1,90,0|2,0:0|0:0,0:0:0:0:
376,228,155436,1,0,0:0:0:0:
232,336,155618,2,0,P|188:344|140:328,1,90,0|8,0:0|0:0,0:0:0:0:
76,236,155981,1,2,0:0:0:0:
116,108,156163,1,0,0:0:0:0:
196,256,156345,6,0,P|232:248|288:268,1,90,8|0,0:0|0:0,0:0:0:0:
436,288,156709,2,0,P|456:260|456:200,1,90,2|0,0:0|0:0,0:0:0:0:
364,72,157072,2,0,P|324:92|292:128,1,90,0|8,0:0|0:0,0:0:0:0:
304,280,157436,2,0,P|344:260|376:224,1,90,2|0,0:0|0:0,0:0:0:0:
196,256,157799,5,8,0:0:0:0:
76,236,157981,1,0,0:0:0:0:
116,108,158163,2,0,P|132:64|168:32,1,90,2|0,0:0|0:0,0:0:0:0:
316,128,158527,1,0,0:0:0:0:
476,168,158709,1,8,0:0:0:0:
416,68,158890,1,2,0:0:0:0:
376,228,159072,1,0,0:0:0:0:
272,284,159254,38,0,L|180:288,1,90,8|0,0:0|0:0,0:0:0:0:
76,236,159618,1,2,0:0:0:0:
188,212,159799,1,2,0:0:0:0:
200,192,159890,1,2,0:0:0:0:
200,168,159981,2,0,P|196:108|208:72,1,90,8|8,0:0|0:0,0:0:0:0:
316,128,160345,1,2,0:0:0:0:
376,228,160527,1,0,0:0:0:0:
272,284,160709,6,0,P|240:316|200:336,1,90,8|0,0:0|0:0,0:0:0:0:
72,224,161072,2,0,P|116:252|152:260,1,90,2|0,0:0|0:0,0:0:0:0:
200,168,161436,2,0,P|188:124|192:80,1,90,0|8,0:0|0:0,0:0:0:0:
324,156,161799,2,0,P|335:199|332:244,1,90,2|0,0:0|0:0,0:0:0:0:
108,204,162163,5,8,0:0:0:0:
240,112,162345,1,0,0:0:0:0:
200,336,162527,1,2,0:0:0:0:
332,244,162709,1,0,0:0:0:0:
400,100,162890,2,0,P|364:68|312:60,1,90,0|8,0:0|0:0,0:0:0:0:
324,152,163254,1,2,0:0:0:0:
308,200,163345,1,0,0:0:0:0:
332,244,163436,1,0,0:0:0:0:
316,292,163527,1,0,0:0:0:0:
268,304,163618,38,0,P|236:268|196:260,1,90,8|0,0:0|0:0,0:0:0:0:
84,316,163981,2,0,P|116:352|156:360,1,90,2|0,0:0|0:0,0:0:0:0:
196,260,164345,1,0,0:0:0:0:
220,164,164527,1,8,0:0:0:0:
144,76,164709,1,2,0:0:0:0:
276,52,164890,1,0,0:0:0:0:
420,104,165072,6,0,P|428:128|424:192,1,90,8|0,0:0|0:0,0:0:0:0:
324,152,165436,1,2,0:0:0:0:
344,268,165618,1,2,0:0:0:0:
328,292,165709,1,2,0:0:0:0:
304,308,165799,1,8,0:0:0:0:
196,260,165981,1,0,0:0:0:0:
84,316,166163,2,0,B|68:268|100:276|84:228,1,90,0|0,0:0|0:0,0:0:0:0:
56,96,166527,6,0,B|92:100|92:100|132:64|200:80,1,135.000005149842,4|2,0:0|0:0,0:0:0:0:
156,168,167072,2,0,P|208:168|244:148,1,67.5000025749208,2|0,0:0|0:0,0:0:0:0:
300,108,167436,1,8,0:0:0:0:
384,152,167618,2,0,L|396:224,1,67.5000025749208,2|2,0:0|0:0,0:0:0:0:
336,340,167981,2,0,B|280:316|304:268|248:244,1,135.000005149842,8|2,0:0|0:0,0:0:0:0:
160,348,168527,2,0,P|132:316|120:284,1,67.5000025749208,2|0,0:0|0:0,0:0:0:0:
112,172,168890,1,8,0:0:0:0:
288,124,169072,1,2,0:0:0:0:
336,300,169254,1,2,0:0:0:0:
160,348,169436,1,8,0:0:0:0:
160,348,169618,38,0,P|132:316|120:284,1,67.5000025749208,2|2,0:0|0:0,0:0:0:0:
112,172,169981,1,2,0:0:0:0:
172,92,170163,2,0,P|140:76|104:72,2,67.5000025749208,0|8|2,0:0|0:0|0:0,0:0:0:0:
252,144,170709,1,2,0:0:0:0:
320,208,170890,2,0,P|364:220|396:208,1,67.5000025749208,8|2,0:0|0:0,0:0:0:0:
400,100,171254,2,0,L|372:136,1,33.7500012874604,2|0,0:0|0:0,0:0:0:0:
256,272,171527,1,2,0:0:0:0:
232,296,171618,2,0,B|216:304|216:304|164:308,1,67.5000025749208,8|8,0:0|0:0,0:0:0:0:
176,204,171981,2,0,B|192:196|192:196|244:192,1,67.5000025749208,2|2,0:0|0:0,0:0:0:0:
340,292,172345,6,0,P|392:252|396:176,1,135.000005149842,8|2,0:0|0:0,0:0:0:0:
320,96,172890,2,0,B|284:92|284:92|248:92,1,67.5000025749208,2|0,0:0|0:0,0:0:0:0:
176,204,173254,1,8,0:0:0:0:
44,232,173436,2,0,B|56:196|56:196|76:164,1,67.5000025749208,2|2,0:0|0:0,0:0:0:0:
168,328,173799,2,0,B|132:332|132:332|96:332,1,67.5000025749208,8|2,0:0|0:0,0:0:0:0:
176,204,174163,1,2,0:0:0:0:
256,272,174345,2,0,B|260:308|260:308|260:344,1,67.5000025749208,2|0,0:0|0:0,0:0:0:0:
176,204,174709,1,8,0:0:0:0:
116,84,174890,2,0,B|144:68|144:68|184:56,1,67.5000025749208,2|2,0:0|0:0,0:0:0:0:
320,204,175254,6,0,P|368:220|384:220,1,67.5000025749208,8|2,0:0|0:0,0:0:0:0:
376,104,175618,2,0,P|284:96|244:120,1,135.000005149842,2|0,0:0|0:0,0:0:0:0:
176,204,176163,1,8,0:0:0:0:
320,204,176345,1,2,0:0:0:0:
320,60,176527,1,2,0:0:0:0:
176,60,176709,38,0,P|144:64|116:84,1,67.5000025749208,8|2,0:0|0:0,0:0:0:0:
248,132,177072,1,2,0:0:0:0:
320,204,177254,1,2,0:0:0:0:
352,216,177345,1,2,0:0:0:0:
384,228,177436,2,0,B|392:220|392:220|392:160,1,67.5000025749208,8|8,0:0|0:0,0:0:0:0:
288,192,177799,2,0,B|280:200|280:200|280:260,1,67.5000025749208,2|2,0:0|0:0,0:0:0:0:
392,164,178163,6,0,P|356:108|292:84,1,135.000005149842,4|2,0:0|0:0,0:0:0:0:
204,136,178709,2,0,P|188:168|188:204,1,67.5000025749208,2|0,0:0|0:0,0:0:0:0:
144,300,179072,1,8,0:0:0:0:
272,256,179254,2,0,P|288:224|288:188,1,67.5000025749208,2|2,0:0|0:0,0:0:0:0:
127,236,179618,2,0,P|128:270|144:300,1,67.5000025749208,8|2,0:0|0:0,0:0:0:0:
204,136,179981,1,2,0:0:0:0:
272,256,180163,2,0,P|302:272|336:273,1,67.5000025749208,2|0,0:0|0:0,0:0:0:0:
392,188,180527,1,8,0:0:0:0:
272,256,180709,2,0,P|256:288|256:324,1,67.5000025749208
352,312,181072,1,8,0:0:0:0:
144,300,181254,5,2,0:0:0:0:
144,300,181436,2,0,P|160:340|188:364,1,67.5000025749208,2|2,0:0|0:0,0:0:0:0:
352,244,181799,1,0,0:0:0:0:
352,244,181981,1,8,0:0:0:0:
272,256,182163,2,0,P|240:240|204:240,1,67.5000025749208,2|2,0:0|0:0,0:0:0:0:
124,212,182527,38,0,B|120:176|120:176|120:144,1,67.5000025749208,8|2,0:0|0:0,0:0:0:0:
116,56,182890,1,2,0:0:0:0:
148,48,182981,1,0,0:0:0:0:
240,56,183163,1,2,0:0:0:0:
272,48,183254,2,0,P|328:48|344:52,1,67.5000025749208,0|8,0:0|0:0,0:0:0:0:
300,156,183618,2,0,P|336:164|368:184,1,67.5000025749208,2|2,0:0|0:0,0:0:0:0:
272,256,183981,6,0,P|228:304|160:320,1,135.000005149842,8|2,0:0|0:0,0:0:0:0:
124,212,184527,2,0,P|168:164|236:148,1,135.000005149842,2|8,0:0|0:0,0:0:0:0:
348,168,185072,2,0,P|372:196|388:232,1,67.5000025749208,2|2,0:0|0:0,0:0:0:0:
280,276,185436,2,0,B|272:256|272:256|212:244|192:180,1,135.000005149842,8|2,0:0|0:0,0:0:0:0:
296,148,185981,2,0,L|368:128,1,67.5000025749208,2|0,0:0|0:0,0:0:0:0:
212,68,186345,1,8,0:0:0:0:
124,212,186527,1,2,0:0:0:0:
280,276,186709,1,2,0:0:0:0:
328,200,186890,54,0,P|256:168|184:200,1,161.999995056153,4|2,0:0|0:0,0:0:0:0:
280,292,187436,1,2,0:0:0:0:
372,148,187618,6,0,P|292:104|184:116,1,198.000006042481,4|2,0:0|0:0,0:0:0:0:
280,308,188163,1,2,0:0:0:0:
420,100,188345,6,0,P|316:40|196:40,1,233.999989288331,4|2,0:0|0:0,0:0:0:0:
280,324,188890,1,2,0:0:0:0:
280,324,188981,1,2,0:0:0:0:
280,324,189072,1,8,0:0:0:0:
436,164,189254,5,8,0:0:0:0:
256,72,189436,1,4,0:0:0:0:
76,164,189618,1,2,0:0:0:0:280
280,340,189799,22,0,P|348:340|412:316,1,125.999996154785,4|2,0:0|0:0,0:0:0:0:
456,220,190163,1,2,0:0:0:0:
376,140,190345,2,0,B|340:132|340:132|320:176|272:192,1,125.999996154785,2|8,0:0|0:0,0:0:0:0:
176,172,190709,1,8,0:0:0:0:
80,104,190890,2,0,P|60:192|84:240,1,125.999996154785,2|2,0:0|0:0,0:0:0:0:
212,336,191254,6,0,B|256:360|256:360|296:300|376:304,1,188.999994232178,8|0,0:0|0:0,0:0:0:0:
436,324,191618,2,0,P|448:256|444:188,1,125.999996154785,2|2,0:0|0:0,0:0:0:0:
336,80,191981,1,8,0:0:0:0:
328,223,192163,1,8,0:0:0:0:
304,270,192254,1,0,0:0:0:0:
256,292,192345,2,0,B|224:260|228:212|228:212|184:176,1,125.999996154785,2|2,0:0|0:0,0:0:0:0:
96,88,192709,6,0,P|148:60|276:72,1,188.999994232178,0|0,0:0|0:0,0:0:0:0:
336,80,193072,2,0,B|388:108|432:100|432:100|448:124,1,125.999996154785,2|0,0:0|0:0,0:0:0:0:
488,240,193436,1,8,0:0:0:0:
403,334,193618,2,0,B|378:324|378:324|371:278|347:230,1,125.999996154785,8|2,0:0|0:0,0:0:0:0:
268,68,193981,1,2,0:0:0:0:
240,216,194163,38,0,B|228:284|264:264|252:340,2,125.999996154785,8|2|2,0:0|0:0|0:0,0:0:0:0:
115,310,194709,1,2,0:0:0:0:
101,260,194799,1,2,0:0:0:0:
92,208,194890,2,0,P|92:128|112:88,1,125.999996154785,8|8,0:0|0:0,0:0:0:0:
204,164,195254,2,0,L|240:216,1,62.9999980773926,2|0,0:0|0:0,0:0:0:0:
252,88,195436,2,0,L|288:140,1,62.9999980773926,2|0,0:0|0:0,0:0:0:0:
328,228,195618,6,0,P|292:292|240:304,1,125.999996154785,8|2,0:0|0:0,0:0:0:0:
140,316,195981,1,2,0:0:0:0:
240,216,196163,1,2,0:0:0:0:
208,68,196345,1,8,0:0:0:0:
52,116,196527,1,8,0:0:0:0:
84,288,196709,2,0,B|140:316|140:316|176:256|244:252,1,188.999994232178,2|0,0:0|0:0,0:0:0:0:
264,312,197072,6,0,P|328:260|336:204,1,125.999996154785,8|2,0:0|0:0,0:0:0:0:
340,76,197436,2,0,L|428:168,1,125.999996154785,2|2,0:0|0:0,0:0:0:0:
452,296,197799,1,8,0:0:0:0:
345,235,197981,1,8,0:0:0:0:
317,200,198072,1,0,0:0:0:0:
272,192,198163,2,0,B|252:220|252:220|268:276|228:320,1,125.999996154785,2|2,0:0|0:0,0:0:0:0:
152,248,198527,38,0,L|96:280,1,62.9999980773926,8|0,0:0|0:0,0:0:0:0:
20,240,198709,2,0,L|76:208,1,62.9999980773926,2|0,0:0|0:0,0:0:0:0:
92,140,198890,2,0,B|116:120|116:120|140:160|196:164,1,125.999996154785,2|2,0:0|0:0,0:0:0:0:
280,24,199254,1,8,0:0:0:0:
356,124,199436,2,0,B|388:164|436:176|436:176|432:204,1,125.999996154785,8|2,0:0|0:0,0:0:0:0:
320,220,199799,1,2,0:0:0:0:
248,312,199981,6,0,B|240:348|240:348|148:320,1,125.999996154785,8|2,0:0|0:0,0:0:0:0:
60,268,200345,1,2,0:0:0:0:
308,188,200527,1,2,0:0:0:0:
272,148,200618,1,2,0:0:0:0:
224,124,200709,2,0,P|156:124|88:108,1,125.999996154785,8|8,0:0|0:0,0:0:0:0:
308,44,201072,2,0,L|240:44,1,62.9999980773926,2|0,0:0|0:0,0:0:0:0:
332,128,201254,2,0,L|396:128,1,62.9999980773926,10|0,0:0|0:0,0:0:0:0:
492,212,201436,6,0,B|472:204|472:204|456:264|408:280,1,125.999996154785,4|2,0:0|0:0,0:0:0:0:
272,168,201799,2,0,P|272:224|320:272,1,125.999996154785,2|2,0:0|0:0,0:0:0:0:
380,232,202072,2,0,P|380:176|332:128,1,125.999996154785,0|2,0:0|0:0,0:0:0:0:
268,96,202345,2,0,L|136:96,2,125.999996154785,8|2|2,0:0|0:0|0:0,0:0:0:0:
72,220,202890,38,0,B|80:204|80:204|252:204,1,188.999994232178,8|0,0:0|0:0,0:0:0:0:
276,264,203254,2,0,P|356:264|380:232,1,125.999996154785,2|0,0:0|0:0,0:0:0:0:
400,120,203618,1,8,0:0:0:0:
304,44,203799,1,8,0:0:0:0:
264,192,203981,2,0,L|256:124,1,62.9999980773926,2|0,0:0|0:0,0:0:0:0:
168,116,204163,2,0,L|176:184,1,62.9999980773926,2|0,0:0|0:0,0:0:0:0:
80,172,204345,6,0,P|104:240|152:272,1,125.999996154785,8|2,0:0|0:0,0:0:0:0:
264,192,204709,1,2,0:0:0:0:
372,276,204890,1,2,0:0:0:0:
484,172,205072,1,8,0:0:0:0:
360,64,205254,2,0,P|308:96|280:152,1,125.999996154785,8|2,0:0|0:0,0:0:0:0:
216,260,205618,2,0,P|160:276|92:276,2,125.999996154785,2|8|2,0:0|0:0|0:0,0:0:0:0:
96,148,206163,5,2,0:0:0:0:
72,160,206254,1,0,0:0:0:0:
96,48,206436,1,2,0:0:0:0:
72,60,206527,2,0,P|160:76|204:60,1,125.999996154785,8|8,0:0|0:0,0:0:0:0:
48,172,206890,2,0,P|112:184|176:180,1,125.999996154785,2|2,0:0|0:0,0:0:0:0:
344,108,207254,38,0,B|368:100|368:100|384:80|384:80|412:140|404:216,1,188.999994232178,8|0,0:0|0:0,0:0:0:0:
342,235,207618,2,0,B|278:247|278:247|218:247,1,125.999996154785,2|0,0:0|0:0,0:0:0:0:
48,172,207981,1,8,0:0:0:0:
132,128,208163,1,8,0:0:0:0:
152,100,208254,1,0,0:0:0:0:
164,68,208345,2,0,B|160:36|160:36|208:24|256:36,1,125.999996154785,2|2,0:0|0:0,0:0:0:0:
232,228,208709,5,8,0:0:0:0:
276,96,208890,1,2,0:0:0:0:
296,140,208981,1,0,0:0:0:0:
312,184,209072,1,2,0:0:0:0:
212,288,209254,1,2,0:0:0:0:
400,248,209436,2,0,P|396:312|364:364,1,125.999996154785,8|8,0:0|0:0,0:0:0:0:
272,276,209799,2,0,L|232:228,1,62.9999980773926,2|0,0:0|0:0,0:0:0:0:
152,288,209981,2,0,L|140:224,1,62.9999980773926,2|0,0:0|0:0,0:0:0:0:
48,224,210163,6,0,B|52:192|52:192|88:160|104:104,1,125.999996154785,8|2,0:0|0:0,0:0:0:0:
268,176,210527,1,2,0:0:0:0:
276,136,210618,1,0,0:0:0:0:
276,96,210709,1,2,0:0:0:0:
444,152,210890,22,0,B|404:100|404:100|344:52,1,125.999996154785,8|8,0:0|0:0,0:0:0:0:
256,252,211254,2,0,B|296:304|296:304|356:352,1,125.999996154785,2|2,0:0|0:0,0:0:0:0:
380,232,211618,53,8,0:0:0:0:
388,188,211709,1,2,0:0:0:0:
384,144,211799,1,2,0:0:0:0:
276,96,211981,1,2,0:0:0:0:
236,116,212072,1,2,0:0:0:0:
216,156,212163,1,2,0:0:0:0:
208,200,212254,1,2,0:0:0:0:
208,244,212345,5,8,0:0:0:0:
180,244,212436,1,2,0:0:0:0:
152,244,212527,1,8,0:0:0:0:
124,244,212618,1,0,0:0:0:0:
104,224,212709,1,4,0:0:0:0:
124,120,212890,1,2,0:0:0:0:
184,36,213072,6,0,P|216:68|236:136,1,90,4|2,0:0|0:0,0:0:0:0:
204,220,213436,1,2,0:0:0:0:
96,264,213618,1,2,0:0:0:0:
22,176,213799,2,0,P|40:135|72:104,1,90,0|8,0:0|0:0,0:0:0:0:
184,36,214163,1,2,0:0:0:0:
312,48,214345,1,2,0:0:0:0:
237,152,214527,5,8,0:0:0:0:
357,193,214709,1,2,0:0:0:0:
333,317,214890,1,2,0:0:0:0:
211,359,215072,1,2,0:0:0:0:
83,358,215254,2,0,P|112:320|120:256,1,90,0|8,0:0|0:0,0:0:0:0:
76,136,215618,2,0,P|47:174|39:238,1,90,2|2,0:0|0:0,0:0:0:0:
159,321,215981,5,8,0:0:0:0:
279,253,216163,1,2,0:0:0:0:
336,128,216345,2,0,L|450:63,1,90,2|2,0:0|0:0,0:0:0:0:
496,190,216709,2,0,L|417:234,1,90,0|8,0:0|0:0,0:0:0:0:
199,139,217072,2,0,P|211:67|234:25,1,90,2|2,0:0|0:0,0:0:0:0:
313,245,217436,38,0,P|301:317|278:359,1,90,8|2,0:0|0:0,0:0:0:0:
154,347,217799,1,2,0:0:0:0:
61,240,217981,2,0,L|118:192,2,45,2|2|8,0:0|0:0|0:0,0:0:0:0:
211,132,218345,2,0,L|176:103,2,45,8|0|2,0:0|0:0|0:0,0:0:0:0:
211,132,218709,1,2,0:0:0:0:
275,35,218890,5,8,0:0:0:0:
341,106,219072,1,2,0:0:0:0:
505,162,219254,1,2,0:0:0:0:
439,91,219436,1,2,0:0:0:0:
317,206,219618,1,0,0:0:0:0:
383,277,219800,1,8,0:0:0:0:
323,352,219981,2,0,P|276:360|219:351,1,90,2|2,0:0|0:0,0:0:0:0:
165,213,220345,5,8,0:0:0:0:
63,93,220527,1,2,0:0:0:0:
242,73,220709,1,2,0:0:0:0:
213,276,220890,1,2,0:0:0:0:
111,156,221072,1,0,0:0:0:0:
290,136,221254,1,8,0:0:0:0:
165,213,221436,1,2,0:0:0:0:
142,358,221618,1,2,0:0:0:0:
288,357,221799,38,0,P|327:334|356:278,1,90,8|2,0:0|0:0,0:0:0:0:
400,172,222163,1,2,0:0:0:0:
328,43,222345,1,2,0:0:0:0:
400,172,222527,1,0,0:0:0:0:
248,156,222709,1,8,0:0:0:0:
400,172,222890,1,2,0:0:0:0:
304,275,223072,1,2,0:0:0:0:
328,43,223254,6,0,P|286:28|236:25,1,90,8|2,0:0|0:0,0:0:0:0:
109,46,223618,1,2,0:0:0:0:
57,164,223799,1,2,0:0:0:0:
29,192,223890,1,2,0:0:0:0:
53,232,223981,1,8,0:0:0:0:
37,268,224072,1,2,0:0:0:0:
69,304,224163,2,0,P|107:325|171:321,2,90,8|2|10,0:0|0:0|0:0,0:0:0:0:
143,197,224709,5,4,0:0:0:0:
195,36,224890,1,2,0:0:0:0:
303,136,225072,2,0,P|337:164|358:204,1,90,2|2,0:0|0:0,0:0:0:0:
231,334,225436,2,0,P|187:324|157:291,1,90,0|8,0:0|0:0,0:0:0:0:
60,146,225799,2,0,P|95:108|145:102,1,90,2|2,0:0|0:0,0:0:0:0:
303,136,226163,37,8,0:0:0:0:
363,269,226345,1,2,0:0:0:0:
232,335,226527,1,2,0:0:0:0:
100,270,226709,1,2,0:0:0:0:
219,186,226890,2,0,P|263:184|306:196,1,90,0|8,0:0|0:0,0:0:0:0:
425,331,227254,2,0,P|382:343|337:340,1,90,2|2,0:0|0:0,0:0:0:0:
307,197,227618,6,0,P|322:155|355:125,1,90,8|2,0:0|0:0,0:0:0:0:
482,264,227981,2,0,P|460:303|425:331,1,90,2|2,0:0|0:0,0:0:0:0:
282,308,228345,1,0,0:0:0:0:
140,285,228527,1,8,0:0:0:0:
198,154,228709,1,2,0:0:0:0:
339,177,228890,1,2,0:0:0:0:
282,308,229072,6,0,P|197:274|131:188,1,180,8|2,0:0|0:0,0:0:0:0:
153,350,229618,1,2,0:0:0:0:
153,350,229709,1,2,0:0:0:0:
153,350,229799,2,0,P|185:316|199:261,1,90,8|8,0:0|0:0,0:0:0:0:
276,165,230163,2,0,P|306:195|316:253,1,90,2|2,0:0|0:0,0:0:0:0:
401,342,230527,38,0,P|446:318|469:266,1,90,8|2,0:0|0:0,0:0:0:0:
465,98,230890,2,0,P|441:61|401:42,1,90,2|2,0:0|0:0,0:0:0:0:
276,165,231254,1,0,0:0:0:0:
276,165,231436,1,8,0:0:0:0:
164,54,231618,1,2,0:0:0:0:
164,54,231799,1,2,0:0:0:0:
24,116,231981,6,0,B|52:164|48:236|48:236|48:232|48:232|44:232|44:232|152:192|152:192|156:192|156:192|152:188|152:188|144:280|188:316,1,377.999988464356,0|2,0:0|0:0,0:0:0:0:
55,342,232709,1,0,0:0:0:0:
176,304,232890,1,8,0:0:0:0:
300,272,233072,2,0,P|346:264|395:218,1,90,2|2,0:0|0:0,0:0:0:0:
353,94,233436,5,8,0:0:0:0:
202,169,233618,1,2,0:0:0:0:
273,57,233799,2,0,P|316:66|352:93,1,90,2|2,0:0|0:0,0:0:0:0:
441,259,234163,1,0,0:0:0:0:
268,184,234345,1,8,0:0:0:0:
428,146,234527,1,2,0:0:0:0:
283,299,234709,1,2,0:0:0:0:
283,299,234890,38,0,P|251:336|207:356,1,90,8|2,0:0|0:0,0:0:0:0:
80,270,235254,1,2,0:0:0:0:
88,112,235436,1,2,0:0:0:0:
121,87,235527,1,2,0:0:0:0:
161,79,235618,2,0,P|200:80|248:96,1,90,8|8,0:0|0:0,0:0:0:0:
362,231,235981,1,2,0:0:0:0:
207,283,236163,1,2,0:0:0:0:
248,96,236345,1,4,0:0:0:0:
104,40,239254,6,0,L|147:167,1,134.999997997284,4|2,0:0|0:0,0:0:0:0:
292,48,239799,1,2,0:0:0:0:
336,164,239981,2,0,L|372:248,1,67.499998998642
332,360,240345,2,0,L|292:272,1,67.499998998642,2|0,0:0|0:0,0:0:0:0:
212,252,240709,6,0,P|132:244|92:280,1,135.000005149842,2|2,0:0|0:0,0:0:0:0:
164,320,241254,1,2,0:0:0:0:
164,320,241436,2,0,P|208:343|244:344,1,67.5000025749208,0|0,0:0|0:0,0:0:0:0:
340,236,241799,2,0,P|352:172|308:88,1,135.000005149842
408,84,242345,37,2,0:0:0:0:
294,21,242527,2,0,L|227:32,1,67.499998998642,2|0,0:0|0:0,0:0:0:0:
180,152,242890,2,0,L|252:140,1,67.499998998642,2|0,0:0|0:0,0:0:0:0:
132,252,243254,1,0,0:0:0:0:
176,348,243436,1,0,0:0:0:0:
272,372,243618,6,0,P|360:376|436:364,1,134.999997997284,2|2,0:0|0:0,0:0:0:0:
481,214,244163,2,0,P|413:207|346:212,1,134.999997997284,0|0,0:0|0:0,0:0:0:0:
264,284,244709,1,2,0:0:0:0:
180,232,244890,1,0,0:0:0:0:
188,132,245072,6,0,P|258:89|324:116,1,134.999997997284,0|2,0:0|0:0,0:0:0:0:
264,188,245618,1,0,0:0:0:0:
180,232,245799,2,0,P|92:251|52:208,1,134.999997997284,0|2,0:0|0:0,0:0:0:0:
20,144,246345,1,0,0:0:0:0:
188,132,246527,38,0,L|240:192,1,67.499998998642,2|0,0:0|0:0,0:0:0:0:
392,168,246890,2,0,L|344:112,1,67.499998998642,2|2,0:0|0:0,0:0:0:0:
252,48,247254,2,0,P|180:23|112:56,1,134.999997997284
252,144,247799,1,0,0:0:0:0:
300,240,247981,6,0,P|316:292|272:384,1,134.999997997284,2|2,0:0|0:0,0:0:0:0:
180,384,248527,1,0,0:0:0:0:
108,292,248709,2,0,L|84:224,1,67.499998998642
232,180,249072,2,0,L|216:256,1,67.499998998642
60,152,249436,6,0,L|40:80,1,67.499998998642
260,36,249799,2,0,L|244:116,1,67.499998998642,2|0,0:0|0:0,0:0:0:0:
136,216,250163,2,0,P|80:184|72:92,1,134.999997997284
128,48,250709,1,0,0:0:0:0:
168,128,250890,38,0,L|320:160,1,153.000002918243,4|2,0:0|0:0,0:0:0:0:
396,176,251436,1,0,0:0:0:0:
464,136,251618,2,0,L|480:52,1,76.5000014591217,0|8,0:0|0:0,0:0:0:0:
440,256,251981,2,0,L|424:340,1,76.5000014591217
368,100,252345,6,0,L|376:24,1,76.5000014591217,8|0,0:0|0:0,0:0:0:0:
328,256,252709,2,0,L|292:336,1,76.5000014591217,2|0,0:0|0:0,0:0:0:0:
288,165,253072,2,0,B|216:172|216:172|220:176|220:176|220:172|220:172|191:104,2,153.000002918243,0|0|8,0:0|0:0|0:0,0:0:0:0:
393,142,253981,5,0,0:0:0:0:
500,168,254163,2,0,P|492:208|440:248,1,76.5000014591217,2|0,0:0|0:0,0:0:0:0:
376,276,254527,1,0,0:0:0:0:
280,300,254709,1,8,0:0:0:0:
216,228,254890,1,0,0:0:0:0:
112,244,255072,1,0,0:0:0:0:
44,184,255254,38,0,P|-7:122|12:40,1,153.000002918243,8|2,0:0|0:0,0:0:0:0:
120,64,255799,1,0,0:0:0:0:
152,92,255890,1,2,0:0:0:0:
184,132,255981,2,0,P|160:200|80:236,1,153.000002918243,8|2,0:0|0:0,0:0:0:0:
68,100,256527,1,0,0:0:0:0:
68,100,256709,6,0,P|132:56|216:56,1,153.000002918243,8|2,0:0|0:0,0:0:0:0:
320,64,257254,2,0,L|496:112,1,153.000002918243,0|8,0:0|0:0,0:0:0:0:
380,0,257799,1,0,0:0:0:0:
252,124,257981,2,0,L|428:172,1,153.000002918243
320,64,258527,5,2,0:0:0:0:
208,36,258709,1,0,0:0:0:0:
99,76,258890,2,0,L|60:144,1,76.5000014591217,0|8,0:0|0:0,0:0:0:0:
60,241,259254,2,0,L|98:307,1,76.5000014591217
212,269,259618,38,0,P|225:194|208:120,1,153.000002918243,4|2,0:0|0:0,0:0:0:0:
136,192,260163,1,0,0:0:0:0:
308,232,260345,6,0,P|310:191|300:128,1,76.5000014591217,4|0,0:0|0:0,0:0:0:0:
208,120,260709,1,0,0:0:0:0:
136,192,260890,1,0,0:0:0:0:
372,184,261072,6,0,P|374:143|364:84,2,76.5000014591217,4|0|2,0:0|0:0|0:0,0:0:0:0:
316,288,261618,1,0,0:0:0:0:
288,320,261709,1,2,0:0:0:0:
252,328,261799,1,8,0:0:0:0:
132,332,261981,5,0,0:0:0:0:
44,264,262163,1,0,0:0:0:0:
64,156,262345,1,0,0:0:0:0:
152,104,262527,6,0,B|176:152|140:216|140:216|152:236|156:260,1,161.999995056153,4|0,0:0|0:0,0:0:0:0:
155,257,263618,1,0,0:0:0:0:
108,332,263981,2,0,B|148:364|148:364|220:324,1,107.999996704102,0|0,0:0|0:0,0:0:0:0:
236,316,264527,2,0,B|292:280|324:300|368:320|408:308,1,161.999995056153,0|0,0:0|0:0,0:0:0:0:
416,364,265436,54,0,B|388:336|392:264|392:264|340:224,1,161.999995056153,0|0,0:0|0:0,0:0:0:0:
252,204,266345,2,0,B|268:228|264:259|264:259|320:304,1,107.999996704102,0|0,0:0|0:0,0:0:0:0:
320,304,266890,1,0,0:0:0:0:
320,304,267618,1,0,0:0:0:0:
296,328,267799,2,0,P|268:344|237:354,1,53.9999983520508,0|0,0:0|0:0,0:0:0:0:
216,356,268163,1,0,0:0:0:0:
184,348,268345,6,0,B|144:324|144:324|160:260|128:200,1,161.999995056153,0|0,0:0|0:0,0:0:0:0:
134,211,269436,1,0,0:0:0:0:
100,344,269799,2,0,B|124:368|124:368|176:340|212:340,1,107.999996704102,0|0,0:0|0:0,0:0:0:0:
232,340,270345,2,0,B|272:332|328:368|328:368|340:340|376:340,1,161.999995056153,0|0,0:0|0:0,0:0:0:0:
479,353,271254,54,0,B|436:320|376:340|376:340,1,107.999996704102,0|0,0:0|0:0,0:0:0:0:
343,347,271799,2,0,B|307:318|312:272|312:272|283:255,1,107.999996704102
392,284,272527,2,0,B|454:247|456:127,1,161.999995056153,0|0,0:0|0:0,0:0:0:0:
455,142,273436,1,0,0:0:0:0:
420,140,273618,1,0,0:0:0:0:
388,132,273799,1,0,0:0:0:0:
356,120,273981,1,0,0:0:0:0:
325,103,274163,6,0,B|280:72|280:72|240:91|164:81,1,161.999995056153,4|0,0:0|0:0,0:0:0:0:
309,204,275254,1,0,0:0:0:0:
309,204,275618,2,0,B|266:179|266:179|229:193|153:181,1,161.999995056153,0|0,0:0|0:0,0:0:0:0:
102,260,276527,2,0,P|156:267|209:267,1,107.999996704102,0|0,0:0|0:0,0:0:0:0:
264,320,277072,54,0,B|296:302|296:244|268:206|268:206|304:160,1,161.999995056153,0|0,0:0|0:0,0:0:0:0:
304,160,277981,1,0,0:0:0:0:
304,160,278345,1,0,0:0:0:0:
364,124,278527,2,0,B|459:168|373:235|478:292,1,215.999993408203,0|0,0:0|0:0,0:0:0:0:
364,124,279981,5,0,0:0:0:0:
240,68,280345,2,0,L|304:40,1,53.9999983520508,0|0,0:0|0:0,0:0:0:0:
174,187,281072,1,0,0:0:0:0:
304,232,281436,1,0,0:0:0:0:
308,236,282163,1,0,0:0:0:0:
312,240,282890,1,4,0:0:0:0:
256,192,282981,12,0,285436,0:0:0:0:
216,112,285799,6,0,L|140:184,1,90,4|0,0:0|0:0,0:0:0:0:
88,328,286163,2,0,L|153:266,1,90,0|0,0:0|0:0,0:0:0:0:
68,200,286527,1,0,0:0:0:0:
68,200,286890,1,0,0:0:0:0:
248,284,287072,1,0,0:0:0:0:
248,284,287436,5,0,0:0:0:0:
352,160,287618,1,0,0:0:0:0:
192,132,287799,1,0,0:0:0:0:
164,292,287981,1,0,0:0:0:0:
316,236,288163,1,0,0:0:0:0:
156,208,288345,1,0,0:0:0:0:
212,360,288527,1,0,0:0:0:0:
400,228,288709,5,0,0:0:0:0:
232,164,288890,1,0,0:0:0:0:
307,358,289072,2,0,L|379:303,1,90,2|0,0:0|0:0,0:0:0:0:
499,210,289436,2,0,L|428:156,1,90,0|2,0:0|0:0,0:0:0:0:
432,44,289799,1,0,0:0:0:0:
333,218,289981,38,2,B|280:184|280:184|264:92|264:92|208:72,1,180,2|0,0:0|0:0,0:0:0:0:
220,80,290436,1,0,0:0:0:0:
200,76,290527,1,2,0:0:0:0:
68,152,290709,1,0,0:0:0:0:
200,228,290890,1,2,0:0:0:0:
103,60,291072,1,0,0:0:0:0:
8,228,291254,5,2,0:0:0:0:
135,357,291436,1,2,0:0:0:0:
135,357,291527,1,2,0:0:0:0:
135,357,291618,2,0,L|160:268,1,90,0|0,0:0|0:0,0:0:0:0:
232,112,291981,6,0,P|204:144|184:188,2,90
232,112,292709,1,0,0:0:0:0:
56,140,292890,1,0,0:0:0:0:
56,140,293254,37,0,0:0:0:0:
188,152,293436,1,0,0:0:0:0:
160,284,293618,1,0,0:0:0:0:
116,208,293799,1,0,0:0:0:0:
240,236,293981,1,0,0:0:0:0:
216,352,294163,1,0,0:0:0:0:
160,284,294345,1,0,0:0:0:0:
244,124,294527,5,0,0:0:0:0:
332,148,294709,1,0,0:0:0:0:
412,108,294890,2,0,L|504:120,1,90,2|0,0:0|0:0,0:0:0:0:
476,236,295254,1,2,0:0:0:0:
388,228,295436,1,0,0:0:0:0:
312,280,295618,1,2,0:0:0:0:
228,252,295799,1,0,0:0:0:0:
148,292,295981,1,2,0:0:0:0:
256,192,296072,12,0,297072,0:0:0:0:
252,36,297436,54,0,L|336:84,1,90,4|0,0:0|0:0,0:0:0:0:
456,208,297799,2,0,L|377:163,1,90
248,164,298163,1,0,0:0:0:0:
248,164,298527,1,0,0:0:0:0:
152,316,298709,1,0,0:0:0:0:
152,316,299072,5,0,0:0:0:0:
284,224,299254,1,0,0:0:0:0:
300,384,299436,1,0,0:0:0:0:
200,236,299618,1,0,0:0:0:0:
304,92,299799,1,0,0:0:0:0:
380,256,299981,1,0,0:0:0:0:
208,368,300163,1,0,0:0:0:0:
12,304,300345,6,0,L|92:256,1,90,0|0,0:0|0:0,0:0:0:0:
60,168,300709,1,2,0:0:0:0:
100,88,300890,1,0,0:0:0:0:
248,0,301072,1,0,0:0:0:0:
176,160,301254,1,2,0:0:0:0:
160,36,301436,1,0,0:0:0:0:
316,52,301618,38,0,L|464:156,1,180,2|0,0:0|0:0,0:0:0:0:
488,172,302072,1,0,0:0:0:0:
512,188,302163,1,0,0:0:0:0:
396,240,302345,1,0,0:0:0:0:
410,264,302436,1,0,0:0:0:0:
425,289,302527,1,0,0:0:0:0:
296,280,302709,1,0,0:0:0:0:
297,308,302799,1,0,0:0:0:0:
299,338,302890,1,0,0:0:0:0:
160,348,303072,5,2,0:0:0:0:
160,348,303163,1,2,0:0:0:0:
160,348,303254,2,0,L|211:274,1,90,4|0,0:0|0:0,0:0:0:0:
104,360,304527,5,0,0:0:0:0:
104,360,304618,1,0,0:0:0:0:
104,360,304709,2,0,L|155:286,1,90,4|0,0:0|0:0,0:0:0:0:
52,372,305254,37,0,0:0:0:0:
52,372,305436,2,0,L|103:298,1,90,4|0,0:0|0:0,0:0:0:0:
0,384,305981,5,0,0:0:0:0:
157,205,306163,6,0,L|76:336,1,148.50000453186
207,126,306527,2,0,P|137:132|44:164,1,161.999995056153,0|0,0:0|0:0,0:0:0:0:
304,105,306890,2,0,P|264:60|144:28,1,175.499991966248
392,160,307254,2,0,B|420:100|384:44|384:44|428:44|460:76,1,188.999994232178
432,244,307618,37,8,0:0:0:0:
400,260,307709,1,8,0:0:0:0:
363,264,307799,1,8,0:0:0:0:
329,252,307890,1,8,0:0:0:0:
297,233,307981,1,0,0:0:0:0:
265,217,308072,1,8,0:0:0:0:
232,203,308163,1,8,0:0:0:0:
196,198,308254,1,8,0:0:0:0:
164,208,308345,38,0,P|126:230|112:248,1,67.5000025749208,8|0,0:0|0:0,0:0:0:0:
279,149,308527,2,0,P|279:115|268:83,1,67.5000025749208,0|0,0:0|0:0,0:0:0:0:
268,280,308709,2,0,P|296:296|329:302,1,67.5000025749208,2|0,0:2|0:0,3:0:0:0:
396,136,308890,1,0,0:0:0:0:
296,44,309072,22,0,P|228:40|172:72,1,135.000005149842,4|0,0:0|0:0,0:0:0:0:
124,272,309436,1,2,0:0:0:0:
220,368,309618,2,0,P|256:344|272:320,1,67.5000025749208,0|0,0:0|0:0,0:0:0:0:
299,263,309799,2,0,B|332:244|332:244|366:266|428:240,1,135.000005149842,0|8,0:0|0:0,0:0:0:0:
444,32,310163,2,0,P|436:129|453:161,1,135.000005149842,2|8,0:0|0:0,0:0:0:0:
324,124,310527,6,0,B|276:161|276:161|228:92|152:124,1,202.500007724762,0|0,0:0|0:0,0:0:0:0:
196,208,310890,2,0,B|168:236|168:236|200:280|188:332,1,135.000005149842,2|8,0:0|0:0,0:0:0:0:
92,304,311163,1,0,0:0:0:0:
92,304,311254,1,0,0:0:0:0:
196,208,311436,1,8,0:0:0:0:
296,384,311618,1,2,0:0:0:0:
400,244,311799,2,0,P|404:210|397:178,1,67.5000025749208,0|0,0:0|2:0,0:0:0:0:
364,120,311981,6,0,P|252:64|128:96,1,202.500007724762,8|0,0:0|0:0,0:0:0:0:
84,128,312345,2,0,B|116:100|116:100|136:144|196:140,1,135.000005149842,2|8,0:0|0:0,0:0:0:0:
364,120,312709,1,0,0:0:0:0:
208,348,312890,2,0,P|206:281|236:221,1,135.000005149842,8|2,0:0|0:0,0:0:0:0:
487,43,313254,2,0,P|482:76|471:108,1,67.5000025749208,0|0,0:0|0:0,0:0:0:0:
440,168,313436,38,0,P|382:202|315:206,1,135.000005149842,8|0,0:0|0:0,0:0:0:0:
212,120,313799,1,2,0:0:0:0:
308,300,313981,1,0,0:0:0:0:
248,328,314072,1,2,0:0:0:0:
184,344,314163,2,0,P|120:344|52:308,1,135.000005149842,8|0,0:0|0:0,0:0:0:0:
28,152,314527,2,0,P|24:188|36:224,1,67.5000025749208,2|2,0:0|0:0,0:0:0:0:
128,116,314709,2,0,P|112:140|103:178,1,67.5000025749208,2|0,0:0|0:0,0:0:0:0:
184,176,314890,6,0,P|251:205|335:189,1,135.000005149842,0|0,0:0|0:0,0:0:0:0:
425,115,315254,1,2,0:0:0:0:
296,3,315436,1,0,0:0:0:0:
276,66,315527,1,0,0:0:0:0:
280,132,315618,2,0,P|311:202|359:243,1,135.000005149842,0|8,0:0|0:0,0:0:0:0:
480,156,315981,2,0,B|502:176|502:176|495:236|452:272,1,135.000005149842,2|8,0:0|0:0,0:0:0:0:
396,296,316254,1,0,0:0:0:0:
332,312,316345,6,0,B|300:352|300:352|252:300|160:332,1,202.500007724762,0|0,0:0|0:0,0:0:0:0:
276,244,316709,2,0,P|203:238|144:252,1,135.000005149842,2|8,0:0|0:0,0:0:0:0:
20,304,317072,1,0,0:0:0:0:
61,107,317254,1,8,0:0:0:0:
116,144,317345,1,0,0:0:0:0:
180,160,317436,2,0,P|252:161|328:114,1,135.000005149842,2|0,0:0|0:0,0:0:0:0:
280,72,317709,1,2,0:0:0:0:
220,44,317799,38,0,P|180:160|196:236,1,202.500007724762,0|0,0:0|0:0,0:0:0:0:
218,300,318163,2,0,B|230:332|230:332|270:316|334:344,1,135.000005149842,2|0,0:0|0:0,0:0:0:0:
429,382,318527,1,0,0:0:0:0:
488,120,318709,1,8,0:0:0:0:
349,230,318889,1,2,0:0:0:0:
256,72,319072,6,0,P|323:84|373:124,1,135.000005149842,8|0,0:0|0:0,0:0:0:0:
200,216,319436,1,0,0:0:0:0:
304,240,319618,2,0,P|260:292|200:316,1,135.000005149842,2|0,0:0|0:0,0:0:0:0:
200,216,319890,1,2,0:0:0:0:
200,216,319981,2,0,B|173:234|144:235|144:235|121:187|101:172,1,135.000005149842,0|8,0:0|0:0,0:0:0:0:
80,344,320345,1,2,0:0:0:0:
120,320,320436,1,2,0:0:0:0:
168,316,320527,1,2,0:0:0:0:
216,328,320618,1,2,0:0:0:0:
246,358,320709,6,0,B|271:379|271:379|301:344|366:345,1,135.000005149842,4|0,0:0|0:0,0:0:0:0:
400,172,321072,1,2,0:0:0:0:
214,71,321254,1,8,0:0:0:0:
224,137,321345,1,0,0:0:0:0:
224,204,321436,2,0,P|212:276|180:328,1,135.000005149842,0|8,0:0|0:0,0:0:0:0:
38,191,321799,2,0,P|106:165|167:167,1,135.000005149842,2|8,0:0|0:0,0:0:0:0:
224,204,322072,1,2,0:0:0:0:
268,256,322163,38,0,B|332:268|400:216|400:216|432:272,1,202.500007724762
429,268,322527,1,2,0:0:0:0:
332,172,322709,2,0,P|344:104|388:56,1,135.000005149842,8|0,0:0|0:0,0:0:0:0:
234,158,323072,1,8,0:0:0:0:
172,180,323163,1,0,0:0:0:0:
106,173,323254,1,2,0:0:0:0:
44,316,323436,2,0,P|80:328|112:328,1,67.5000025749208,0|2,0:0|0:0,0:0:0:0:
176,316,323618,6,0,P|232:284|276:160,1,202.500007724762
196,220,323981,2,0,P|232:276|296:296,1,135.000005149842,2|8,0:0|0:0,0:0:0:0:
380,104,324345,2,0,P|320:73|248:84,1,135.000005149842,0|0,0:0|0:0,0:0:0:0:
300,188,324709,1,2,0:0:0:0:
388,0,324890,1,8,0:0:0:0:
388,0,324981,1,0,0:0:0:0:
388,0,325072,6,0,P|456:12|504:56,1,135.000005149842,0|8,0:0|0:0,0:0:0:0:
312,248,325436,2,0,P|324:179|368:132,1,135.000005149842,2|0,0:0|0:0,0:0:0:0:
410,186,325709,1,2,0:0:0:0:
439,246,325799,2,0,P|427:314|383:362,1,135.000005149842,8|0,0:0|0:0,0:0:0:0:
116,316,326163,2,0,P|152:340|176:344,1,67.5000025749208,2|2,0:0|0:0,0:0:0:0:
136,212,326345,2,0,P|155:250|173:266,1,67.5000025749208,2|0,0:0|0:0,0:0:0:0:
205,131,326527,38,0,B|200:176|216:196|216:196|264:164|348:192,1,202.500007724762
268,56,326890,2,0,B|256:80|256:80|296:124|260:184,1,135.000005149842,2|0,0:0|0:0,0:0:0:0:
116,316,327254,1,8,0:0:0:0:
0,184,327436,2,0,P|40:172|68:172,1,67.5000025749208,0|0,0:0|0:0,0:0:0:0:
132,176,327618,2,0,P|200:196|244:240,1,135.000005149842,2|0,0:0|0:0,0:0:0:0:
268,56,327981,5,8,0:0:0:0:
96,140,328163,1,2,0:0:0:0:
78,204,328254,1,0,0:0:0:0:
89,270,328345,2,0,P|149:302|213:294,1,135.000005149842,2|8,0:0|0:0,0:0:0:0:
256,168,328709,1,0,0:0:0:0:
325,321,328891,1,2,0:0:0:0:
378,281,328981,1,0,0:0:0:0:
404,220,329073,2,0,B|375:171|401:116|401:116|388:91,1,135.000005149842,2|8,0:0|0:0,0:0:0:0:
352,32,329345,5,0,0:0:0:0:
352,32,329436,2,0,P|293:64|260:122,1,135.000005149842,4|0,0:0|0:0,0:0:0:0:
159,351,329799,2,0,P|218:319|251:261,1,135.000005149842,2|8,0:0|0:0,0:0:0:0:
96,97,330163,2,0,P|129:154|187:188,1,135.000005149842,0|8,0:0|0:0,0:0:0:0:
416,216,330527,1,2,0:0:0:0:
304,76,330709,1,8,0:0:0:0:
142,300,330890,21,4,0:2:0:0:
201,278,330981,1,0,3:0:0:0:
233,223,331072,1,2,0:0:0:0:
228,160,331163,1,0,0:0:0:0:
196,107,331254,2,0,L|140:24,1,67.5000025749208,2|0,0:0|0:0,0:0:0:0:
315,275,331436,2,0,L|372:356,1,67.5000025749208
154,176,331618,2,0,L|56:164,1,67.5000025749208,0|0,0:0|0:0,0:0:0:0:
357,207,331799,2,0,L|456:220,1,67.5000025749208,0|0,3:0|0:0,0:0:0:0:
319,118,331981,53,2,0:0:0:0:
250,150,332072,1,2,0:0:0:0:
212,215,332163,1,2,0:0:0:0:
225,289,332254,1,0,0:0:0:0:
280,340,332345,22,0,P|344:320|384:268,1,135.000005149842,4|2,0:0|0:0,0:0:0:0:
356,80,332709,1,2,0:0:0:0:
184,164,332890,1,2,0:0:0:0:
236,176,332981,1,2,0:0:0:0:
288,188,333072,2,0,B|312:224|312:224|292:272|220:264,1,135.000005149842,8|8,0:0|0:0,0:0:0:0:
100,264,333436,1,2,0:0:0:0:
88,212,333527,1,0,0:0:0:0:
76,160,333618,1,2,0:0:0:0:
288,76,333799,5,8,0:0:0:0:
392,164,333981,1,2,0:0:0:0:
340,176,334072,1,0,0:0:0:0:
288,188,334163,2,0,P|272:256|288:320,1,135.000005149842,2|2,0:0|0:0,0:0:0:0:
388,112,334527,1,8,0:0:0:0:
340,88,334618,1,2,0:0:0:0:
288,76,334709,2,0,L|220:68,1,67.5000025749208,8|0,0:0|0:0,0:0:0:0:
116,124,334890,2,0,L|104:192,1,67.5000025749208,2|0,0:0|0:0,0:0:0:0:
200,240,335072,2,0,L|212:172,1,67.5000025749208,2|0,0:0|0:0,0:0:0:0:
124,312,335254,6,0,B|152:336|152:336|212:352|252:328,1,135.000005149842,8|2,0:0|0:0,0:0:0:0:
388,112,335618,1,2,0:0:0:0:
464,264,335799,1,2,0:0:0:0:
412,276,335890,1,0,0:0:0:0:
360,288,335981,2,0,L|292:304,1,67.5000025749208,8|2,0:0|0:0,0:0:0:0:
304,188,336163,2,0,L|236:204,1,67.5000025749208,8|0,0:0|0:0,0:0:0:0:
172,217,336345,2,0,P|108:181|96:125,1,135.000005149842,2|2,0:0|0:0,0:0:0:0:
124,312,336709,37,8,0:0:0:0:
180,136,336890,1,2,0:0:0:0:
356,80,337072,1,2,0:0:0:0:
376,112,337163,1,0,0:0:0:0:
288,188,337345,1,2,0:0:0:0:
308,220,337436,1,8,0:0:0:0:
220,296,337618,1,8,0:0:0:0:
76,100,337799,1,2,0:0:0:0:
76,236,337981,1,2,0:0:0:0:
248,64,338163,6,0,B|260:96|260:96|320:84|360:128,1,135.000005149842,8|2,0:0|0:0,0:0:0:0:
344,296,338527,1,2,0:0:0:0:
124,140,338709,1,2,0:0:0:0:
140,184,338799,1,2,0:0:0:0:
140,232,338890,2,0,B|132:268|132:268|168:308|220:296,1,135.000005149842,8|8,0:0|0:0,0:0:0:0:
400,92,339254,1,2,0:0:0:0:
388,60,339345,1,0,0:0:0:0:
376,28,339436,1,2,0:0:0:0:
344,296,339618,6,0,B|329:326|329:326|228:344,1,135.000005149842,8|2,0:0|0:0,0:0:0:0:
124,140,339981,2,0,B|138:109|138:109|240:92,1,135.000005149842,2|2,0:0|0:0,0:0:0:0:
444,224,340345,1,8,0:0:0:0:
448,172,340436,1,2,0:0:0:0:
444,120,340527,1,8,0:0:0:0:
244,144,340709,1,2,0:0:0:0:
280,184,340799,1,0,0:0:0:0:
328,208,340890,2,0,L|324:276,1,67.5000025749208,2|0,0:0|0:0,0:0:0:0:
270,315,341072,38,0,B|234:315|234:315|226:263|190:223,1,135.000005149842,8|2,0:0|0:0,0:0:0:0:
60,324,341436,1,2,0:0:0:0:
208,84,341618,1,2,0:0:0:0:
168,76,341709,1,2,0:0:0:0:
128,64,341799,2,0,L|64:44,1,67.5000025749208,8|0,0:0|0:0,0:0:0:0:
188,164,341981,2,0,L|252:184,1,67.5000025749208,8|0,0:0|0:0,0:0:0:0:
108,144,342163,2,0,L|88:208,1,67.5000025749208,2|0,0:0|0:0,0:0:0:0:
208,84,342345,2,0,L|228:20,1,67.5000025749208
376,160,342527,6,0,B|352:180|352:180|352:248|296:276,1,135.000005149842,8|0,0:0|0:0,0:0:0:0:
316,92,342890,1,2,0:0:0:0:
316,92,342981,1,0,0:0:0:0:
456,256,343163,1,2,0:0:0:0:
456,256,343254,1,8,0:0:0:0:
416,44,343436,1,8,0:0:0:0:
252,184,343618,2,0,L|296:236,1,67.5000025749208,2|0,0:0|0:0,0:0:0:0:
376,160,343799,2,0,L|332:108,1,67.5000025749208,10|0,0:0|0:0,0:0:0:0:
332,280,343981,6,0,B|324:316|324:316|272:312|272:312|216:312,1,135.000005149842,4|2,0:0|0:0,0:0:0:0:
144,140,344345,1,2,0:0:0:0:
72,220,344527,1,2,0:0:0:0:
112,248,344618,1,2,0:0:0:0:
160,256,344709,2,0,P|228:240|252:184,1,135.000005149842,8|8,0:0|0:0,0:0:0:0:
368,116,345072,1,2,0:0:0:0:
348,72,345163,1,0,0:0:0:0:
316,36,345254,1,2,0:0:0:0:
176,180,345436,38,0,L|264:300,1,135.000005149842,8|2,0:0|0:0,0:0:0:0:
368,116,345799,1,2,0:0:0:0:
404,148,345890,1,0,0:0:0:0:
448,164,345981,1,2,0:0:0:0:
364,220,346163,1,8,0:0:0:0:
380,264,346254,1,2,0:0:0:0:
420,288,346345,1,8,0:0:0:0:
284,272,346527,2,0,L|264:208,1,67.5000025749208,2|0,0:0|0:0,0:0:0:0:
176,180,346709,2,0,L|196:244,1,67.5000025749208,2|0,0:0|0:0,0:0:0:0:
144,320,346890,6,0,P|88:280|72:216,1,135.000005149842,8|2,0:0|0:0,0:0:0:0:
108,88,347254,2,0,B|132:64|132:64|176:88|236:84,1,135.000005149842,2|2,0:0|0:0,0:0:0:0:
364,220,347618,1,8,0:0:0:0:
392,192,347709,1,2,0:0:0:0:
400,152,347799,1,8,0:0:0:0:
284,272,347981,2,0,B|312:300|312:300|408:300,1,135.000005149842,2|2,0:0|0:0,0:0:0:0:
264,136,348345,6,0,B|240:136|240:136|212:200|160:220,1,135.000005149842,8|2,0:0|0:0,0:0:0:0:
108,88,348709,1,2,0:0:0:0:
96,64,348799,1,0,0:0:0:0:
44,188,348981,1,2,0:0:0:0:
56,212,349071,1,8,0:0:0:0:
112,336,349254,1,8,0:0:0:0:
236,280,349436,1,2,0:0:0:0:
180,156,349619,1,2,0:0:0:0:
444,200,349799,38,0,B|444:236|444:236|432:284|368:308,1,135.000005149842,8|2,0:0|0:0,0:0:0:0:
316,168,350163,1,2,0:0:0:0:
240,56,350345,1,0,0:0:0:0:
208,80,350436,1,2,0:0:0:0:
188,116,350527,1,8,0:0:0:0:
196,288,350709,1,8,0:0:0:0:
156,280,350799,1,0,0:0:0:0:
124,256,350890,2,0,L|76:208,1,67.5000025749208,2|0,0:0|0:0,0:0:0:0:
188,200,351072,2,0,L|140:152,1,67.5000025749208,2|0,0:0|0:0,0:0:0:0:
252,144,351254,6,0,B|228:120|228:120|272:96|332:88,1,135.000005149842,8|2,0:0|0:0,0:0:0:0:
276,256,351618,1,2,0:0:0:0:
316,248,351709,1,0,0:0:0:0:
356,252,351799,1,2,0:0:0:0:
216,340,351981,1,8,0:0:0:0:
176,304,352072,1,2,0:0:0:0:
160,252,352163,2,0,L|156:184,1,67.5000025749208,8|0,0:0|0:0,0:0:0:0:
252,144,352345,2,0,L|256:212,1,67.5000025749208,2|0,0:0|0:0,0:0:0:0:
112,120,352527,2,0,L|108:52,1,67.5000025749208,2|0,0:0|0:0,0:0:0:0:
296,36,352709,6,0,P|352:72|396:124,1,135.000005149842,8|2,0:0|0:0,0:0:0:0:
372,320,353072,2,0,P|316:284|272:232,1,135.000005149842,2|2,0:0|0:0,0:0:0:0:
140,108,353436,21,0,0:0:0:0:
132,148,353527,1,2,0:0:0:0:
132,188,353618,1,8,0:0:0:0:
364,80,353799,1,2,2:0:0:0:
332,56,353890,1,0,2:0:0:0:
296,36,353981,1,2,2:0:0:0:
276,188,354163,53,8,0:0:0:0:
296,228,354254,1,2,0:0:0:0:
316,268,354345,1,2,0:0:0:0:
196,324,354527,1,10,0:0:0:0:
164,356,354618,1,2,0:0:0:0:
120,364,354709,1,2,0:0:0:0:
80,344,354799,1,2,0:0:0:0:
68,300,354890,5,8,0:0:0:0:
76,268,354981,1,2,0:0:0:0:
84,236,355072,1,8,0:0:0:0:
92,204,355163,1,0,0:0:0:0:
100,172,355254,1,4,0:0:0:0:
8,110,355436,1,2,0:0:0:0:
80,28,355618,6,0,P|168:40|208:132,1,180,4|2,0:0|0:0,0:0:0:0:
179,286,356163,1,2,0:0:0:0:
88,227,356345,2,0,P|47:210|20:176,1,90,0|8,0:0|0:0,0:0:0:0:
180,188,356709,2,0,P|221:204|248:239,1,90,2|2,0:0|0:0,0:0:0:0:
308,364,357072,5,8,0:0:0:0:
437,318,357254,1,2,0:0:0:0:
468,184,357436,1,2,0:0:0:0:
380,77,357618,1,2,0:0:0:0:
244,52,357799,2,0,P|200:56|159:75,1,90,0|8,0:0|0:0,0:0:0:0:
34,205,358163,2,0,P|74:223|119:227,1,90,2|2,0:0|0:0,0:0:0:0:
279,155,358527,6,0,P|322:167|361:189,1,90,0|2,0:0|0:0,0:0:0:0:
192,250,358890,2,0,L|154:331,1,90,2|2,0:0|0:0,0:0:0:0:
323,270,359254,2,0,L|361:189,1,90,0|8,0:0|0:0,0:0:0:0:
244,337,359618,2,0,L|155:332,1,90,2|2,0:0|0:0,0:0:0:0:
252,207,359981,37,8,0:0:0:0:
315,94,360163,1,2,0:0:0:0:
444,85,360345,1,2,0:0:0:0:
395,205,360527,1,2,0:0:0:0:
395,205,360618,1,2,0:0:0:0:
395,205,360709,1,8,0:0:0:0:
384,312,360890,2,0,P|347:337|304:348,2,90,8|2|2,0:0|0:0|0:0,0:0:0:0:
304,348,361436,5,8,0:0:0:0:
176,264,361618,1,2,0:0:0:0:
104,148,361800,1,2,0:0:0:0:
240,148,361981,1,2,0:0:0:0:
272,260,362163,2,0,P|264:305|220:364,1,90,0|8,0:0|0:0,0:0:0:0:
168,176,362527,2,0,P|145:137|139:92,1,90,2|2,0:0|0:0,0:0:0:0:
287,132,362890,6,0,P|331:124|391:140,1,90,8|2,0:0|0:0,0:0:0:0:
272,262,363254,2,0,P|241:229|238:168,1,90,2|2,0:0|0:0,0:0:0:0:
387,258,363618,1,0,0:0:0:0:
271,262,363799,1,8,0:0:0:0:
151,239,363981,1,2,0:0:0:0:
34,205,364163,1,2,0:0:0:0:
53,84,364345,38,0,P|99:96|135:143,1,90,8|2,0:0|0:0,0:0:0:0:
214,216,364709,2,0,P|252:197|294:141,1,90,2|2,0:0|0:0,0:0:0:0:
410,119,365072,2,0,P|380:85|329:73,1,90,0|8,0:0|0:0,0:0:0:0:
179,74,365436,1,2,0:0:0:0:
55,171,365618,1,2,0:0:0:0:
106,311,365799,6,0,B|184:295|186:241|292:215,1,180,8|2,0:0|0:0,0:0:0:0:
325,336,366345,1,2,0:0:0:0:
333,337,366436,1,2,0:0:0:0:
341,338,366527,2,0,P|388:325|444:265,1,90,8|8,0:0|0:0,0:0:0:0:
471,209,366890,1,2,0:0:0:0:
426,116,367072,1,10,0:0:0:0:
350,47,367254,6,0,B|274:63|272:117|194:133,1,180,4|2,0:0|0:0,0:0:0:0:
127,29,367799,1,2,0:0:0:0:
48,133,367981,2,0,P|41:180|56:236,1,90,0|8,0:0|0:0,0:0:0:0:
190,349,368345,2,0,P|198:305|191:260,1,90,2|2,0:0|0:0,0:0:0:0:
105,309,368709,37,8,0:0:0:0:
127,201,368890,1,2,0:0:0:0:
215,134,369072,1,2,0:0:0:0:
284,46,369254,1,2,0:0:0:0:
146,46,369436,5,0,0:0:0:0:
215,134,369617,1,8,0:0:0:0:
303,201,369799,1,2,0:0:0:0:
325,309,369981,1,2,0:0:0:0:
454,284,370163,6,0,P|444:241|398:200,1,90,8|2,0:0|0:0,0:0:0:0:
262,124,370527,2,0,P|272:168|303:201,1,90,2|2,0:0|0:0,0:0:0:0:
292,46,370890,2,0,P|245:44|198:73,1,90,0|8,0:0|0:0,0:0:0:0:
139,204,371254,2,0,P|99:223|53:228,1,90,2|2,0:0|0:0,0:0:0:0:
76,53,371618,37,8,0:0:0:0:
199,114,371799,1,2,0:0:0:0:
331,74,371981,1,2,0:0:0:0:
456,135,372163,1,2,0:0:0:0:
462,141,372254,1,2,0:0:0:0:
469,146,372345,2,0,P|465:196|440:237,1,90,8|8,0:0|0:0,0:0:0:0:
322,328,372709,2,0,P|272:334|200:326,1,90,2|2,0:0|0:0,0:0:0:0:
326,206,373072,5,8,0:0:0:0:
326,206,373254,1,2,0:0:0:0:
162,164,373436,1,2,0:0:0:0:
162,164,373618,1,2,0:0:0:0:
326,111,373799,2,0,L|420:53,1,90,0|8,0:0|0:0,0:0:0:0:
239,15,374163,2,0,L|162:62,1,90,2|2,0:0|0:0,0:0:0:0:
35,139,374527,6,0,L|126:226,1,90,8|2,0:0|0:0,0:0:0:0:
164,360,374890,2,0,L|73:273,1,90,2|2,0:0|0:0,0:0:0:0:
162,164,375254,1,0,0:0:0:0:
280,64,375436,1,8,0:0:0:0:
428,128,375618,2,0,L|428:220,1,90,2|2,0:0|0:0,0:0:0:0:
428,372,375981,1,12,0:0:0:0:
256,192,376072,12,4,378890,0:0:0:0:
413,198,379072,21,0,0:0:0:0:
372,95,379254,2,0,L|259:149,1,90,2|0,0:0|0:0,0:0:0:0:
192,184,379618,1,0,0:0:0:0:
229,276,379799,1,8,0:0:0:0:
137,313,379981,1,2,0:0:0:0:
98,220,380163,1,0,0:0:0:0:
144,104,380345,53,8,0:0:0:0:
256,48,380527,2,8,L|388:48,1,90
444,152,380890,1,8,0:0:0:0:
444,152,380981,1,8,0:0:0:0:
444,152,381072,2,8,L|444:252,1,90,8|0,0:0|0:0,0:0:0:0:
