osu file format v12

[General]
AudioFilename: Chasers - Lost.mp3
AudioLeadIn: 2000
PreviewTime: 115781
Countdown: 0
SampleSet: Normal
StackLeniency: 0.7
Mode: 0
LetterboxInBreaks: 0
WidescreenStoryboard: 0

[Editor]
DistanceSpacing: 1
BeatDivisor: 4
GridSize: 8
TimelineZoom: 1

[Metadata]
Title:Lost
TitleUnicode:Lost
Artist:Chasers
ArtistUnicode:Chasers
Creator:ktgster
Version:Hard
Source:
Tags:hardcore
BeatmapID:374113
BeatmapSetID:151878

[Difficulty]
HPDrainRate:5
CircleSize:4
OverallDifficulty:6
ApproachRate:7
SliderMultiplier:1.5
SliderTickRate:2

[Events]
//Background and Video events
0,0,"BG.png",0,0
//Break Periods
2,48383,55577
//Storyboard Layer 0 (Background)
//Storyboard Layer 1 (Fail)
//Storyboard Layer 2 (Pass)
//Storyboard Layer 3 (Foreground)
//Storyboard Sound Samples
//Background Colour Transformations
3,100,163,162,255

[TimingPoints]
7,352.941176470588,4,1,0,50,1,0
11124,-100,4,1,0,60,0,0
22595,-100,4,1,0,70,0,0
45271,-100,4,2,0,60,0,0
46595,-100,4,2,0,50,0,0
47654,-100,4,2,0,30,0,0
48183,-100,4,2,0,5,0,0
56477,-200,4,2,0,50,0,0
56521,-200,4,2,0,20,0,0
58242,-200,4,2,0,50,0,0
59345,-200,4,2,0,20,0,0
60359,-200,4,2,0,50,0,0
60448,-200,4,2,0,20,0,0
60712,-200,4,2,0,30,0,0
62124,-200,4,2,0,40,0,0
64948,-200,4,2,0,50,0,0
67771,-166.666666666667,4,2,0,60,0,0
73418,-142.857142857143,4,2,0,70,0,0
79065,-125,4,2,0,80,0,0
84712,-111.111111111111,4,2,0,90,0,0
90359,-111.111111111111,4,2,0,25,0,0
91595,-111.111111111111,4,2,0,5,0,0
91771,-100,4,1,0,60,0,0
93095,-100,4,2,0,50,0,0
94418,-100,4,1,0,60,0,0
95918,-100,4,2,0,50,0,0
97242,-100,4,1,0,60,0,0
98742,-100,4,2,0,50,0,0
100065,-100,4,1,0,60,0,0
101565,-100,4,2,0,50,0,0
102889,-100,4,1,0,70,0,0
114359,-100,4,1,0,60,0,0
115771,-100,4,1,0,70,0,1
138315,-100,4,1,0,80,0,0
138359,-100,4,1,0,70,0,1
159536,-100,4,1,0,60,0,0
160154,-100,4,1,0,70,0,0
160948,-100,4,1,0,80,0,1
160992,-100,4,1,0,70,0,0
183536,-111.111111111111,4,1,0,50,0,0
194830,-111.111111111111,4,1,0,60,0,0

[Colours]
Combo1 : 17,177,255
Combo2 : 165,209,209
Combo3 : 255,128,64
Combo4 : 217,217,0

[HitObjects]
42,80,7,6,0,B|148:11|148:135|255:65,1,225,4|0,0:0|0:0,0:0:0:0:
317,105,712,2,0,L|296:254,1,150,4|0,0:3|0:0,0:0:0:0:
351,304,1242,1,0,0:0:0:0:
424,287,1418,5,4,0:3:0:0:
129,228,2124,1,4,0:3:0:0:
400,100,2830,6,0,P|371:51|217:51,1,225,4|0,0:3|0:0,0:0:0:0:
171,107,3536,2,0,L|192:268,1,150,4|0,0:3|0:0,0:0:0:0:
165,326,4065,1,0,0:0:0:0:
91,343,4242,5,4,0:3:0:0:
146,48,4948,1,4,0:3:0:0:
444,74,5654,6,0,P|466:171|365:197,1,225,4|0,0:3|0:0,0:0:0:0:
309,147,6359,1,4,0:3:0:0:
159,131,6712,1,0,0:0:0:0:
185,202,6889,1,0,0:0:0:0:
112,189,7065,6,0,P|160:274|257:224,1,225,4|0,0:3|0:0,0:0:0:0:
241,153,7771,1,4,0:3:0:0:
338,267,8124,1,0,0:0:0:0:
445,162,8477,6,0,P|457:101|316:65,1,225,4|0,0:3|0:0,0:0:0:0:
279,107,9183,1,4,0:3:0:0:
301,255,9536,1,0,0:0:0:0:
237,292,9712,1,0,0:0:0:0:
163,276,9889,6,0,P|112:243|168:113,1,225,4|0,0:3|0:0,0:0:0:0:
235,121,10595,1,4,0:3:0:0:
302,254,10948,1,0,0:0:0:0:
302,254,11301,6,0,L|397:270,1,75,4|0,0:2|0:0,0:0:0:0:
446,241,11654,2,0,P|463:186|436:84,2,150,2|2|2,0:2|0:2|0:2,0:0:0:0:
311,174,12712,6,0,L|216:190,1,75,2|0,0:2|2:0,0:0:0:0:
167,161,13065,2,0,P|150:106|177:4,2,150,2|2|2,0:2|0:2|0:2,0:0:0:0:
91,291,14124,5,2,0:2:0:0:
162,266,14301,1,0,0:0:0:0:
214,319,14477,2,0,P|263:330|376:278,2,150,2|2|2,0:2|0:2|0:2,0:0:0:0:
295,192,15536,5,2,0:2:0:0:
224,167,15712,1,0,2:0:0:0:
172,220,15889,2,0,P|123:231|10:179,2,150,2|2|2,0:2|0:2|0:2,0:0:0:0:
282,119,16948,5,2,0:2:0:0:
351,90,17124,1,2,0:2:0:0:
425,101,17301,1,2,0:2:0:0:
475,156,17477,1,2,0:2:0:0:
495,228,17654,2,0,L|476:324,1,75,2|2,0:2|0:2,0:0:0:0:
405,308,18006,2,0,L|424:212,1,75,2|2,0:2|0:2,0:0:0:0:
374,174,18359,5,2,0:2:0:0:
305,145,18536,1,2,0:2:0:0:
231,156,18712,1,2,0:2:0:0:
181,211,18889,1,2,0:2:0:0:
161,283,19065,2,0,L|180:379,1,75,2|2,0:2|0:2,0:0:0:0:
250,363,19418,2,0,L|234:281,1,75,2|2,0:2|0:2,0:0:0:0:
282,229,19771,6,0,L|342:222,3,37.5,2|2|2|2,0:2|0:2|0:2|0:2,0:0:0:0:
333,212,20124,2,0,L|393:205,3,37.5,2|2|2|2,0:2|0:2|0:2|0:2,0:0:0:0:
380,192,20477,2,0,L|440:185,3,37.5,2|2|2|2,0:2|0:2|0:2|0:2,0:0:0:0:
431,175,20830,2,0,L|491:168,3,37.5,2|2|2|2,0:2|0:2|0:2|0:2,0:0:0:0:
483,159,21183,5,4,0:3:0:0:
484,159,22418,1,4,0:3:0:0:
433,79,22595,6,0,P|384:71|295:141,1,150,4|4,0:0|0:3,0:0:0:0:
275,200,23124,1,0,0:2:0:0:
251,279,23301,2,0,L|160:276,1,75,4|0,0:3|0:0,0:0:0:0:
102,314,23654,1,4,0:3:0:0:
67,239,23830,1,0,0:0:0:0:
10,179,24006,6,0,P|79:157|146:218,1,150,4|4,0:3|0:3,0:0:0:0:
173,273,24536,1,0,0:0:0:0:
226,335,24712,2,0,P|296:352|357:312,1,150,4|4,0:3|0:3,0:0:0:0:
440,164,25418,6,0,L|406:78,1,75,4|0,0:3|0:0,0:0:0:0:
340,52,25771,1,4,0:3:0:0:
340,52,25948,1,0,0:0:0:0:
272,99,26124,2,0,P|227:109|179:91,1,75,4|0,0:3|0:0,0:0:0:0:
117,113,26477,1,4,0:3:0:0:
78,186,26654,1,0,0:0:0:0:
91,267,26830,6,0,P|125:289|206:232,1,150,4|4,0:3|0:3,0:0:0:0:
256,171,27359,1,0,0:0:0:0:
306,235,27536,2,0,P|353:288|421:267,1,150,4|4,0:3|0:3,0:0:0:0:
411,101,28242,5,4,0:3:0:0:
332,124,28418,1,0,0:0:0:0:
353,43,28595,2,0,L|278:31,1,75,4|0,0:3|0:0,0:0:0:0:
177,144,28948,2,0,L|275:129,1,75,4|0,0:3|0:0,0:0:0:0:
299,199,29301,1,4,0:3:0:0:
260,271,29477,1,0,0:0:0:0:
342,270,29654,6,0,P|317:329|233:349,1,150,4|4,0:3|0:3,0:0:0:0:
181,291,30183,1,0,0:0:0:0:
204,212,30359,2,0,P|172:146|101:131,1,150,4|4,0:3|0:3,0:0:0:0:
24,276,31065,6,0,L|126:286,1,75,4|0,0:3|0:0,0:0:0:0:
181,291,31418,1,4,0:3:0:0:
181,291,31595,1,0,0:0:0:0:
251,247,31771,2,0,P|261:199|250:149,1,75,4|0,0:3|0:0,0:0:0:0:
212,104,32124,1,4,0:3:0:0:
266,41,32301,1,0,0:0:0:0:
317,104,32477,6,0,P|357:126|462:91,1,150,4|4,0:3|0:3,0:0:0:0:
494,172,33006,1,0,0:0:0:0:
462,248,33183,2,0,P|394:219|325:245,1,150,4|4,0:3|0:3,0:0:0:0:
165,309,33889,5,4,0:3:0:0:
108,249,34065,1,0,0:0:0:0:
158,183,34242,2,0,P|168:137|156:87,1,75,4|0,0:3|0:0,0:0:0:0:
102,55,34595,1,4,0:3:0:0:
180,29,34771,1,0,0:0:0:0:
243,81,34948,1,4,0:3:0:0:
251,162,35124,1,0,0:0:0:0:
220,238,35301,6,0,P|206:302|293:339,1,150,4|4,0:3|0:3,0:0:0:0:
338,301,35830,1,0,0:0:0:0:
405,348,36006,2,0,P|465:310|453:241,1,150,4|4,0:3|0:3,0:0:0:0:
293,39,36712,5,4,0:3:0:0:
236,99,36889,1,0,0:0:0:0:
153,104,37065,1,4,0:3:0:0:
90,158,37242,1,0,0:0:0:0:
71,238,37418,2,0,P|71:277|92:320,1,75,4|0,0:3|0:0,0:0:0:0:
163,335,37771,1,4,0:3:0:0:
221,275,37948,1,0,0:0:0:0:
289,321,38124,6,0,L|376:333,1,75,4|0,0:3|0:0,0:0:0:0:
433,287,38477,2,0,P|457:240|430:137,1,150,4|4,0:3|0:3,0:0:0:0:
360,122,39006,1,0,0:0:0:0:
281,147,39183,2,0,P|280:104|295:71,1,75,4|0,0:3|0:0,0:0:0:0:
367,41,39536,5,4,0:3:0:0:
435,86,39712,1,2,0:2:0:0:
461,164,39889,1,4,0:3:0:0:
432,241,40065,1,2,0:2:0:0:
353,267,40242,2,0,L|263:256,1,75,4|2,0:3|0:2,0:0:0:0:
167,342,40595,2,0,L|257:331,1,75,4|2,0:3|0:2,0:0:0:0:
253,182,40948,5,4,0:3:0:0:
180,143,41124,1,2,0:2:0:0:
105,180,41301,2,0,P|113:94|171:58,1,150,4|4,0:3|0:3,0:0:0:0:
239,85,41830,1,2,0:2:0:0:
309,42,42006,2,0,L|382:74,1,75,4|2,0:3|0:2,0:0:0:0:
467,228,42359,6,0,L|419:244,3,37.5,4|0|2|0,0:3|0:0|0:2|0:0,0:0:0:0:
414,232,42712,2,0,L|366:248,3,37.5,4|0|2|0,0:3|0:0|0:2|0:0,0:0:0:0:
363,234,43065,2,0,L|315:250,3,37.5,4|0|2|0,0:3|0:0|0:2|0:0,0:0:0:0:
310,238,43418,2,0,L|262:254,3,37.5,4|0|2|0,0:3|0:0|0:2|0:0,0:0:0:0:
250,238,43771,6,0,P|194:177|214:106,1,150,4|2,0:0|2:2,0:0:0:0:
344,57,44477,1,2,2:2:0:0:
456,156,44830,1,2,2:0:0:0:
446,230,45006,1,4,0:3:0:0:
431,303,45183,5,4,0:0:0:0:
256,192,45359,12,0,48183,2:0:0:0:
15,61,56477,6,0,B|78:130|155:81|231:31|304:108,1,300,2|0,0:0|0:0,0:0:0:0:
497,323,59301,2,0,B|434:254|357:303|281:353|208:276,1,300,2|0,0:0|0:0,0:0:0:0:
182,217,61065,1,0,0:0:0:0:
186,142,61418,1,2,0:0:0:0:
227,79,61771,1,2,0:0:0:0:
298,50,62124,6,0,L|375:64,1,75,2|0,0:0|0:0,0:0:0:0:
445,78,62830,1,2,0:0:0:0:
445,78,63183,1,2,0:0:0:0:
307,129,63536,2,0,L|380:142,1,75,2|2,0:0|0:0,0:0:0:0:
454,154,64242,1,2,0:0:0:0:
454,154,64595,1,2,0:0:0:0:
315,206,64948,6,0,L|392:220,1,75,2|0,0:0|0:0,0:0:0:0:
385,294,65654,2,0,L|308:280,1,75,0|2,0:0|0:0,0:0:0:0:
237,267,66359,1,2,0:0:0:0:
162,268,66712,1,0,0:0:0:0:
89,287,67065,2,0,P|91:244|108:216,1,75,2|2,0:0|0:0,0:0:0:0:
170,157,67771,5,4,1:0:0:0:
254,126,68124,2,0,L|354:141,2,89.9999972534181,2|2|0,0:0|0:0|0:0,0:0:0:0:
184,68,69183,2,0,L|84:83,1,89.9999972534181,2|0,0:0|0:0,0:0:0:0:
41,153,69889,1,0,0:0:0:0:
89,228,70242,1,2,0:0:0:0:
40,303,70595,6,0,P|78:318|137:306,1,89.9999972534181,2|2,0:0|0:0,0:0:0:0:
179,239,71301,1,0,0:0:0:0:
179,239,71654,1,2,0:0:0:0:
144,156,72006,2,0,P|182:141|241:153,1,89.9999972534181,2|0,0:0|0:0,0:0:0:0:
283,220,72712,1,0,0:0:0:0:
283,220,73065,1,2,0:0:0:0:
247,318,73418,6,0,L|366:328,1,104.999996795654,2|0,0:0|0:0,0:0:0:0:
447,283,74124,1,2,0:0:0:0:
403,187,74477,1,2,0:0:0:0:
473,108,74830,1,2,0:0:0:0:
369,87,75183,1,2,0:0:0:0:
278,140,75536,2,0,P|227:157|170:146,1,104.999996795654,2|2,0:0|0:0,0:0:0:0:
139,112,76065,1,0,0:0:0:0:
126,60,76242,5,2,0:0:0:0:
126,60,76595,1,2,0:0:0:0:
43,125,76948,1,0,0:0:0:0:
43,125,77301,1,2,0:0:0:0:
32,229,77654,2,0,L|60:338,1,104.999996795654,2|0,0:0|0:0,0:0:0:0:
162,343,78359,1,2,0:0:0:0:
249,285,78712,1,2,0:0:0:0:
352,346,79065,6,0,P|397:351|480:305,1,120,2|2,0:0|0:0,0:0:0:0:
494,255,79595,1,0,0:0:0:0:
444,203,79771,1,2,0:0:0:0:
442,130,79948,2,0,L|466:67,2,60,0|0|0,0:0|0:0|0:0,0:0:0:0:
381,168,80477,6,0,L|253:178,2,120,2|2|0,0:0|0:0|0:0,0:0:0:0:
454,263,81536,1,2,0:0:0:0:
354,329,81889,6,0,P|315:309|237:324,1,120,2|2,0:0|0:0,0:0:0:0:
176,351,82418,1,0,0:0:0:0:
114,313,82595,2,0,L|121:241,1,60,2|0,0:0|0:0,0:0:0:0:
125,181,82948,1,0,0:0:0:0:
125,181,83301,6,0,P|67:159|31:100,2,120,2|0|2,0:0|0:0|0:0,0:0:0:0:
225,114,84359,1,2,0:0:0:0:
244,247,84712,6,0,P|269:277|371:302,1,134.999995880127,2|0,0:0|0:0,0:0:0:0:
431,268,85242,1,0,0:0:0:0:
484,207,85418,2,0,L|472:135,1,67.4999979400635,2|0,0:0|0:0,0:0:0:0:
392,152,85771,2,0,L|380:80,1,67.4999979400635,2|0,0:0|0:0,0:0:0:0:
314,38,86124,6,0,L|150:22,1,134.999995880127,2|0,0:0|0:0,0:0:0:0:
114,73,86654,1,0,0:0:0:0:
53,126,86830,1,2,0:0:0:0:
53,126,87183,1,2,0:0:0:0:
184,156,87536,5,2,0:0:0:0:
184,156,87889,1,2,0:0:0:0:
93,256,88242,2,0,L|114:324,1,67.4999979400635,0|0,0:0|0:0,0:0:0:0:
188,350,88595,1,2,0:0:0:0:
256,307,88771,1,0,0:0:0:0:
323,352,88948,6,0,L|463:330,2,134.999995880127,2|0|2,0:0|0:0|0:0,0:0:0:0:
197,273,90006,1,2,0:0:0:0:
256,192,90359,12,0,91418,0:0:0:0:
398,292,91771,6,0,P|430:225|379:147,1,150,4|2,0:0|0:2,0:0:0:0:
328,118,92301,1,0,0:0:0:0:
251,149,92477,2,0,L|232:230,1,75,2|0,0:2|0:0,0:0:0:0:
156,252,92830,1,2,0:2:0:0:
191,326,93006,1,0,0:0:0:0:
108,328,93183,6,0,P|70:278|90:191,3,150,2|2|2|2,0:0|0:0|0:0|0:0,0:0:0:0:
20,44,94595,6,0,L|181:57,1,150,2|2,0:2|0:2,0:0:0:0:
251,48,95124,1,0,0:0:0:0:
306,109,95301,2,0,P|313:166|297:211,1,75,2|0,0:2|0:0,0:0:0:0:
288,262,95654,1,2,0:2:0:0:
348,317,95830,1,0,0:0:0:0:
427,337,96006,6,0,P|435:255|466:181,3,150,2|2|2|2,0:0|0:0|0:0|0:0,0:0:0:0:
379,48,97418,6,0,P|348:78|241:55,1,150,2|2,0:2|0:2,0:0:0:0:
171,35,97948,1,0,0:0:0:0:
118,98,98124,2,0,L|135:182,1,75,2|0,0:2|0:0,0:0:0:0:
93,244,98477,1,2,0:2:0:0:
93,244,98654,1,0,0:0:0:0:
153,300,98830,6,0,P|208:298|305:331,3,150,2|2|2|2,0:0|0:0|0:0|0:0,0:0:0:0:
453,270,100242,6,0,L|425:104,1,150,2|2,0:2|0:2,0:0:0:0:
353,86,100771,1,0,0:0:0:0:
276,116,100948,2,0,P|228:124|191:117,1,75,2|0,0:2|0:0,0:0:0:0:
122,99,101301,1,2,0:2:0:0:
85,172,101477,1,0,0:0:0:0:
115,249,101654,5,2,0:0:0:0:
257,165,102006,1,2,0:0:0:0:
263,329,102359,2,0,L|419:312,1,150,2|2,0:0|0:0,0:0:0:0:
412,313,103065,5,4,0:0:0:0:
453,156,103418,1,2,0:2:0:0:
291,191,103771,2,0,P|230:211|148:177,1,150,2|2,0:2|0:2,0:0:0:0:
108,110,104301,1,0,0:0:0:0:
153,41,104477,6,0,L|315:27,1,150,2|2,0:2|0:2,0:0:0:0:
417,147,105183,2,0,L|255:133,1,150,2|2,0:2|0:2,0:0:0:0:
147,248,105889,6,0,P|190:239|285:300,1,150,2|2,0:2|0:2,0:0:0:0:
352,326,106418,1,0,0:0:0:0:
422,282,106595,1,2,0:2:0:0:
422,282,106948,1,2,0:2:0:0:
458,120,107301,6,0,P|412:133|338:46,1,150,2|2,0:2|0:2,0:0:0:0:
178,36,108006,1,2,0:2:0:0:
126,192,108359,1,2,0:2:0:0:
74,348,108712,5,2,0:2:0:0:
74,348,108889,1,0,0:0:0:0:
146,309,109065,1,2,0:2:0:0:
146,309,109242,1,0,0:0:0:0:
215,352,109418,2,0,L|295:336,1,75,2|0,0:2|0:0,0:0:0:0:
327,264,109771,2,0,L|407:248,1,75,2|0,0:2|0:0,0:0:0:0:
478,145,110124,5,2,0:2:0:0:
478,145,110301,1,0,0:0:0:0:
406,106,110477,1,2,0:2:0:0:
406,106,110654,1,0,0:0:0:0:
337,149,110830,2,0,L|257:133,1,75,2|0,0:2|0:0,0:0:0:0:
225,61,111183,2,0,L|145:45,1,75,2|0,0:2|0:0,0:0:0:0:
44,156,111536,6,0,L|93:167,3,37.5,2|0|0|0,0:2|0:0|0:0|0:0,0:0:0:0:
91,179,111889,2,0,L|140:190,3,37.5,2|0|0|0,0:2|0:0|0:0|0:0,0:0:0:0:
137,203,112242,2,0,L|186:214,3,37.5,2|0|0|0,0:2|0:0|0:0|0:0,0:0:0:0:
184,226,112595,2,0,L|233:237,3,37.5,2|0|0|0,0:2|0:0|0:0|0:0,0:0:0:0:
231,249,112948,2,0,L|280:260,3,37.5,2|0|0|0,0:2|0:0|0:0|0:0,0:0:0:0:
278,272,113301,2,0,L|327:283,3,37.5,2|0|0|0,0:2|0:0|0:0|0:0,0:0:0:0:
325,295,113654,2,0,L|477:273,1,150,2|2,0:2|0:2,0:0:0:0:
473,273,114359,5,4,1:0:0:0:
473,273,115595,1,4,1:3:0:0:
396,226,115771,6,0,P|376:182|404:79,1,150,4|0,0:0|0:0,0:0:0:0:
322,35,116301,1,0,0:0:0:0:
240,72,116477,2,0,L|104:52,2,112.5,2|2|0,0:2|0:2|0:0,0:0:0:0:
266,158,117183,6,0,P|272:205|258:254,1,75,2|0,0:2|0:0,0:0:0:0:
192,282,117536,1,0,0:0:0:0:
124,222,117712,2,0,P|102:280|143:360,2,150,2|2|2,0:2|0:2|0:2,0:0:0:0:
206,184,118595,5,2,0:2:0:0:
283,294,118859,1,2,0:2:0:0:
341,172,119124,2,0,L|462:154,2,112.5,2|2|2,0:2|0:2|0:2,0:0:0:0:
186,79,120006,6,0,P|132:81|78:38,2,112.5,2|0|2,0:2|0:0|0:2,0:0:0:0:
242,149,120712,2,0,P|270:194|260:263,2,112.5,2|0|2,0:2|0:0|0:2,0:0:0:0:
277,66,121418,6,0,L|368:38,1,75,2|0,0:2|0:0,0:0:0:0:
427,87,121771,1,2,0:2:0:0:
398,172,121948,1,0,0:0:0:0:
466,229,122124,2,0,P|419:261|330:228,1,150,2|2,0:2|0:2,0:0:0:0:
312,147,122654,1,0,0:0:0:0:
341,62,122830,5,2,0:2:0:0:
164,95,123183,1,2,0:2:0:0:
79,65,123359,1,0,0:0:0:0:
11,124,123536,2,0,L|33:270,2,112.5,2|2|0,0:2|0:2|0:0,0:0:0:0:
79,65,124242,5,2,0:2:0:0:
190,206,124595,2,0,L|173:337,2,112.5,0|0|2,0:0|0:0|0:2,0:0:0:0:
255,143,125301,2,0,P|294:143|354:171,1,75,0|0,0:0|0:0,0:0:0:0:
380,227,125654,5,2,0:2:0:0:
331,352,125918,1,0,0:0:0:0:
200,317,126183,2,0,P|152:320|94:360,2,112.5,2|2|2,0:2|0:2|0:2,0:0:0:0:
188,227,126889,1,0,0:0:0:0:
126,162,127065,6,0,P|197:133|253:51,1,150,0|0,0:0|0:0,0:0:0:0:
321,50,127595,1,2,0:2:0:0:
383,103,127771,2,0,L|410:219,2,112.5,2|2|2,0:2|0:2|0:2,0:0:0:0:
304,125,128477,6,0,L|292:208,1,75,2|0,0:2|0:0,0:0:0:0:
327,282,128830,1,0,0:0:0:0:
237,272,129006,2,0,P|162:290|99:351,2,150,2|2|2,0:2|0:2|0:2,0:0:0:0:
274,354,129889,5,2,0:2:0:0:
406,328,130154,1,2,0:2:0:0:
317,226,130418,2,0,P|279:191|205:185,2,112.5,2|2|2,0:2|0:2|0:2,0:0:0:0:
405,207,131124,1,0,0:0:0:0:
466,141,131301,6,0,L|482:20,2,112.5,2|0|2,0:2|0:0|0:2,0:0:0:0:
405,207,132006,2,0,L|421:328,2,112.5,2|0|2,0:2|0:0|0:2,0:0:0:0:
344,140,132712,6,0,L|248:123,1,75,2|0,0:2|0:0,0:0:0:0:
181,108,133065,1,2,0:2:0:0:
209,193,133242,1,0,0:0:0:0:
132,239,133418,2,0,P|170:275|278:254,1,150,2|2,0:2|0:2,0:0:0:0:
349,245,133948,1,0,0:0:0:0:
397,320,134124,5,2,0:2:0:0:
484,162,134477,1,2,0:2:0:0:
421,96,134654,1,0,0:0:0:0:
331,107,134830,2,0,L|198:86,2,112.5,2|2|2,0:2|0:2|0:2,0:0:0:0:
385,178,135536,5,2,0:2:0:0:
282,326,135889,2,0,P|227:348|148:327,2,112.5,0|2|2,0:0|0:2|0:2,0:0:0:0:
368,298,136595,1,0,0:0:0:0:
379,209,136771,1,0,0:0:0:0:
318,142,136948,6,0,P|267:148|216:194,2,112.5,2|0|0,0:2|0:0|0:0,0:0:0:0:
379,209,137654,1,2,0:0:0:0:
379,209,137742,1,0,0:0:0:0:
379,209,137830,1,0,0:0:0:0:
459,248,138006,2,0,P|462:283|440:343,1,75,2|0,0:0|0:0,0:0:0:0:
368,352,138359,5,4,0:0:0:0:
290,305,138536,1,2,0:2:0:0:
200,294,138712,1,0,0:0:0:0:
119,333,138889,1,2,0:2:0:0:
52,273,139065,2,0,P|45:211|77:161,2,112.5,2|2|0,0:2|0:2|0:0,0:0:0:0:
133,233,139771,5,2,0:2:0:0:
202,290,139948,1,0,0:0:0:0:
273,235,140124,1,0,0:0:0:0:
347,285,140301,2,0,P|363:222|297:149,2,150,2|2|2,0:2|0:2|0:2,0:0:0:0:
277,342,141183,5,2,0:2:0:0:
144,313,141448,1,2,0:2:0:0:
235,214,141712,2,0,L|376:193,2,112.5,2|2|2,0:2|0:2|0:2,0:0:0:0:
174,146,142418,1,0,0:0:0:0:
117,75,142595,5,2,0:2:0:0:
249,96,142859,1,2,0:2:0:0:
383,112,143124,1,0,0:0:0:0:
330,185,143301,2,0,L|358:287,1,75,0|0,0:0|0:2,0:0:0:0:
424,307,143654,1,2,0:2:0:0:
424,307,143830,1,0,0:0:0:0:
343,347,144006,6,0,P|286:308|179:333,2,150,2|2|2,0:2|0:2|0:2,0:0:0:0:
424,307,144889,1,0,0:0:0:0:
473,231,145065,2,0,L|461:132,1,75,2|0,0:2|0:0,0:0:0:0:
502,74,145418,6,0,P|430:71|375:137,1,150,2|2,0:2|0:2,0:0:0:0:
388,214,145948,1,0,0:0:0:0:
301,237,146124,2,0,L|333:356,2,112.5,2|2|0,0:2|0:2|0:0,0:0:0:0:
219,198,146830,6,0,L|245:102,1,75,2|0,0:2|0:0,0:0:0:0:
191,48,147183,2,0,P|149:62|64:51,2,112.5,0|2|2,0:0|0:2|0:2,0:0:0:0:
276,20,147889,1,0,0:0:0:0:
358,55,148065,1,0,0:0:0:0:
383,141,148242,5,2,0:2:0:0:
352,272,148506,1,0,0:0:0:0:
254,178,148771,2,0,L|135:169,2,112.5,2|2|2,0:2|0:2|0:2,0:0:0:0:
303,102,149477,1,2,0:2:0:0:
241,36,149654,6,0,P|294:11|381:58,1,150,2|0,0:2|0:0,0:0:0:0:
387,134,150183,1,2,0:2:0:0:
351,216,150359,2,0,P|345:262|377:319,2,112.5,2|2|2,0:2|0:2|0:2,0:0:0:0:
440,208,151065,6,0,P|466:177|474:126,1,75,2|0,0:2|0:0,0:0:0:0:
440,60,151418,1,0,0:0:0:0:
350,49,151595,2,0,P|314:80|308:179,2,150,2|2|2,0:2|0:2|0:2,0:0:0:0:
387,134,152477,5,2,0:2:0:0:
340,261,152742,1,2,0:2:0:0:
211,301,153006,2,0,L|64:292,2,112.5,2|2|2,0:2|0:2|0:2,0:0:0:0:
258,224,153712,1,0,0:0:0:0:
307,148,153889,5,2,0:2:0:0:
384,258,154154,1,2,0:2:0:0:
442,136,154418,1,2,0:2:0:0:
393,60,154595,2,0,L|300:46,1,75,0|0,0:0|0:2,0:0:0:0:
239,92,154948,1,2,0:2:0:0:
239,92,155124,1,0,0:2:0:0:
176,156,155301,6,0,P|153:118|181:22,2,150,2|2|2,0:2|0:2|0:2,0:0:0:0:
262,180,156183,1,0,0:0:0:0:
345,146,156359,2,0,P|352:178|339:226,1,75,2|0,0:2|0:0,0:0:0:0:
269,270,156712,5,2,0:2:0:0:
269,270,157065,1,2,0:2:0:0:
187,230,157242,1,0,0:0:0:0:
104,264,157418,2,0,P|60:226|30:154,2,112.5,2|2|2,0:2|0:2|0:2,0:0:0:0:
187,230,158124,6,0,L|206:138,1,75,2|0,0:2|0:0,0:0:0:0:
282,115,158477,2,0,P|250:78|159:78,2,112.5,0|2|2,0:0|0:2|0:2,0:0:0:0:
308,201,159183,1,2,0:2:0:0:
308,201,159359,1,0,0:0:0:0:
277,285,159536,5,4,0:0:0:0:
146,318,159801,1,0,0:0:0:0:
51,221,160065,1,0,0:0:0:0:
118,160,160242,1,2,0:0:0:0:
118,160,160330,1,0,0:0:0:0:
118,160,160418,1,0,0:0:0:0:
76,79,160595,1,2,0:0:0:0:
76,79,160771,1,0,0:0:0:0:
206,143,160948,6,0,P|237:175|346:174,1,150,4|4,0:0|0:3,0:0:0:0:
407,135,161477,1,0,0:0:0:0:
458,200,161654,2,0,L|470:294,1,75,4|0,0:3|0:0,0:0:0:0:
417,339,162006,1,4,0:3:0:0:
341,304,162183,1,0,0:0:0:0:
266,339,162359,6,0,P|265:272|336:222,1,150,4|4,0:3|0:3,0:0:0:0:
199,116,163065,2,0,P|200:183|129:233,1,150,4|4,0:3|0:3,0:0:0:0:
126,66,163771,6,0,P|174:28|263:52,1,150,4|4,0:3|0:3,0:0:0:0:
293,119,164301,1,0,0:0:0:0:
367,85,164477,1,4,0:3:0:0:
411,154,164654,2,0,L|388:244,1,75,0|4,0:0|0:3,0:0:0:0:
417,304,165006,1,0,0:0:0:0:
339,332,165183,6,0,P|301:301|186:312,1,150,4|4,0:3|0:3,0:0:0:0:
95,176,165889,2,0,P|133:207|248:196,1,150,4|4,0:3|0:3,0:0:0:0:
301,57,166595,5,4,0:3:0:0:
301,57,166948,1,4,0:3:0:0:
360,114,167124,1,0,0:0:0:0:
442,105,167301,2,0,L|456:194,1,75,4|0,0:3|0:0,0:0:0:0:
405,246,167654,1,4,0:3:0:0:
453,312,167830,1,0,0:0:0:0:
371,321,168006,6,0,P|329:278|345:191,1,150,4|4,0:3|0:3,0:0:0:0:
193,120,168712,2,0,P|235:163|219:250,1,150,4|4,0:3|0:3,0:0:0:0:
72,316,169418,5,4,0:3:0:0:
72,316,169771,2,0,L|53:218,1,75,4|0,0:3|0:0,0:0:0:0:
74,161,170124,1,4,0:3:0:0:
133,103,170301,1,0,0:0:0:0:
211,79,170477,1,4,0:3:0:0:
292,93,170654,1,0,0:0:0:0:
337,161,170830,6,0,P|361:209|474:216,1,150,4|4,0:3|0:3,0:0:0:0:
323,336,171536,2,0,P|299:288|186:281,1,150,4|4,0:3|0:3,0:0:0:0:
58,332,172242,5,4,0:3:0:0:
101,262,172418,1,0,0:0:0:0:
50,196,172595,2,0,P|39:158|48:105,1,75,4|0,0:3|0:0,0:0:0:0:
103,67,172948,1,4,0:3:0:0:
175,106,173124,1,0,0:0:0:0:
257,95,173301,1,4,0:3:0:0:
306,28,173477,1,0,0:0:0:0:
384,53,173654,6,0,P|413:118|386:197,1,150,4|4,0:3|0:3,0:0:0:0:
313,218,174183,1,0,0:0:0:0:
249,166,174359,2,0,P|233:235|283:295,1,150,4|4,0:3|0:3,0:0:0:0:
441,326,175065,5,4,0:3:0:0:
394,257,175242,1,0,0:0:0:0:
442,190,175418,2,0,L|433:98,1,75,4|0,0:3|0:0,0:0:0:0:
360,80,175771,1,4,0:3:0:0:
287,120,175948,1,0,0:0:0:0:
212,85,176124,2,0,P|206:131|223:174,1,75,4|0,0:3|0:0,0:0:0:0:
282,203,176477,6,0,P|227:189|137:263,1,150,4|4,0:3|0:3,0:0:0:0:
123,311,177006,1,0,0:0:0:0:
192,356,177183,1,4,0:3:0:0:
192,356,177536,1,4,0:3:0:0:
192,356,177889,6,0,L|286:346,1,75,4|2,0:3|0:2,0:0:0:0:
347,332,178242,1,4,0:3:0:0:
347,332,178418,1,2,0:2:0:0:
319,253,178595,2,0,L|225:243,1,75,4|2,0:3|0:2,0:0:0:0:
164,229,178948,1,4,0:3:0:0:
164,229,179124,1,2,0:2:0:0:
110,167,179301,6,0,P|101:127|109:91,1,75,4|2,0:3|0:2,0:0:0:0:
182,50,179654,2,0,P|191:90|183:126,1,75,4|2,0:3|0:2,0:0:0:0:
251,170,180006,2,0,P|242:210|250:246,1,75,4|2,0:3|0:2,0:0:0:0:
323,285,180359,2,0,P|332:245|324:209,1,75,0|2,0:3|0:2,0:0:0:0:
371,143,180712,6,0,L|414:127,3,37.5,4|0|2|0,0:3|0:0|0:2|0:0,0:0:0:0:
374,102,181065,2,0,L|406:69,3,37.5,4|0|2|0,0:3|0:0|0:2|0:0,0:0:0:0:
358,72,181418,2,0,L|373:28,3,37.5,4|0|2|0,0:3|0:0|0:2|0:0,0:0:0:0:
329,44,181771,2,0,L|324:-1,3,37.5,4|0|2|0,0:3|0:0|0:2|0:0,0:0:0:0:
293,33,182124,6,0,P|237:24|146:95,1,150,4|2,1:0|2:0,0:0:0:0:
259,201,182830,1,2,2:0:0:0:
127,301,183183,1,2,2:0:0:0:
67,244,183359,1,4,0:3:0:0:
67,244,183536,6,0,L|90:152,1,67.4999979400635,4|0,0:0|0:0,0:0:0:0:
109,101,183889,2,0,P|169:68|238:96,2,134.999995880127,4|4|4,0:3|0:3|0:3,0:0:0:0:
241,190,184948,6,0,L|263:285,1,67.4999979400635,4|0,0:3|0:0,0:0:0:0:
281,332,185301,2,0,P|341:365|410:337,2,134.999995880127,0|4|0,0:0|0:3|0:0,0:0:0:0:
393,217,186359,5,4,0:3:0:0:
345,151,186536,1,0,0:0:0:0:
390,83,186712,2,0,P|331:69|266:126,2,134.999995880127,4|4|4,0:3|0:3|0:3,0:0:0:0:
276,199,187771,5,4,0:3:0:0:
324,265,187948,1,0,0:0:0:0:
279,333,188124,2,0,P|338:347|403:290,2,134.999995880127,0|4|0,0:0|0:3|0:0,0:0:0:0:
116,327,189183,6,0,L|37:307,1,67.4999979400635,4|0,0:3|0:0,0:0:0:0:
20,234,189536,2,0,P|53:199|148:200,1,134.999995880127,4|4,0:3|0:3,0:0:0:0:
209,227,190065,1,0,0:0:0:0:
265,168,190242,1,4,0:3:0:0:
396,327,190595,6,0,L|475:307,1,67.4999979400635,4|0,0:3|0:0,0:0:0:0:
492,234,190948,2,0,P|459:199|364:200,1,134.999995880127,0|4,0:0|0:3,0:0:0:0:
303,227,191477,1,0,0:0:0:0:
247,168,191654,1,0,0:0:0:0:
159,303,192006,5,4,0:3:0:0:
159,303,192183,1,0,0:0:0:0:
90,260,192359,2,0,L|81:186,1,67.4999979400635,4|0,0:3|0:0,0:0:0:0:
37,124,192712,2,0,P|104:113|154:152,1,134.999995880127,4|4,0:3|0:3,0:0:0:0:
353,81,193418,5,4,0:3:0:0:
353,81,193595,1,0,0:0:0:0:
422,124,193771,2,0,L|431:198,1,67.4999979400635,4|0,0:3|2:0,0:0:0:0:
475,260,194124,2,0,P|408:271|358:232,1,134.999995880127,4|0,0:3|0:0,0:0:0:0:
273,92,194830,5,4,0:0:0:0:
202,52,195006,1,0,0:0:0:0:
123,73,195183,2,0,P|88:110|73:149,1,67.4999979400635,4|0,0:3|0:0,0:0:0:0:
158,147,195536,2,0,L|169:235,1,67.4999979400635,4|0,0:3|0:0,0:0:0:0:
112,274,195889,1,4,0:3:0:0:
112,274,196065,1,0,0:0:0:0:
170,330,196242,6,0,P|216:306|313:326,1,134.999995880127,4|4,0:3|0:3,0:0:0:0:
367,276,196771,1,0,2:0:0:0:
432,227,196948,2,0,P|449:279|405:347,1,134.999995880127,4|4,0:3|0:3,0:0:0:0:
311,214,197654,6,0,L|292:124,1,67.4999979400635,4|0,0:3|0:0,0:0:0:0:
229,192,198006,2,0,L|210:102,1,67.4999979400635,4|0,0:3|0:0,0:0:0:0:
143,86,198359,1,4,0:3:0:0:
62,96,198536,1,0,0:0:0:0:
20,165,198712,1,4,0:3:0:0:
33,245,198889,1,0,0:0:0:0:
97,293,199065,6,0,L|261:307,1,134.999995880127,4|4,0:3|0:3,0:0:0:0:
288,245,199595,1,0,2:0:0:0:
266,167,199771,2,0,P|339:181|368:235,1,134.999995880127,4|4,0:3|0:3,0:0:0:0:
367,229,200477,5,4,0:3:0:0:
443,202,200654,1,2,0:2:0:0:
473,127,200830,2,0,L|481:53,1,67.4999979400635,4|2,0:3|0:2,0:0:0:0:
401,40,201183,2,0,L|393:114,1,67.4999979400635,4|2,0:3|0:2,0:0:0:0:
314,123,201536,2,0,L|322:49,1,67.4999979400635,4|2,0:3|0:2,0:0:0:0:
244,29,201889,5,4,0:3:0:0:
169,57,202065,1,2,0:2:0:0:
139,132,202242,2,0,L|131:206,1,67.4999979400635,4|2,0:3|0:2,0:0:0:0:
212,196,202595,2,0,L|236:266,1,67.4999979400635,4|2,0:3|0:2,0:0:0:0:
306,223,202948,2,0,L|357:276,1,67.4999979400635,4|2,0:3|0:2,0:0:0:0:
398,204,203301,6,0,L|434:200,3,33.7499989700318,4|0|2|0,0:3|0:0|0:2|0:0,0:0:0:0:
406,168,203654,2,0,L|442:164,3,33.7499989700318,4|0|2|0,0:3|0:0|0:2|0:0,0:0:0:0:
412,134,204006,2,0,L|448:130,3,33.7499989700318,0|0|2|0,0:0|0:0|0:2|0:0,0:0:0:0:
420,98,204359,2,0,L|456:94,3,33.7499989700318,4|0|2|0,0:3|0:0|0:2|0:0,0:0:0:0:
427,63,204712,1,4,0:3:0:0:
256,192,204801,12,4,205948,0:3:0:0:
