osu file format v12

[General]
AudioFilename: Chasers - Lost.mp3
AudioLeadIn: 1500
PreviewTime: 114359
Countdown: 0
SampleSet: Normal
StackLeniency: 0.3
Mode: 0
LetterboxInBreaks: 0
WidescreenStoryboard: 1

[Editor]
DistanceSpacing: 1
BeatDivisor: 4
GridSize: 4
TimelineZoom: 1

[Metadata]
Title:Lost
TitleUnicode:Lost
Artist:Chasers
ArtistUnicode:Chasers
Creator:fanzhen0019
Version:Normal
Source:
Tags:hardcore monthly beatmapping contest
BeatmapID:372629
BeatmapSetID:151114

[Difficulty]
HPDrainRate:3
CircleSize:3
OverallDifficulty:4
ApproachRate:5
SliderMultiplier:0.8
SliderTickRate:1

[Events]
//Background and Video events
0,0,"saa.jpg",0,0
//Break Periods
2,45406,55300
//Storyboard Layer 0 (Background)
//Storyboard Layer 1 (Fail)
//Storyboard Layer 2 (Pass)
//Storyboard Layer 3 (Foreground)
//Storyboard Sound Samples
//Background Colour Transformations
3,100,163,162,255

[TimingPoints]
30,352.941176470588,4,2,0,70,1,0
30,-133.333333333333,4,2,0,70,0,0
206,-133.333333333333,4,2,0,70,0,0
559,-133.333333333333,4,2,0,55,0,0
912,-133.333333333333,4,2,0,40,0,0
2853,-133.333333333333,4,2,0,70,0,0
3382,-133.333333333333,4,2,0,55,0,0
3735,-133.333333333333,4,2,0,40,0,0
5677,-133.333333333333,4,2,0,70,0,0
6206,-133.333333333333,4,2,0,55,0,0
6559,-133.333333333333,4,2,0,40,0,0
8500,-133.333333333333,4,2,0,70,0,0
9029,-133.333333333333,4,2,0,55,0,0
9382,-133.333333333333,4,2,0,40,0,0
11324,-133.333333333333,4,2,0,70,0,0
11677,-133.333333333333,4,2,0,60,0,0
12029,-133.333333333333,4,2,0,50,0,0
12382,-133.333333333333,4,2,0,40,0,0
14147,-133.333333333333,4,2,0,70,0,0
14500,-133.333333333333,4,2,0,60,0,0
14853,-133.333333333333,4,2,0,50,0,0
15206,-133.333333333333,4,2,0,40,0,0
16971,-133.333333333333,4,2,0,65,0,0
22618,-100,4,1,0,60,0,0
56500,-200,4,2,0,30,0,0
59324,-200,4,2,0,40,0,0
62147,-200,4,2,0,50,0,0
64971,-200,4,2,0,60,0,0
67794,-133.333333333333,4,2,0,60,0,0
67971,-133.333333333333,4,2,0,40,0,0
70618,-133.333333333333,4,2,0,45,0,0
73441,-133.333333333333,4,2,0,50,0,0
76265,-133.333333333333,4,2,0,55,0,0
79088,-133.333333333333,4,2,0,60,0,0
90118,-133.333333333333,4,2,0,5,0,0
91794,-100,4,2,0,70,0,0
92500,-200,4,2,0,40,0,0
94618,-100,4,2,0,70,0,0
95324,-200,4,2,0,40,0,0
97441,-100,4,2,0,70,0,0
98147,-200,4,2,0,40,0,0
100265,-100,4,2,0,70,0,0
100971,-200,4,2,0,40,0,0
103088,-100,4,2,0,40,0,0
105912,-100,4,2,0,45,0,0
107324,-100,4,2,0,50,0,0
108647,-100,4,2,0,55,0,0
110147,-100,4,2,0,60,0,0
111559,-100,4,2,0,65,0,0
112971,-100,4,2,0,70,0,0
115794,-100,4,1,0,65,0,1
138294,-100,4,1,0,65,0,0
138382,-100,4,1,0,65,0,1
160971,-100,4,1,0,65,0,0
183559,-133.333333333333,4,2,0,65,0,0
183735,-133.333333333333,4,2,0,70,0,0
184088,-133.333333333333,4,2,0,55,0,0
184441,-133.333333333333,4,2,0,40,0,0
186559,-133.333333333333,4,2,0,70,0,0
186912,-133.333333333333,4,2,0,55,0,0
187265,-133.333333333333,4,2,0,40,0,0
189382,-133.333333333333,4,2,0,70,0,0
189735,-133.333333333333,4,2,0,55,0,0
190088,-133.333333333333,4,2,0,40,0,0
192206,-133.333333333333,4,2,0,70,0,0
192559,-133.333333333333,4,2,0,55,0,0
192912,-133.333333333333,4,2,0,40,0,0
194853,-133.333333333333,4,2,0,70,0,0
195206,-133.333333333333,4,2,0,60,0,0
195559,-133.333333333333,4,2,0,50,0,0
195912,-133.333333333333,4,2,0,40,0,0
197677,-133.333333333333,4,2,0,70,0,0
198029,-133.333333333333,4,2,0,60,0,0
198382,-133.333333333333,4,2,0,50,0,0
198735,-133.333333333333,4,2,0,40,0,0
200500,-133.333333333333,4,2,0,70,0,0
205971,-133.333333333333,4,2,0,70,0,0

[Colours]
Combo1 : 0,128,128
Combo2 : 234,77,0
Combo3 : 0,115,255
Combo4 : 227,0,114

[HitObjects]
452,292,30,6,0,B|392:272|336:308|336:308|304:268|328:192,1,240.000009155274,4|0,1:2|1:0,0:0:0:0:
60,292,2853,6,0,B|120:272|176:308|176:308|208:268|184:192,1,240.000009155274,0|0,1:0|1:3,0:0:0:0:
452,88,5677,6,0,B|408:136|340:116|340:116|316:56|376:8,1,240.000009155274,0|0,1:0|1:3,0:0:0:0:
60,88,8500,6,0,B|104:136|172:116|172:116|196:56|136:8,1,240.000009155274,0|0,1:0|1:3,0:0:0:0:
392,152,11324,6,0,L|464:148,3,60.0000022888184,4|0|0|0,1:2|1:0|1:0|1:0,0:0:0:0:
456,220,12735,2,0,L|460:292,3,60.0000022888184,0|8|0|8,1:3|1:3|1:3|1:3,0:0:0:0:
388,288,14147,2,0,L|316:292,3,60.0000022888184,0|0|0|0,1:0|1:0|1:0|1:0,0:0:0:0:
324,220,15559,2,0,L|320:148,3,60.0000022888184,0|8|0|8,1:3|1:3|1:3|1:3,0:0:0:0:
248,176,16971,6,0,L|180:172,1,60.0000022888184,0|0,1:2|1:0,0:0:0:0:
116,168,17677,2,0,L|120:100,1,60.0000022888184,0|0,1:0|1:0,0:0:0:0:
124,36,18382,2,0,L|192:40,1,60.0000022888184,0|0,1:0|1:0,0:0:0:0:
256,44,19088,2,0,L|252:112,1,60.0000022888184,0|0,1:0|1:0,0:0:0:0:
256,192,19794,12,0,21206,0:0:0:0:
356,312,22618,6,0,P|400:312|460:220,2,160,4|0|0,1:2|0:0|0:0,0:0:0:0:
336,236,24382,1,8,0:3:0:0:
256,252,24735,1,0,0:0:0:0:
176,236,25088,1,8,0:3:0:0:
156,312,25441,6,0,P|112:312|52:220,2,160,0|0|0,0:0|0:0|0:0,0:0:0:0:
176,236,27206,2,0,L|184:144,1,80,8|0,0:3|0:0,0:0:0:0:
192,76,27912,1,8,0:3:0:0:
116,48,28265,6,0,P|52:104|60:176,2,160,0|0|0,0:0|0:0|0:0,0:0:0:0:
192,76,30029,1,8,0:3:0:0:
256,28,30382,1,0,0:0:0:0:
320,76,30735,1,8,0:3:0:0:
396,48,31088,6,0,P|460:104|452:176,2,160,0|0|0,0:0|0:0|0:0,0:0:0:0:
320,76,32853,1,8,0:3:0:0:
256,124,33206,2,0,L|256:208,1,80,0|8,0:0|3:0,0:0:0:0:
304,268,33912,6,0,P|372:308|456:276,1,160,4|0,0:2|0:0,0:0:0:0:
476,212,34971,1,8,0:3:0:0:
444,140,35324,2,0,P|369:118|302:158,1,160,0|0,0:0|0:0,0:0:0:0:
256,92,36382,1,8,0:3:0:0:
209,158,36735,6,0,P|142:118|68:140,1,160,0|0,0:0|0:0,0:0:0:0:
36,212,37794,1,8,0:3:0:0:
66,286,38147,2,0,P|141:307|208:268,1,160,0|0,0:0|0:0,0:0:0:0:
260,332,39206,1,8,0:3:0:0:
336,312,39559,6,0,L|416:316,1,80,4|8,0:2|0:3,0:0:0:0:
432,236,40265,2,0,L|352:232,1,80,0|8,0:0|0:3,0:0:0:0:
344,152,40971,2,0,L|424:156,1,80,0|8,0:0|0:3,0:0:0:0:
440,76,41677,2,0,L|360:72,1,80,0|8,0:0|0:3,0:0:0:0:
256,192,42382,12,0,43794,0:0:0:0:
256,192,45206,5,4,1:2:0:0:
112,244,56500,6,0,P|264:260|304:156,1,280,0|0,0:3|0:3,3:0:0:0:
207,162,59324,6,0,P|273:274|400:244,1,280,0|0,0:0|0:0,3:0:0:0:
448,176,62147,6,0,B|388:128|320:176|316:236|316:236|336:288|296:336,1,280,2|2,0:0|0:0,3:0:0:0:
211,329,64971,6,0,B|176:288|196:236|196:236|192:176|124:128|64:176,1,280,2|2,0:0|0:0,3:0:0:0:
100,252,67794,6,0,P|104:312|76:368,1,120.000004577637,4|2,0:0|0:0,0:0:0:0:
196,332,69206,1,0,0:0:0:0:
316,332,69912,1,2,0:0:0:0:
433,364,70618,6,0,P|407:311|412:252,1,120.000004577637,0|2,0:0|0:0,0:0:0:0:
316,184,72029,1,0,0:0:0:0:
196,184,72735,1,2,0:0:0:0:
100,252,73441,6,0,P|76:196|96:132,1,120.000004577637,0|2,0:0|0:0,0:0:0:0:
196,184,74853,1,0,0:0:0:0:
316,184,75559,1,2,0:0:0:0:
422,140,76265,2,0,P|435:198|411:252,1,120.000004577637,0|2,0:0|0:0,0:0:0:0:
316,184,77677,2,0,B|256:188|256:188|196:184,1,120.000004577637,0|2,0:0|0:0,0:0:0:0:
96,116,79088,5,4,0:0:0:0:
44,224,79794,1,2,0:0:0:0:
164,212,80500,1,0,0:0:0:0:
256,288,81206,1,0,0:0:0:0:
348,212,81912,5,0,0:0:0:0:
468,224,82618,1,2,0:0:0:0:
416,116,83324,1,0,0:0:0:0:
348,212,84029,1,0,0:0:0:0:
400,320,84735,6,0,B|344:340|344:340|312:332|308:292,2,120.000004577637,2|2|0,0:0|0:0|0:0,0:0:0:0:
452,192,86853,1,2,0:0:0:0:
400,64,87559,6,0,B|344:44|344:44|312:52|308:92,2,120.000004577637,2|2|0,0:0|0:0|0:0,0:0:0:0:
452,192,89677,1,2,0:0:0:0:
256,192,90382,12,0,91794,0:0:0:0:
120,192,92500,6,0,L|80:192,1,40,0|0,0:0|0:0,0:0:0:0:
256,192,94618,5,2,0:0:0:0:
392,192,95324,2,0,L|432:192,1,40,0|0,0:0|0:0,0:0:0:0:
256,192,97441,5,2,0:0:0:0:
256,56,98147,2,0,L|256:16,1,40,0|2,0:0|0:0,0:0:0:0:
256,192,100265,5,2,0:0:0:0:
256,328,100971,2,0,L|256:368,1,40,0|2,0:0|0:0,0:0:0:0:
360,308,103088,6,0,L|440:312,3,80,4|2|2|2,0:0|3:0|3:0|3:0,0:0:0:0:
452,232,104500,2,0,L|372:228,3,80,2|2|2|2,3:0|3:0|3:0|3:0,0:0:0:0:
304,188,105912,6,0,L|300:108,3,80,2|2|2|2,3:0|3:0|3:0|3:0,0:0:0:0:
212,108,107324,2,0,L|208:188,3,80,2|2|2|2,3:0|3:0|3:0|3:0,0:0:0:0:
140,228,108735,6,0,L|60:232,1,80,2|2,3:0|3:0,0:0:0:0:
72,312,109441,2,0,L|152:308,1,80,2|2,3:0|3:0,0:0:0:0:
232,304,110147,5,2,3:3:0:0:
312,296,110500,1,2,3:3:0:0:
308,216,110853,1,2,3:3:0:0:
228,220,111206,1,0,1:1:0:0:
256,192,111559,12,4,114382,0:0:0:0:
296,312,115794,6,0,P|332:332|376:332,1,80,4|0,0:2|0:0,0:0:0:0:
392,256,116500,2,0,P|356:236|312:236,1,80,2|0,0:2|0:0,0:0:0:0:
256,184,117206,2,0,L|256:100,2,80,2|2|0,0:2|0:2|0:0,0:0:0:0:
194,234,118265,1,0,0:0:0:0:
116,228,118618,6,0,B|104:172|104:172|64:132|84:76,1,160,2|0,0:2|1:0,0:0:0:0:
159,111,119677,1,2,0:2:0:0:
228,72,120029,6,0,L|312:68,1,80,2|0,0:2|0:0,0:0:0:0:
384,96,120735,2,0,L|468:92,1,80,2|0,0:2|0:0,0:0:0:0:
444,168,121441,6,0,P|412:212|404:320,1,160,4|2,0:2|0:2,0:0:0:0:
324,332,122500,1,2,0:2:0:0:
256,292,122853,2,0,L|256:124,1,160,2|2,0:2|1:2,0:0:0:0:
184,96,123912,1,0,0:0:0:0:
112,132,124265,6,0,P|111:211|70:278,2,160,2|0|2,0:2|0:0|0:2,0:0:0:0:
184,96,126029,1,0,0:0:0:0:
256,60,126382,1,2,0:2:0:0:
328,96,126735,1,8,3:0:0:0:
400,132,127088,6,0,P|416:192|384:284,1,160,4|2,0:3|0:2,0:0:0:0:
308,260,128147,2,0,P|308:304|332:344,2,80,0|2|2,0:0|0:2|0:2,0:0:0:0:
232,236,129206,2,0,L|148:244,1,80,0|2,0:0|0:2,0:0:0:0:
80,212,129912,6,0,B|104:176|96:136|96:136|60:108|72:56,1,160,2|0,0:2|1:0,0:0:0:0:
152,72,130971,1,2,0:2:0:0:
228,44,131324,2,0,P|252:88|256:124,1,80,2|0,0:2|0:0,0:0:0:0:
228,192,132029,2,0,P|235:231|256:265,1,80,2|0,0:2|0:0,0:0:0:0:
336,276,132735,6,0,P|380:216|388:120,1,160,4|2,2:0|0:2,0:0:0:0:
380,52,133794,1,2,0:2:0:0:
316,100,134147,2,0,B|280:116|256:152|256:152|232:116|196:100,1,160,2|2,0:2|0:2,0:0:0:0:
132,52,135206,1,0,0:0:0:0:
121,132,135559,6,0,P|130:211|176:276,1,160,2|0,0:2|0:0,0:0:0:0:
254,299,136618,1,0,1:0:0:0:
332,276,136971,2,0,L|320:192,1,80,2|0,2:0|0:0,0:0:0:0:
308,116,137677,2,0,L|296:32,1,80,2|4,0:2|0:2,0:0:0:0:
216,72,138382,6,0,P|180:52|136:52,1,80,4|2,0:0|0:2,0:0:0:0:
120,128,139088,2,0,P|156:148|200:148,1,80,2|0,0:2|0:0,0:0:0:0:
256,200,139794,2,0,L|256:284,2,80,2|2|0,0:2|0:2|0:0,0:0:0:0:
317,149,140853,1,2,0:2:0:0:
396,156,141206,6,0,B|408:212|408:212|448:252|428:308,1,160,2|0,0:2|1:0,0:0:0:0:
353,273,142265,1,2,0:2:0:0:
284,312,142618,6,0,L|200:316,1,80,2|0,0:2|0:0,0:0:0:0:
128,288,143324,2,0,L|44:292,1,80,2|0,0:2|0:0,0:0:0:0:
68,216,144029,6,0,P|100:172|108:64,1,160,4|2,0:2|0:2,0:0:0:0:
188,52,145088,1,2,0:2:0:0:
256,92,145441,2,0,L|256:260,1,160,2|2,0:2|0:2,0:0:0:0:
328,288,146500,1,0,0:0:0:0:
400,252,146853,6,0,P|400:172|441:105,2,160,2|0|2,0:2|0:0|0:2,0:0:0:0:
328,288,148618,1,0,0:0:0:0:
256,324,148971,1,0,0:0:0:0:
184,288,149324,1,8,3:0:0:0:
112,252,149677,6,0,P|96:192|128:100,1,160,4|2,3:0|0:2,0:0:0:0:
204,124,150735,2,0,P|204:80|180:40,2,80,0|2|2,0:0|0:2|0:2,0:0:0:0:
280,148,151794,2,0,L|364:140,1,80,0|0,0:0|0:0,0:0:0:0:
432,172,152500,6,0,B|408:208|416:248|416:248|448:280|444:328,1,160,2|0,0:2|1:0,0:0:0:0:
360,312,153559,1,2,0:2:0:0:
284,340,153912,2,0,P|260:296|256:260,1,80,4|0,0:2|0:0,0:0:0:0:
284,192,154618,2,0,P|276:152|255:118,1,80,4|0,0:2|0:0,0:0:0:0:
176,108,155324,6,0,P|132:168|124:264,1,160,4|2,0:2|0:2,0:0:0:0:
132,332,156382,1,2,0:2:0:0:
196,284,156735,2,0,B|232:268|256:232|256:232|280:268|316:284,1,160,2|2,0:2|0:2,0:0:0:0:
380,332,157794,1,0,0:0:0:0:
390,251,158147,6,0,P|381:172|336:108,1,160,2|0,0:2|0:0,0:0:0:0:
256,84,159206,1,0,1:0:0:0:
180,108,159559,2,0,L|192:192,1,80,6|0,0:2|2:0,0:0:0:0:
204,268,160265,2,0,L|216:352,1,80,0|4,2:0|0:2,0:0:0:0:
136,364,160971,6,0,P|68:328|68:240,2,160,4|0|0,0:2|0:0|0:0,0:0:0:0:
215,347,162735,1,8,0:3:0:0:
256,280,163088,1,0,0:0:0:0:
296,348,163441,1,8,0:3:0:0:
376,364,163794,6,0,P|444:328|444:240,2,160,0|0|0,0:0|0:0|0:0,0:0:0:0:
376,284,165559,1,8,0:3:0:0:
312,236,165912,2,0,L|304:152,1,80,0|8,0:0|0:3,0:0:0:0:
356,92,166618,6,0,P|420:120|492:68,2,160,0|0|0,0:0|0:0|0:0,0:0:0:0:
308,28,168382,1,8,0:3:0:0:
256,92,168735,1,0,0:0:0:0:
208,28,169088,1,8,0:3:0:0:
156,92,169441,6,0,P|92:120|20:68,2,160,0|0|0,0:0|0:0|0:0,0:0:0:0:
224,136,171206,1,8,0:3:0:0:
256,208,171559,2,0,L|256:300,1,80,0|8,0:0|0:3,0:0:0:0:
304,352,172265,6,0,P|364:348|428:272,1,160,4|2,0:2|0:3,0:0:0:0:
460,204,173324,1,10,0:3:0:0:
380,212,173677,2,0,P|312:164|300:92,1,160,2|2,0:3|0:3,0:0:0:0:
256,24,174735,1,10,0:3:0:0:
212,92,175088,6,0,P|196:168|132:212,1,160,2|2,0:3|0:3,0:0:0:0:
52,204,176147,1,10,0:3:0:0:
85,276,176500,2,0,P|130:339|208:352,1,160,2|2,0:3|0:3,0:0:0:0:
256,288,177559,1,10,0:3:0:0:
335,292,177912,6,0,L|419:296,1,80,2|10,0:3|0:3,0:0:0:0:
435,216,178618,2,0,L|351:212,1,80,2|10,0:3|0:3,0:0:0:0:
351,132,179324,2,0,L|435:136,1,80,2|10,0:3|0:3,0:0:0:0:
451,56,180029,2,0,L|367:52,1,80,2|8,0:3|0:3,0:0:0:0:
256,192,180735,12,0,182147,0:0:0:0:
452,92,183559,6,0,B|392:112|336:76|336:76|304:116|328:192,1,240.000009155274,4|0,1:2|1:0,0:0:0:0:
60,92,186382,6,0,B|120:112|176:76|176:76|208:116|184:192,1,240.000009155274,0|0,1:0|1:3,0:0:0:0:
452,296,189206,6,0,B|408:248|340:268|340:268|316:328|376:376,1,240.000009155274,0|0,1:0|1:3,0:0:0:0:
60,296,192029,6,0,B|104:248|172:268|172:268|196:328|136:376,1,240.000009155274,0|0,1:0|1:3,0:0:0:0:
392,232,194853,6,0,L|464:236,3,60.0000022888184,4|0|0|0,1:2|1:0|1:0|1:0,0:0:0:0:
456,164,196265,2,0,L|460:92,3,60.0000022888184,0|8|0|8,1:3|1:3|1:3|1:3,0:0:0:0:
388,96,197677,2,0,L|316:92,3,60.0000022888184,0|0|0|0,1:0|1:0|1:0|1:0,0:0:0:0:
324,164,199088,2,0,L|320:236,3,60.0000022888184,0|8|0|8,1:3|1:3|1:3|1:3,0:0:0:0:
248,208,200500,6,0,L|180:212,1,60.0000022888184,4|0,1:2|1:0,0:0:0:0:
116,216,201206,2,0,L|120:284,1,60.0000022888184,0|0,1:0|1:0,0:0:0:0:
124,348,201912,2,0,L|192:344,1,60.0000022888184,0|0,1:0|1:0,0:0:0:0:
256,340,202618,2,0,L|252:272,1,60.0000022888184,0|0,1:0|1:0,0:0:0:0:
256,192,203324,12,0,204735,1:0:0:0:
256,192,205971,6,0,L|256:232,1,30.0000011444092,0|0,1:0|0:0,0:0:0:0:
