osu file format v12

[General]
AudioFilename: Chasers - Lost.mp3
AudioLeadIn: 1500
PreviewTime: 114359
Countdown: 0
SampleSet: Normal
StackLeniency: 0.3
Mode: 0
LetterboxInBreaks: 0
WidescreenStoryboard: 1

[Editor]
DistanceSpacing: 0.9
BeatDivisor: 4
GridSize: 4
TimelineZoom: 1

[Metadata]
Title:Lost
TitleUnicode:Lost
Artist:Chasers
ArtistUnicode:Chasers
Creator:fanzhen0019
Version:Hard
Source:
Tags:hardcore monthly beatmapping contest
BeatmapID:372627
BeatmapSetID:151114

[Difficulty]
HPDrainRate:5
CircleSize:4
OverallDifficulty:5
ApproachRate:8
SliderMultiplier:1.3
SliderTickRate:1

[Events]
//Background and Video events
0,0,"saa.jpg",0,0
//Break Periods
2,45406,55727
//Storyboard Layer 0 (Background)
//Storyboard Layer 1 (Fail)
//Storyboard Layer 2 (Pass)
//Storyboard Layer 3 (Foreground)
//Storyboard Sound Samples
//Background Colour Transformations
3,100,163,162,255

[TimingPoints]
30,352.941176470588,4,2,0,70,1,0
206,-133.333333333333,4,2,0,70,0,0
559,-133.333333333333,4,2,0,55,0,0
912,-133.333333333333,4,2,0,40,0,0
2853,-133.333333333333,4,2,0,70,0,0
3382,-133.333333333333,4,2,0,55,0,0
3735,-133.333333333333,4,2,0,40,0,0
5677,-133.333333333333,4,2,0,70,0,0
6206,-133.333333333333,4,2,0,55,0,0
6559,-133.333333333333,4,2,0,40,0,0
8500,-133.333333333333,4,2,0,70,0,0
9029,-133.333333333333,4,2,0,55,0,0
9382,-133.333333333333,4,2,0,40,0,0
11324,-133.333333333333,4,2,0,70,0,0
11677,-133.333333333333,4,2,0,60,0,0
12029,-133.333333333333,4,2,0,50,0,0
12382,-133.333333333333,4,2,0,40,0,0
14147,-133.333333333333,4,2,0,70,0,0
14500,-133.333333333333,4,2,0,60,0,0
14853,-133.333333333333,4,2,0,50,0,0
15206,-133.333333333333,4,2,0,40,0,0
16971,-133.333333333333,4,2,0,65,0,0
21294,-133.333333333333,4,2,0,5,0,0
22441,-133.333333333333,4,2,0,50,0,0
22618,-100,4,1,0,60,0,0
56500,-200,4,2,0,30,0,0
59324,-200,4,2,0,40,0,0
62147,-200,4,2,0,50,0,0
64971,-200,4,2,0,60,0,0
67971,-200,4,2,0,40,0,0
70618,-200,4,2,0,45,0,0
73441,-200,4,2,0,50,0,0
76265,-200,4,2,0,55,0,0
79088,-200,4,2,0,60,0,0
90118,-200,4,2,0,5,0,0
91618,-200,4,2,0,50,0,0
91794,-100,4,2,0,70,0,0
92147,-133.333333333333,4,2,0,55,0,0
92500,-200,4,2,0,40,0,0
94618,-100,4,2,0,70,0,0
94971,-133.333333333333,4,2,0,55,0,0
95324,-200,4,2,0,40,0,0
97441,-100,4,2,0,70,0,0
97794,-133.333333333333,4,2,0,55,0,0
98147,-200,4,2,0,40,0,0
100265,-100,4,2,0,70,0,0
100618,-133.333333333333,4,2,0,55,0,0
100971,-200,4,2,0,40,0,0
103088,-100,4,2,0,40,0,0
105912,-100,4,2,0,45,0,0
107324,-100,4,2,0,50,0,0
108647,-100,4,2,0,55,0,0
110147,-100,4,2,0,60,0,0
111559,-100,4,2,0,65,0,0
112971,-100,4,2,0,70,0,0
114471,-100,4,2,0,40,0,0
114735,-100,4,2,0,50,0,0
115088,-100,4,2,0,60,0,0
115441,-100,4,2,0,70,0,0
115794,-76.9230769230769,4,1,0,65,0,1
138294,-76.9230769230769,4,1,0,65,0,0
138382,-76.9230769230769,4,1,0,65,0,1
160971,-100,4,1,0,65,0,0
183559,-133.333333333333,4,2,0,65,0,0
183735,-133.333333333333,4,2,0,70,0,0
184088,-133.333333333333,4,2,0,55,0,0
184441,-133.333333333333,4,2,0,40,0,0
186559,-133.333333333333,4,2,0,70,0,0
186912,-133.333333333333,4,2,0,55,0,0
187265,-133.333333333333,4,2,0,40,0,0
189382,-133.333333333333,4,2,0,70,0,0
189735,-133.333333333333,4,2,0,55,0,0
190088,-133.333333333333,4,2,0,40,0,0
192206,-133.333333333333,4,2,0,70,0,0
192559,-133.333333333333,4,2,0,55,0,0
192912,-133.333333333333,4,2,0,40,0,0
194853,-133.333333333333,4,2,0,70,0,0
195206,-133.333333333333,4,2,0,60,0,0
195559,-133.333333333333,4,2,0,50,0,0
195912,-133.333333333333,4,2,0,40,0,0
197677,-133.333333333333,4,2,0,70,0,0
198029,-133.333333333333,4,2,0,60,0,0
198382,-133.333333333333,4,2,0,50,0,0
198735,-133.333333333333,4,2,0,40,0,0
200500,-133.333333333333,4,2,0,70,0,0
204824,-133.333333333333,4,2,0,5,0,0
205971,-133.333333333333,4,2,0,70,0,0

[Colours]
Combo1 : 0,128,128
Combo2 : 234,77,0
Combo3 : 0,115,255
Combo4 : 227,0,114

[HitObjects]
460,52,30,5,4,1:2:0:0:
460,52,206,2,0,L|468:112,1,48.750001859665,2|0,0:0|1:3,0:0:0:0:
392,96,559,2,0,L|400:156,1,48.750001859665,2|0,0:0|1:0,0:0:0:0:
324,144,912,2,0,L|332:204,1,48.750001859665,2|0,0:0|1:3,0:0:0:0:
256,192,1265,1,2,0:0:0:0:
52,52,2853,5,0,1:0:0:0:
52,52,3029,2,0,L|44:112,1,48.750001859665,2|0,0:0|1:0,0:0:0:0:
120,96,3382,2,0,L|112:156,1,48.750001859665,2|0,0:0|1:0,0:0:0:0:
188,144,3735,2,0,L|180:204,1,48.750001859665,2|0,0:0|1:0,0:0:0:0:
256,192,4088,1,2,0:0:0:0:
460,332,5677,5,0,1:0:0:0:
460,332,5853,2,0,L|468:272,1,48.750001859665,2|0,0:0|1:0,0:0:0:0:
392,288,6206,2,0,L|400:228,1,48.750001859665,2|0,0:0|1:0,0:0:0:0:
324,240,6559,2,0,L|332:180,1,48.750001859665,2|0,0:0|1:0,0:0:0:0:
256,192,6912,1,2,0:0:0:0:
52,332,8500,5,0,1:0:0:0:
52,332,8677,2,0,L|45:283,1,48.750001859665,2|0,0:0|1:0,0:0:0:0:
120,288,9029,2,0,L|113:239,1,48.750001859665,2|0,0:0|1:0,0:0:0:0:
188,240,9382,2,0,L|181:191,1,48.750001859665,2|0,0:0|1:0,0:0:0:0:
256,192,9735,1,2,0:0:0:0:
372,72,11324,6,0,L|364:16,1,48.750001859665,4|2,1:2|0:0,0:0:0:0:
448,88,11677,2,0,L|504:80,1,48.750001859665,0|2,1:0|0:0,0:0:0:0:
432,164,12029,2,0,L|440:220,1,48.750001859665,0|2,1:0|0:0,0:0:0:0:
356,148,12382,2,0,L|300:156,1,48.750001859665,0|2,1:0|0:0,0:0:0:0:
256,216,12735,6,0,L|256:328,3,97.50000371933,0|8|0|8,1:3|1:3|1:3|1:3,0:0:0:0:
156,148,14147,6,0,L|204:154,1,48.750001859665,0|2,1:0|0:0,0:0:0:0:
80,164,14500,2,0,L|73:212,1,48.750001859665,0|2,1:0|0:0,0:0:0:0:
64,88,14853,2,0,L|15:81,1,48.750001859665,0|2,1:0|0:0,0:0:0:0:
140,72,15206,2,0,L|146:23,1,48.750001859665,0|2,1:0|0:0,0:0:0:0:
256,36,15559,6,0,L|256:136,3,97.50000371933,0|8|0|8,1:3|1:3|1:3|1:3,0:0:0:0:
365,23,16971,6,0,L|372:72,1,48.750001859665,0|0,1:2|0:0,0:0:0:0:
416,136,17324,2,0,P|444:148|480:152,1,48.750001859665,0|0,1:0|0:0,0:0:0:0:
461,232,17677,2,0,P|438:237|416:248,1,48.750001859665,0|0,1:0|0:0,0:0:0:0:
372,312,18029,2,0,L|365:360,1,48.750001859665,0|0,1:0|1:0,0:0:0:0:
284,344,18382,6,0,P|268:316|252:304,1,48.750001859665,0|0,1:0|0:0,0:0:0:0:
188,256,18735,2,0,L|132:248,1,48.750001859665,0|0,1:0|0:0,0:0:0:0:
139,134,19088,2,0,L|188:128,1,48.750001859665,0|0,1:0|0:0,0:0:0:0:
255,78,19441,2,0,P|273:61|284:40,1,48.750001859665,0|0,1:0|1:0,0:0:0:0:
256,192,19794,12,0,21206,0:0:0:0:
256,192,22441,5,0,0:0:0:0:
304,252,22618,6,0,P|356:248|432:312,2,130,4|8|0,1:2|0:3|0:0,0:0:0:0:
228,264,23500,2,0,L|148:264,2,65,0|8|0,2:0|0:3|2:0,0:0:0:0:
280,324,24029,2,0,P|236:364|152:352,1,130,0|8,0:0|0:3,0:0:0:0:
44,268,24735,2,0,L|40:116,1,130,0|8,0:0|0:3,0:0:0:0:
168,48,25441,6,0,P|231:44|279:86,1,130,0|8,0:0|0:3,0:0:0:0:
352,52,25971,1,0,2:0:0:0:
352,52,26147,2,0,L|424:56,1,65,0|0,0:0|2:0,0:0:0:0:
484,96,26500,2,0,P|484:144|428:212,2,130,8|0|8,0:3|0:0|0:3,0:0:0:0:
356,188,27559,1,0,0:0:0:0:
356,188,27912,1,8,0:3:0:0:
336,256,28088,1,0,0:0:0:0:
316,324,28265,6,0,P|252:344|192:296,2,130,0|8|0,0:0|0:3|0:0,0:0:0:0:
392,308,29147,2,0,L|460:312,2,65,0|8|0,2:0|0:3|2:0,0:0:0:0:
336,256,29677,2,0,P|308:224|300:120,1,130,0|8,0:0|0:3,0:0:0:0:
348,84,30206,2,0,L|412:84,1,65,0|0,2:0|0:0,0:0:0:0:
256,44,30735,1,8,0:3:0:0:
99,84,31088,6,0,B|168:84|168:84|192:116|176:156,1,130,0|8,0:0|0:3,0:0:0:0:
100,228,31618,1,0,2:0:0:0:
100,228,31794,2,0,P|88:180|92:156,1,65,0|0,0:0|2:0,0:0:0:0:
188,232,32147,2,0,P|176:284|128:348,1,130,8|0,0:3|0:0,0:0:0:0:
288,348,32853,5,8,0:3:0:0:
288,348,33029,1,0,0:0:0:0:
324,280,33206,2,0,P|355:266|396:272,1,65,0|0,0:0|0:0,0:0:0:0:
504,332,33559,2,0,P|471:333|442:320,1,65,8|0,3:0|0:0,0:0:0:0:
436,208,33912,6,0,L|444:56,1,130,4|8,0:2|0:3,0:0:0:0:
384,28,34441,1,0,2:0:0:0:
324,80,34618,2,0,P|272:88|240:84,1,65,0|0,0:0|2:0,0:0:0:0:
184,68,34971,1,8,0:3:0:0:
44,136,35324,6,0,L|56:216,2,65,0|0|8,0:0|2:0|0:3,0:0:0:0:
120,272,36029,2,0,L|132:192,2,65,0|0|8,0:0|0:0|0:3,0:0:0:0:
204,128,36735,6,0,P|260:156|348:128,1,130,0|8,0:0|0:3,0:0:0:0:
396,116,37265,1,0,2:0:0:0:
396,116,37441,2,0,L|388:48,1,65,0|0,0:0|2:0,0:0:0:0:
472,128,37794,1,8,0:3:0:0:
420,276,38147,6,0,L|424:340,2,65,0|0|8,0:0|2:0|0:3,0:0:0:0:
340,268,38677,1,0,2:0:0:0:
300,200,38853,2,0,L|304:136,2,65,0|0|8,0:0|0:0|0:3,0:0:0:0:
208,324,39559,6,0,P|176:336|144:332,1,65,4|0,0:2|0:0,0:0:0:0:
76,364,39912,2,0,L|64:288,1,65,8|0,0:3|0:0,0:0:0:0:
40,224,40265,2,0,P|72:212|104:216,1,65,0|0,0:0|0:0,0:0:0:0:
172,184,40618,2,0,L|184:260,1,65,8|0,0:3|0:0,0:0:0:0:
340,200,40971,6,0,L|329:135,1,65,0|0,0:0|0:0,0:0:0:0:
304,59,41324,2,0,P|334:48|366:51,1,65,8|0,0:3|0:0,0:0:0:0:
436,20,41677,2,0,L|446:84,1,65,0|0,0:0|0:0,0:0:0:0:
471,160,42029,2,0,P|441:171|409:168,1,65,8|0,0:3|0:0,0:0:0:0:
256,192,42382,12,0,43794,0:0:0:0:
144,100,43971,5,2,2:0:0:0:
348,80,44324,1,2,2:0:0:0:
368,284,44677,1,2,2:0:0:0:
164,304,45029,1,2,1:2:0:0:
164,304,45206,5,4,1:2:0:0:
56,144,56500,6,0,P|263:111|296:312,1,455,0|0,0:3|0:3,3:0:0:0:
212,309,59324,6,0,P|253:107|456:144,1,455,0|0,0:0|0:0,3:0:0:0:
456,239,62147,6,0,P|253:276|212:74,1,455,2|2,0:0|0:0,3:0:0:0:
299,74,64971,6,0,P|258:276|55:239,1,455,2|2,0:0|0:0,3:0:0:0:
55,144,67794,6,0,P|96:92|156:80,1,130,4|2,0:0|0:0,0:0:0:0:
355,80,69206,2,0,P|417:93|456:144,1,130,0|2,0:0|0:0,0:0:0:0:
396,288,70618,6,0,P|333:274|295:224,1,130,0|2,0:0|0:0,0:0:0:0:
116,288,72029,2,0,P|178:274|216:224,1,130,0|2,0:0|0:0,0:0:0:0:
168,76,73441,6,0,L|104:72,2,65,0|0|2,0:0|0:0|0:0,0:0:0:0:
344,76,74853,2,0,L|408:72,2,65,0|2|2,0:0|0:0|0:0,0:0:0:0:
164,160,76265,6,0,P|132:180|100:184,2,65,0|0|2,0:0|0:0|0:0,0:0:0:0:
348,160,77677,2,0,P|380:180|412:184,2,65,0|2|2,0:0|0:0|0:0,0:0:0:0:
376,352,79088,6,0,P|416:344|444:324,1,65,4|0,0:0|0:0,0:0:0:0:
432,252,79794,2,0,P|364:248|324:296,1,130,2|0,0:0|0:0,0:0:0:0:
256,260,80853,2,0,L|256:192,2,65,2|0|2,0:0|0:0|0:0,0:0:0:0:
186,290,81912,6,0,P|142:245|80:252,1,130,0|2,0:0|0:0,0:0:0:0:
75,331,82971,2,0,P|104:347|136:352,1,65,0|0,0:0|0:0,0:0:0:0:
212,368,83677,5,2,0:0:0:0:
256,304,84029,1,0,0:0:0:0:
300,368,84382,1,2,0:0:0:0:
376,352,84735,6,0,P|407:347|440:356,2,65,2|0|2,0:0|0:0|0:0,0:0:0:0:
340,280,85794,2,0,P|336:216|348:148,1,130,2|2,0:0|0:0,0:0:0:0:
292,96,86853,2,0,L|228:96,1,65,2|0,0:0|0:0,0:0:0:0:
165,151,87559,6,0,P|175:215|172:280,1,130,2|2,0:0|0:0,0:0:0:0:
135,352,88618,2,0,P|104:347|72:356,2,65,2|0|2,0:0|0:0|0:0,0:0:0:0:
216,348,89677,1,2,0:0:0:0:
296,348,90029,1,6,0:0:0:0:
256,192,90118,12,0,91618,1:0:0:0:
440,56,91794,6,0,P|404:64|368:64,1,65,4|2,0:0|0:0,0:0:0:0:
304,104,92147,2,0,P|272:104|248:96,1,48.750001859665,0|2,0:0|0:0,0:0:0:0:
172,124,92500,2,0,L|136:112,1,32.5,0|2,0:0|0:0,0:0:0:0:
52,116,92853,1,0,0:0:0:0:
52,116,93029,1,2,0:0:0:0:
52,116,94618,6,0,P|88:124|124:124,1,65,0|2,0:0|0:0,0:0:0:0:
188,164,94971,2,0,P|220:164|244:156,1,48.750001859665,0|2,0:0|0:0,0:0:0:0:
320,184,95324,2,0,L|356:172,1,32.5,0|2,0:0|0:0,0:0:0:0:
440,176,95677,1,0,0:0:0:0:
440,176,95853,1,2,0:0:0:0:
440,176,97441,6,0,P|404:184|368:184,1,65,0|2,0:0|0:0,0:0:0:0:
304,224,97794,2,0,P|272:224|248:216,1,48.750001859665,0|2,0:0|0:0,0:0:0:0:
172,244,98147,2,0,L|136:232,1,32.5,0|2,0:0|0:0,0:0:0:0:
52,236,98500,1,2,0:0:0:0:
52,236,98677,1,2,0:0:0:0:
52,236,100265,6,0,P|88:244|124:244,1,65,0|2,0:0|0:0,0:0:0:0:
188,284,100618,2,0,P|220:284|244:276,1,48.750001859665,0|2,0:0|0:0,0:0:0:0:
320,304,100971,2,0,L|356:292,1,32.5,0|2,0:0|0:0,0:0:0:0:
440,296,101324,1,2,0:0:0:0:
440,296,101500,1,2,0:0:0:0:
440,296,103088,6,0,L|432:160,3,130,4|2|2|2,0:0|3:0|3:0|3:0,0:0:0:0:
384,104,104324,1,0,0:0:0:0:
320,152,104500,2,0,P|304:200|320:284,3,130,2|2|2|2,3:0|3:0|3:0|3:0,0:0:0:0:
256,328,105735,1,2,0:0:0:0:
195,277,105912,6,0,P|209:214|192:152,3,130,2|2|2|2,3:0|3:0|3:0|3:0,0:0:0:0:
128,104,107147,1,0,0:0:0:0:
79,166,107324,2,0,L|72:296,3,130,2|2|0|0,3:0|3:0|0:0|0:0,0:0:0:0:
28,360,108559,1,0,0:0:0:0:
148,320,108735,6,0,P|184:328|212:352,1,65,2|2,3:0|3:0,0:0:0:0:
256,284,109088,1,2,3:0:0:0:
256,284,109265,1,2,3:0:0:0:
305,344,109441,2,0,P|332:326|364:320,1,65,2|2,3:0|3:0,0:0:0:0:
484,360,109794,1,2,3:0:0:0:
484,360,109971,1,2,3:0:0:0:
440,296,110147,6,0,L|448:228,1,65,2|2,3:3|3:3,0:0:0:0:
340,200,110500,2,0,P|324:160|324:124,1,65,2|2,3:3|3:3,0:0:0:0:
189,245,110853,6,0,P|185:213|172:184,1,65,2|2,3:3|3:3,0:0:0:0:
64,152,111206,2,0,L|72:88,1,65,0|0,1:1|1:1,0:0:0:0:
256,192,111559,12,0,114382,0:0:0:0:
436,236,115618,5,0,1:0:0:0:
436,236,115794,6,0,L|308:244,1,126.749994197846,4|0,0:2|2:0,0:0:0:0:
296,256,116147,2,0,P|272:204|276:164,1,84.4999961318971,0|2,0:0|0:2,0:0:0:0:
320,108,116500,2,0,L|446:100,2,126.749994197846,2|2|2,0:2|0:2|0:2,0:0:0:0:
236,104,117206,6,0,P|192:88|172:56,1,84.4999961318971,2|0,0:2|0:0,0:0:0:0:
32,120,117559,1,2,0:2:0:0:
32,120,117735,2,0,P|112:132|152:208,1,168.999992263794,2|2,0:2|0:2,0:0:0:0:
100,272,118265,2,0,L|16:268,1,84.4999961318971,0|2,0:0|0:2,0:0:0:0:
92,352,118618,6,0,P|156:360|224:340,3,126.749994197846,2|6|2|6,0:2|2:0|0:2|2:0,0:0:0:0:
304,256,119677,2,0,P|352:268|396:264,1,84.4999961318971,2|0,0:2|0:0,0:0:0:0:
420,352,120029,6,0,P|356:360|288:340,2,126.749994197846,2|2|6,0:2|0:2|0:2,0:0:0:0:
484,296,120735,2,0,P|499:235|491:172,2,126.749994197846,2|2|6,0:2|0:2|2:0,0:0:0:0:
404,268,121441,6,0,L|312:156,1,126.749994197846,4|0,0:2|2:0,0:0:0:0:
304,148,121794,2,0,P|348:128|384:132,1,84.4999961318971,2|0,2:0|0:0,0:0:0:0:
460,96,122147,2,0,L|468:8,2,84.4999961318971,2|2|2,0:2|0:2|0:2,0:0:0:0:
448,180,122677,1,0,0:0:0:0:
508,264,122853,6,0,P|504:312|480:344,1,84.4999961318971,2|0,0:2|0:0,0:0:0:0:
322,278,123206,2,0,P|362:264|404:268,1,84.4999961318971,2|0,0:2|0:0,0:0:0:0:
272,364,123559,2,0,L|144:364,2,126.749994197846,2|2|2,1:2|1:2|1:2,0:0:0:0:
323,279,124265,2,0,P|327:231|320:192,1,84.4999961318971,2|0,0:2|0:0,0:0:0:0:
288,116,124618,5,2,0:2:0:0:
288,116,124794,2,0,P|368:72|456:112,1,168.999992263794,2|2,0:2|0:2,0:0:0:0:
460,191,125324,2,0,L|376:184,1,84.4999961318971,0|0,2:0|0:0,0:0:0:0:
396,268,125677,6,0,L|264:256,1,126.749994197846,2|2,0:2|0:2,0:0:0:0:
240,264,126029,2,0,P|208:292|196:336,1,84.4999961318971,0|2,0:0|0:2,0:0:0:0:
112,348,126382,2,0,L|104:300,1,42.2499980659486,2|0,0:2|0:0,0:0:0:0:
8,256,126647,2,0,L|16:208,1,42.2499980659486,2|8,0:2|3:0,0:0:0:0:
120,160,126912,1,4,0:3:0:0:
36,104,127088,6,0,P|92:60|168:76,1,126.749994197846,4|0,0:3|2:0,0:0:0:0:
168,76,127441,2,0,L|272:72,1,84.4999961318971,0|2,0:0|0:2,0:0:0:0:
332,104,127794,2,0,P|408:80|432:44,2,126.749994197846,2|2|2,0:2|0:2|0:2,0:0:0:0:
276,168,128500,6,0,P|272:216|288:256,1,84.4999961318971,2|0,0:2|0:0,0:0:0:0:
360,292,128853,1,2,0:2:0:0:
360,292,129029,2,0,P|376:216|464:164,1,168.999992263794,2|2,0:2|0:2,0:0:0:0:
472,248,129559,2,0,P|468:296|484:336,1,84.4999961318971,2|0,0:2|0:0,0:0:0:0:
412,380,129912,6,0,P|340:376|292:332,3,126.749994197846,2|6|2|6,0:2|2:0|0:2|2:0,0:0:0:0:
204,256,130971,2,0,P|152:276|132:300,1,84.4999961318971,2|2,0:2|2:0,0:0:0:0:
100,380,131324,6,0,P|172:376|220:332,2,126.749994197846,2|2|6,0:2|0:2|2:0,0:0:0:0:
36,328,132029,2,0,P|20:268|56:208,2,126.749994197846,2|2|6,0:2|0:2|2:0,0:0:0:0:
116,296,132735,6,0,L|200:196,1,126.749994197846,4|0,2:0|2:0,0:0:0:0:
212,176,133088,2,0,P|220:144|212:88,1,84.4999961318971,2|0,0:2|0:0,0:0:0:0:
136,56,133441,2,0,L|48:64,2,84.4999961318971,2|2|2,0:2|0:2|0:2,0:0:0:0:
213,93,133971,1,0,0:0:0:0:
300,84,134147,6,0,L|484:68,1,168.999992263794,2|2,0:2|0:2,0:0:0:0:
496,152,134677,1,0,0:0:0:0:
428,204,134853,2,0,P|356:200|308:160,2,126.749994197846,2|2|2,0:2|0:2|0:2,0:0:0:0:
480,272,135559,2,0,L|472:356,1,84.4999961318971,2|0,0:2|0:0,0:0:0:0:
396,320,135912,5,2,0:2:0:0:
396,320,136088,2,0,P|308:312|244:364,1,168.999992263794,2|2,0:2|0:2,0:0:0:0:
164,332,136618,2,0,L|68:340,1,84.4999961318971,0|0,2:0|0:0,0:0:0:0:
136,212,136971,6,0,P|188:220|224:284,2,126.749994197846,2|2|2,2:0|2:0|2:0,0:0:0:0:
52,232,137677,2,0,L|16:260,2,42.2499980659486,2|0|4,0:2|0:0|0:2,0:0:0:0:
76,148,138029,1,4,0:2:0:0:
32,76,138206,1,0,0:0:0:0:
76,148,138382,6,0,L|204:140,1,126.749994197846,4|0,0:0|0:0,0:0:0:0:
216,128,138735,2,0,P|240:180|236:220,1,84.4999961318971,2|0,0:2|0:2,0:0:0:0:
192,276,139088,2,0,L|65:283,2,126.749994197846,2|2|2,0:2|0:2|0:2,0:0:0:0:
276,280,139794,6,0,P|320:296|340:328,1,84.4999961318971,2|0,0:2|0:0,0:0:0:0:
480,264,140147,1,2,0:2:0:0:
480,264,140324,2,0,P|400:252|360:176,1,168.999992263794,2|2,0:2|0:2,0:0:0:0:
412,112,140853,2,0,L|496:116,1,84.4999961318971,0|2,0:0|0:2,0:0:0:0:
420,32,141206,6,0,P|356:24|288:44,3,126.749994197846,2|6|2|6,0:2|2:0|0:2|2:2,0:0:0:0:
208,128,142265,2,0,P|160:116|116:120,1,84.4999961318971,2|0,0:2|2:0,0:0:0:0:
92,32,142618,6,0,P|156:24|224:44,2,126.749994197846,2|2|6,0:2|0:2|0:2,0:0:0:0:
28,88,143324,2,0,P|12:148|20:211,2,126.749994197846,2|2|6,0:2|0:2|0:2,0:0:0:0:
108,116,144029,6,0,L|200:228,1,126.749994197846,4|0,0:2|2:0,0:0:0:0:
208,236,144382,2,0,P|164:256|128:252,1,84.4999961318971,2|0,0:2|0:0,0:0:0:0:
52,288,144735,2,0,L|44:376,2,84.4999961318971,2|2|2,0:2|0:2|0:2,0:0:0:0:
64,204,145265,1,0,0:0:0:0:
4,120,145441,6,0,P|8:72|32:40,1,84.4999961318971,2|0,0:2|0:0,0:0:0:0:
189,105,145794,2,0,P|149:119|108:116,1,84.4999961318971,2|0,0:2|0:0,0:0:0:0:
240,20,146147,2,0,L|368:20,2,126.749994197846,2|2|2,0:2|0:2|0:2,0:0:0:0:
189,105,146853,2,0,P|185:153|192:192,1,84.4999961318971,2|0,0:2|0:0,0:0:0:0:
224,268,147206,5,2,0:2:0:0:
224,268,147382,2,0,P|144:312|56:272,1,168.999992263794,2|2,0:2|0:2,0:0:0:0:
51,192,147912,2,0,L|136:200,1,84.4999961318971,0|0,2:0|0:0,0:0:0:0:
116,116,148265,6,0,L|248:128,1,126.749994197846,2|2,0:2|0:2,0:0:0:0:
272,120,148618,2,0,P|304:92|316:48,1,84.4999961318971,0|2,0:0|0:2,0:0:0:0:
400,36,148971,2,0,L|408:84,1,42.2499980659486,0|2,0:0|0:2,0:0:0:0:
504,128,149235,2,0,L|496:176,1,42.2499980659486,0|8,0:0|3:0,0:0:0:0:
392,224,149500,1,4,3:0:0:0:
476,280,149677,6,0,P|420:324|344:308,1,126.749994197846,4|0,3:0|2:0,0:0:0:0:
344,308,150029,2,0,L|240:312,1,84.4999961318971,0|2,0:0|0:2,0:0:0:0:
180,280,150382,2,0,P|104:304|80:340,2,126.749994197846,2|2|2,0:2|0:2|0:2,0:0:0:0:
236,216,151088,6,0,P|240:168|224:128,1,84.4999961318971,2|0,0:2|0:0,0:0:0:0:
152,92,151441,1,2,0:2:0:0:
152,92,151618,2,0,P|136:168|48:220,1,168.999992263794,2|2,0:2|0:2,0:0:0:0:
40,136,152147,2,0,P|44:88|28:48,1,84.4999961318971,0|2,0:0|0:2,0:0:0:0:
100,4,152500,6,0,P|172:8|220:52,3,126.749994197846,2|6|2|6,0:2|2:0|0:2|2:0,0:0:0:0:
308,128,153559,2,0,P|360:108|380:84,1,84.4999961318971,2|2,0:2|2:0,0:0:0:0:
412,4,153912,6,0,P|340:8|292:52,2,126.749994197846,4|2|2,0:2|0:2|0:2,0:0:0:0:
476,56,154618,2,0,P|492:116|456:176,2,126.749994197846,4|2|2,0:2|0:2|0:2,0:0:0:0:
396,88,155324,6,0,L|312:188,1,126.749994197846,4|0,0:2|2:0,0:0:0:0:
300,208,155677,2,0,P|292:240|300:296,1,84.4999961318971,2|0,0:2|0:0,0:0:0:0:
376,328,156029,2,0,L|464:320,2,84.4999961318971,2|2|2,0:2|0:2|0:2,0:0:0:0:
298,290,156559,1,0,0:0:0:0:
212,300,156735,6,0,L|28:316,1,168.999992263794,2|2,0:2|0:2,0:0:0:0:
16,232,157265,1,2,0:2:0:0:
84,180,157441,2,0,P|156:184|204:224,2,126.749994197846,2|2|2,0:2|0:2|0:2,0:0:0:0:
32,112,158147,2,0,L|40:28,1,84.4999961318971,2|0,0:2|0:0,0:0:0:0:
116,64,158500,5,2,0:2:0:0:
116,64,158677,2,0,P|204:72|268:20,1,168.999992263794,2|2,0:2|0:2,0:0:0:0:
348,52,159206,2,0,L|444:44,1,84.4999961318971,0|0,2:0|0:0,0:0:0:0:
376,172,159559,6,0,P|324:164|288:100,2,126.749994197846,6|2|2,0:2|0:2|0:2,0:0:0:0:
460,148,160265,2,0,L|504:136,2,42.2499980659486,0|0|4,0:0|0:0|0:2,0:0:0:0:
440,232,160618,1,4,0:2:0:0:
476,308,160794,1,4,0:2:0:0:
440,232,160971,6,0,P|388:269|324:268,1,130,4|8,0:2|0:3,0:0:0:0:
248,188,161500,2,0,P|288:184|320:196,1,65,0|0,2:0|0:0,0:0:0:0:
228,264,161853,2,0,L|148:264,2,65,0|8|0,2:0|0:3|2:0,0:0:0:0:
280,324,162382,2,0,P|236:364|152:352,1,130,0|8,0:0|0:3,0:0:0:0:
44,268,163088,2,0,L|40:116,1,130,0|8,0:0|0:3,0:0:0:0:
168,48,163794,6,0,P|231:44|279:86,1,130,0|8,0:0|0:3,0:0:0:0:
352,52,164324,1,0,2:2:0:0:
352,52,164500,2,0,L|424:56,1,65,0|0,0:0|2:0,0:0:0:0:
484,96,164853,2,0,P|484:144|428:212,2,130,8|0|8,0:3|0:0|0:3,0:0:0:0:
356,188,165912,1,0,0:0:0:0:
356,188,166265,1,8,0:3:0:0:
336,256,166441,1,0,0:0:0:0:
316,324,166618,6,0,P|252:344|192:296,2,130,0|8|0,0:0|0:3|0:0,0:0:0:0:
392,308,167500,2,0,L|460:312,2,65,0|8|0,2:2|0:3|2:0,0:0:0:0:
336,256,168029,2,0,P|308:224|300:120,1,130,0|8,0:0|0:3,0:0:0:0:
348,84,168559,2,0,L|412:84,1,65,0|0,2:0|0:0,0:0:0:0:
256,44,169088,1,8,0:3:0:0:
99,84,169441,6,0,B|168:84|168:84|192:116|176:156,1,130,0|8,0:0|0:3,0:0:0:0:
100,228,169971,1,0,2:0:0:0:
100,228,170147,2,0,P|88:180|92:156,1,65,0|0,0:0|2:0,0:0:0:0:
188,232,170500,2,0,P|176:284|128:348,1,130,8|0,0:3|0:0,0:0:0:0:
288,348,171206,5,8,0:3:0:0:
288,348,171382,1,0,0:0:0:0:
324,280,171559,2,0,P|355:266|396:272,1,65,0|0,0:0|0:0,0:0:0:0:
504,332,171912,2,0,P|471:333|442:320,1,65,8|0,0:3|0:0,0:0:0:0:
436,208,172265,6,0,L|444:56,1,130,4|10,0:2|0:3,0:0:0:0:
384,28,172794,1,0,2:2:0:0:
324,80,172971,2,0,P|272:88|240:84,1,65,2|0,0:3|2:0,0:0:0:0:
184,68,173324,1,10,0:3:0:0:
44,136,173677,6,0,L|56:216,2,65,2|0|10,0:3|2:0|0:3,0:0:0:0:
120,272,174382,2,0,L|132:192,2,65,2|0|10,0:3|0:0|0:3,0:0:0:0:
204,128,175088,6,0,P|260:156|348:128,1,130,2|10,0:3|0:3,0:0:0:0:
396,116,175618,1,0,2:0:0:0:
396,116,175794,2,0,L|388:48,1,65,2|0,0:3|2:2,0:0:0:0:
472,128,176147,1,10,0:3:0:0:
420,276,176500,6,0,L|424:340,2,65,2|0|10,0:3|2:0|0:3,0:0:0:0:
340,268,177029,1,0,2:0:0:0:
300,200,177206,2,0,L|304:136,2,65,2|0|10,0:3|0:0|0:3,0:0:0:0:
208,324,177912,6,0,P|176:336|144:332,1,65,2|2,0:3|0:3,0:0:0:0:
76,364,178265,2,0,L|64:288,1,65,10|2,0:3|0:3,0:0:0:0:
40,224,178618,2,0,P|72:212|104:216,1,65,2|0,0:3|0:3,0:0:0:0:
172,184,178971,2,0,L|184:260,1,65,10|2,0:3|0:3,0:0:0:0:
340,200,179324,6,0,L|329:135,1,65,2|2,0:3|0:3,0:0:0:0:
304,59,179677,2,0,P|334:48|366:51,1,65,10|2,0:3|0:3,0:0:0:0:
436,20,180029,2,0,L|446:84,1,65,2|2,0:3|0:3,0:0:0:0:
471,160,180382,2,0,P|441:171|409:168,1,65,8|2,0:3|0:3,0:0:0:0:
256,192,180735,12,0,182147,0:0:0:0:
256,280,182324,5,2,2:2:0:0:
396,356,182677,1,2,2:2:0:0:
256,280,183029,1,2,2:2:0:0:
124,364,183382,1,2,1:2:0:0:
52,332,183559,5,4,1:2:0:0:
52,332,183735,2,0,L|44:272,1,48.750001859665,2|0,0:0|1:3,0:0:0:0:
120,288,184088,2,0,L|112:228,1,48.750001859665,2|0,0:0|1:0,0:0:0:0:
188,240,184441,2,0,L|180:180,1,48.750001859665,2|0,0:0|1:3,0:0:0:0:
256,192,184794,1,2,0:0:0:0:
460,332,186382,5,0,1:0:0:0:
460,332,186559,2,0,L|468:272,1,48.750001859665,2|0,0:0|1:0,0:0:0:0:
392,288,186912,2,0,L|400:228,1,48.750001859665,2|0,0:0|1:0,0:0:0:0:
324,240,187265,2,0,L|332:180,1,48.750001859665,2|0,0:0|1:0,0:0:0:0:
256,192,187618,1,2,0:0:0:0:
52,52,189206,5,0,1:0:0:0:
52,52,189382,2,0,L|44:112,1,48.750001859665,2|0,0:0|1:0,0:0:0:0:
120,96,189735,2,0,L|112:156,1,48.750001859665,2|0,0:0|1:0,0:0:0:0:
188,144,190088,2,0,L|180:204,1,48.750001859665,2|0,0:0|1:0,0:0:0:0:
256,192,190441,1,2,0:0:0:0:
460,52,192029,5,0,1:0:0:0:
460,52,192206,2,0,L|467:101,1,48.750001859665,2|0,0:0|1:0,0:0:0:0:
392,96,192559,2,0,L|399:145,1,48.750001859665,2|0,0:0|1:0,0:0:0:0:
324,144,192912,2,0,L|331:193,1,48.750001859665,2|0,0:0|1:0,0:0:0:0:
256,192,193265,1,2,0:0:0:0:
140,312,194853,6,0,L|148:368,1,48.750001859665,4|2,1:2|0:0,0:0:0:0:
64,296,195206,2,0,L|8:304,1,48.750001859665,0|2,1:0|0:0,0:0:0:0:
80,220,195559,2,0,L|72:164,1,48.750001859665,0|2,1:0|0:0,0:0:0:0:
156,236,195912,2,0,L|212:228,1,48.750001859665,0|2,1:0|0:0,0:0:0:0:
256,168,196265,6,0,L|256:56,3,97.50000371933,0|8|0|8,1:3|1:3|1:3|1:3,0:0:0:0:
356,236,197677,6,0,L|308:230,1,48.750001859665,0|2,1:0|0:0,0:0:0:0:
432,220,198029,2,0,L|439:172,1,48.750001859665,0|2,1:0|0:0,0:0:0:0:
448,296,198382,2,0,L|497:303,1,48.750001859665,0|2,1:0|0:0,0:0:0:0:
372,312,198735,2,0,L|366:361,1,48.750001859665,0|2,1:0|0:0,0:0:0:0:
256,348,199088,6,0,L|256:248,3,97.50000371933,0|8|0|8,1:3|1:3|1:3|1:3,0:0:0:0:
147,361,200500,6,0,L|140:312,1,48.750001859665,4|0,1:2|0:0,0:0:0:0:
96,248,200853,2,0,P|68:236|32:232,1,48.750001859665,0|0,1:0|0:0,0:0:0:0:
51,152,201206,2,0,P|74:147|96:136,1,48.750001859665,0|0,1:0|0:0,0:0:0:0:
140,72,201559,2,0,L|147:24,1,48.750001859665,0|0,1:0|1:0,0:0:0:0:
228,40,201912,6,0,P|244:68|260:80,1,48.750001859665,0|0,1:0|0:0,0:0:0:0:
324,128,202265,2,0,L|380:136,1,48.750001859665,0|0,1:0|0:0,0:0:0:0:
373,250,202618,2,0,L|324:256,1,48.750001859665,0|0,1:0|0:0,0:0:0:0:
257,306,202971,2,0,P|239:323|228:344,1,48.750001859665,0|0,1:0|1:0,0:0:0:0:
256,192,203324,12,0,204735,1:0:0:0:
256,192,205971,5,0,1:0:0:0:
