osu file format v13

[General]
AudioFilename: Chase and Status ft. Plan B - End Credits.mp3
AudioLeadIn: 0
PreviewTime: 98433
Countdown: 0
SampleSet: Soft
StackLeniency: 0.7
Mode: 0
LetterboxInBreaks: 0
WidescreenStoryboard: 0

[Editor]
DistanceSpacing: 1
BeatDivisor: 4
GridSize: 4
TimelineZoom: 1

[Metadata]
Title:End Credits
TitleUnicode:End Credits
Artist:Chase and Status ft. Plan B
ArtistUnicode:Chase and Status ft. Plan B
Creator:Kyshiro
Version:Normal
Source:
Tags:Ami drum and bass no more idols dnb
BeatmapID:355155
BeatmapSetID:142668

[Difficulty]
HPDrainRate:4
CircleSize:3.5
OverallDifficulty:4
ApproachRate:5
SliderMultiplier:1
SliderTickRate:1

[Events]
//Background and Video events
0,0,"wallpaper-1381908.jpg",0,0
//Break Periods
//Storyboard Layer 0 (Background)
//Storyboard Layer 1 (Fail)
//Storyboard Layer 2 (Pass)
//Storyboard Layer 3 (Foreground)
//Storyboard Sound Samples
//Background Colour Transformations
3,100,163,162,255

[TimingPoints]
33,342.857142857143,4,2,1,20,1,0
21975,-100,4,2,1,40,0,0
54890,-100,4,2,1,60,0,0
98775,-100,4,2,1,60,0,1
109747,-100,4,2,1,50,0,0
120732,342.857142857143,4,2,1,40,1,0
120732,-100,4,2,1,40,0,0
128960,-100,4,2,0,20,0,0

[Colours]
Combo1 : 159,129,160
Combo2 : 192,80,83
Combo3 : 133,157,182
Combo4 : 236,200,164

[HitObjects]
299,235,21975,6,0,P|339:267|440:259,2,150,2|2|0,0:0|0:0|0:0,0:0:0:0:
289,185,23175,2,0,B|277:84|277:84|229:47,1,150,2|0,0:0|0:0,0:0:0:0:
190,39,23861,2,0,P|129:55|111:138,1,150,2|2,0:0|0:0,0:0:0:0:
170,211,24718,6,0,B|277:218|277:218|338:207,2,150,2|2|0,0:0|0:0|0:0,0:0:0:0:
125,234,25918,2,0,P|75:212|27:222,1,100,2|0,0:0|0:0,0:0:0:0:
5,262,26433,1,0,0:0:0:0:
3,311,26604,2,0,P|49:356|130:342,1,150,2|0,0:0|0:0,0:0:0:0:
209,285,27461,6,0,P|285:259|352:281,2,150,2|2|0,0:0|0:0|0:0,0:0:0:0:
163,264,28661,2,0,B|131:197|131:197|131:121,1,150,2|0,0:0|0:0,0:0:0:0:
170,89,29347,2,0,P|218:71|272:91,2,100,2|2|0,0:0|0:0|0:0,0:0:0:0:
121,75,30204,5,2,0:0:0:0:
26,116,30547,1,0,0:0:0:0:
2,155,30718,2,0,P|-11:213|34:296,1,150,2|0,0:0|0:0,0:0:0:0:
77,297,31404,2,0,P|135:287|228:303,1,150,2|0,0:0|0:0,0:0:0:0:
314,258,32261,2,0,P|363:278|420:270,1,100,2|0,0:0|0:0,0:0:0:0:
376,179,32947,6,0,P|302:128|239:114,2,150,2|2|0,0:0|0:0|0:0,0:0:0:0:
415,147,34147,2,0,B|440:48|440:48|488:23,1,150,2|0,0:0|0:0,0:0:0:0:
511,121,35004,2,0,L|485:222,1,100,2|2,0:0|0:0,0:0:0:0:
411,285,35690,6,0,P|349:268|308:277,1,100,2|0,0:0|0:0,0:0:0:0:
268,254,36204,2,0,P|201:268|118:260,1,150,2|0,0:0|0:0,0:0:0:0:
91,223,36890,2,0,P|87:155|51:79,1,150,2|0,0:0|0:0,0:0:0:0:
16,47,37575,2,0,B|88:59|88:59|113:33|157:28,1,150,2|0,0:0|0:0,0:0:0:0:
159,128,38433,6,0,P|220:144|311:127,2,150,2|2|0,0:0|0:0|0:0,0:0:0:0:
127,89,39633,1,2,0:0:0:0:
55,159,39975,2,0,L|47:223,1,50,0|0,0:0|0:0,0:0:0:0:
70,254,40318,2,0,P|132:243|219:264,1,150,2|0,0:0|0:0,0:0:0:0:
292,326,41175,6,0,P|355:336|402:322,1,100,2|0,0:0|0:0,0:0:0:0:
429,296,41690,2,0,P|458:241|436:153,1,150,2|0,0:0|0:0,0:0:0:0:
400,127,42375,1,2,0:0:0:0:
321,189,42718,2,0,L|260:185,1,50,0|0,0:0|0:0,0:0:0:0:
231,155,43061,2,0,P|196:176|126:170,1,100,2|0,0:0|0:0,0:0:0:0:
95,148,43575,1,2,0:0:0:0:
166,78,43918,6,0,P|258:39|390:127,1,250,2|0,0:0|0:0,0:0:0:0:
387,207,45118,2,0,L|371:307,1,100,2|0,0:0|0:0,0:0:0:0:
328,332,45633,1,0,0:0:0:0:
250,269,45975,2,0,P|241:245|242:219,1,50,2|0,0:0|0:0,0:0:0:0:
140,108,46661,6,0,P|61:99|9:145,2,150,2|2|0,0:0|0:0|0:0,0:0:0:0:
182,80,47861,2,0,P|236:94|325:53,1,150,2|0,0:0|0:0,0:0:0:0:
390,129,48718,2,0,L|398:179,1,50,2|0,0:0|0:0,0:0:0:0:
282,273,49404,6,0,P|323:316|373:328,1,100,2|0,0:0|0:0,0:0:0:0:
410,321,49918,2,0,P|449:291|469:245,1,100,2|0,0:0|0:0,0:0:0:0:
371,228,50604,2,0,P|306:176|195:208,1,200,2|0,0:0|0:0,0:0:0:0:
167,240,51461,2,0,L|141:295,1,50,2|0,0:0|0:0,0:0:0:0:
31,187,52147,6,0,P|22:123|75:54,2,150,2|2|0,0:0|0:0|0:0,0:0:0:0:
72,215,53347,2,0,L|221:205,1,150,2|0,0:0|0:0,0:0:0:0:
269,190,54033,2,0,P|314:208|381:196,1,100,2|0,0:0|0:0,0:0:0:0:
406,173,54547,1,8,0:0:0:0:
328,109,54890,6,0,L|224:92,1,100,4|8,0:0|0:0,0:0:0:0:
179,100,55404,2,0,P|126:126|68:121,1,100,4|8,0:0|0:0,0:0:0:0:
40,105,55918,1,4,0:0:0:0:
11,200,56261,2,0,P|32:262|44:350,1,150,4|4,0:0|0:0,0:0:0:0:
125,289,57118,2,0,L|136:237,1,50,8|4,0:0|0:0,0:0:0:0:
213,177,57633,6,0,P|253:168|277:169,2,50,8|2|2,0:0|0:0|0:0,0:0:0:0:
169,152,58147,2,0,P|161:126|159:102,2,50,8|2|2,0:0|0:0|0:0,0:0:0:0:
135,189,58661,1,8,0:0:0:0:
192,270,59004,2,0,L|292:256,1,100,8|2,0:0|0:0,0:0:0:0:
333,283,59518,2,0,P|394:303|485:263,1,150,8|8,0:0|0:0,0:0:0:0:
491,177,60375,6,0,B|481:127|481:127|499:83|499:83|492:31,2,150,4|4|4,0:0|0:0|0:0,0:0:0:0:
394,150,61747,2,0,P|331:138|281:148,1,100,4|8,0:0|0:0,0:0:0:0:
250,164,62261,2,0,P|183:173|136:163,1,100,4|8,0:0|0:0,0:0:0:0:
110,139,62775,1,4,0:0:0:0:
155,50,63118,6,0,L|211:40,2,50,8|2|2,0:0|0:0|0:0,0:0:0:0:
108,31,63633,1,8,0:0:0:0:
28,90,63975,2,0,L|16:138,1,50,2|8,0:0|0:0,0:0:0:0:
78,217,64490,2,0,P|88:263|77:333,1,100,8|2,0:0|0:0,0:0:0:0:
63,361,65004,2,0,L|182:355,1,100,8|2,0:0|0:0,0:0:0:0:
206,331,65518,1,8,0:0:0:0:
277,260,65861,6,0,P|228:232|173:236,1,100,4|8,0:0|0:0,0:0:0:0:
137,247,66375,2,0,P|87:245|45:219,1,100,4|8,0:0|0:0,0:0:0:0:
26,172,66890,1,4,0:0:0:0:
102,107,67233,2,0,L|266:103,1,150,4|4,0:0|0:0,0:0:0:0:
350,120,68090,2,0,P|385:125|417:118,1,50,8|4,0:0|0:0,0:0:0:0:
379,25,68604,6,0,P|310:16|266:28,1,100,8|2,0:0|0:0,0:0:0:0:
244,56,69118,2,0,P|267:114|260:166,1,100,8|2,0:0|0:0,0:0:0:0:
240,194,69633,1,8,0:0:0:0:
164,124,69975,2,0,P|99:149|14:138,2,150,8|8|8,0:0|0:0|0:0,0:0:0:0:
280,89,71347,6,0,P|301:152|303:191,1,100,4|8,0:0|0:0,0:0:0:0:
292,234,71861,2,0,L|395:226,1,100,2|8,0:0|0:0,0:0:0:0:
435,250,72375,1,2,0:0:0:0:
398,343,72718,2,0,P|351:355|296:339,1,100,4|8,0:0|0:0,0:0:0:0:
260,314,73233,2,0,P|213:302|158:318,1,100,2|8,0:0|0:0,0:0:0:0:
128,349,73747,1,2,0:0:0:0:
60,274,74090,6,0,P|41:246|39:222,2,50,8|2|2,0:0|0:0|0:0,0:0:0:0:
109,267,74604,2,0,P|123:236|143:222,2,50,8|2|2,0:0|0:0|0:0,0:0:0:0:
144,302,75118,1,0,0:0:0:0:
231,253,75461,2,0,P|230:197|149:130,1,150,8|8,0:0|0:0,0:0:0:0:
93,65,76318,2,0,L|149:56,1,50,2|8,0:0|0:0,0:0:0:0:
237,24,76833,5,4,0:0:0:0:
298,102,77175,2,0,L|354:93,1,50,8|4,0:0|0:0,0:0:0:0:
398,199,77690,2,0,L|342:190,1,50,8|4,0:0|0:0,0:0:0:0:
265,243,78204,2,0,P|202:234|118:270,2,150,4|4|0,0:0|0:0|0:0,0:0:0:0:
348,300,79575,6,0,P|403:314|457:296,1,100,8|2,0:0|0:0,0:0:0:0:
473,263,80090,2,0,L|489:158,1,100,8|2,0:0|0:0,0:0:0:0:
460,122,80604,1,8,0:0:0:0:
365,89,80947,2,0,P|332:121|219:114,2,150,8|8|2,0:0|0:0|0:0,0:0:0:0:
281,33,82318,5,4,0:0:0:0:
182,50,82661,2,0,L|121:148,1,100,8|0,0:0|0:0,0:0:0:0:
82,152,83175,2,0,P|51:158|27:153,1,50,8|0,0:0|0:0,0:0:0:0:
84,240,83690,2,0,P|142:237|180:255,1,100,4|8,0:0|0:0,0:0:0:0:
222,280,84204,2,0,P|280:283|318:265,1,100,2|8,0:0|0:0,0:0:0:0:
334,218,84718,1,2,0:0:0:0:
375,127,85061,6,0,B|383:227|383:227|419:263,2,150,8|8|8,0:0|0:0|0:0,0:0:0:0:
300,60,86433,2,0,P|260:47|191:58,1,100,8|2,0:0|0:0,0:0:0:0:
176,95,86947,2,0,L|134:199,1,100,8|2,0:0|0:0,0:0:0:0:
93,208,87461,1,8,0:0:0:0:
162,280,87804,6,0,P|211:264|266:275,1,100,4|8,0:0|0:0,0:0:0:0:
303,292,88318,2,0,P|349:304|410:292,1,100,4|8,0:0|0:0,0:0:0:0:
442,268,88833,1,4,0:0:0:0:
409,173,89175,2,0,L|253:158,1,150,4|4,0:0|0:0,0:0:0:0:
168,199,90033,2,0,P|156:231|165:262,1,50,8|0,0:0|0:0,0:0:0:0:
73,192,90547,6,0,P|81:141|67:88,1,100,8|2,0:0|0:0,0:0:0:0:
30,63,91061,1,8,0:0:0:0:
126,36,91404,2,0,L|181:31,1,50,2|8,0:0|0:0,0:0:0:0:
242,105,91918,2,0,P|289:123|344:117,1,100,8|2,0:0|0:0,0:0:0:0:
381,94,92433,2,0,P|430:90|476:108,1,100,8|2,0:0|0:0,0:0:0:0:
502,151,92947,1,8,0:0:0:0:
437,227,93290,5,4,0:0:0:0:
341,197,93633,2,0,L|236:209,1,100,8|2,0:0|0:0,0:0:0:0:
194,191,94147,2,0,P|173:171|165:143,1,50,8|2,0:0|0:0,0:0:0:0:
86,90,94661,2,0,L|67:203,1,100,4|8,0:0|0:0,0:0:0:0:
62,238,95175,1,2,0:0:0:0:
133,307,95518,1,8,0:0:0:0:
238,201,96033,6,0,P|246:165|246:148,2,50,8|2|2,0:0|0:0|0:0,0:0:0:0:
236,251,96547,2,0,P|237:275|244:299,2,50,8|2|2,0:0|0:0|0:0,0:0:0:0:
278,224,97061,1,8,0:0:0:0:
370,185,97404,2,0,P|380:150|363:84,1,100,8|2,0:0|0:0,0:0:0:0:
322,64,97918,1,8,0:0:0:0:
229,103,98261,2,0,P|200:113|173:116,1,50,2|8,0:0|0:0,0:0:0:0:
89,155,98775,6,0,P|67:212|78:263,1,100,4|8,0:0|0:0,0:0:0:0:
104,288,99290,2,0,P|148:306|205:299,1,100,0|8,0:0|0:0,0:0:0:0:
241,274,99804,1,0,0:0:0:0:
320,212,100147,2,0,P|386:204|432:228,1,100,4|8,0:0|0:0,0:0:0:0:
445,256,100661,1,0,0:0:0:0:
364,314,101004,2,0,L|313:288,1,50,8|0,0:0|0:0,0:0:0:0:
235,237,101518,6,0,P|220:203|233:139,1,100,4|8,0:0|0:0,0:0:0:0:
269,110,102033,2,0,L|379:102,1,100,0|8,0:0|0:0,0:0:0:0:
408,72,102547,1,0,0:0:0:0:
499,113,102890,2,0,P|518:166|506:219,1,100,4|8,0:0|0:0,0:0:0:0:
478,245,103404,1,0,0:0:0:0:
383,211,103747,2,0,P|326:201|272:215,1,100,8|0,0:0|0:0,0:0:0:0:
246,241,104261,6,0,P|189:261|145:261,1,100,4|8,0:0|0:0,0:0:0:0:
102,246,104775,1,2,0:0:0:0:
56,156,105118,2,0,L|49:101,1,50,8|2,0:0|0:0,0:0:0:0:
120,34,105633,2,0,P|147:82|147:130,1,100,4|8,0:0|0:0,0:0:0:0:
156,175,106147,1,2,0:0:0:0:
231,109,106490,2,0,L|236:58,1,50,8|2,0:0|0:0,0:0:0:0:
327,99,107004,6,0,P|340:142|331:210,1,100,8|2,0:0|0:0,0:0:0:0:
300,232,107518,2,0,L|196:243,1,100,8|2,0:0|0:0,0:0:0:0:
161,274,108033,1,8,0:0:0:0:
243,330,108375,2,0,L|407:347,2,150,8|8|8,0:0|0:0|0:0,0:0:0:0:
161,274,109747,6,0,P|97:258|50:264,1,100,2|0,0:0|0:0,0:0:0:0:
23,230,110261,2,0,P|13:184|23:128,1,100,2|0,0:0|0:0,0:0:0:0:
108,82,110947,2,0,B|157:92|157:92|204:66|261:78,1,150,2|0,0:0|0:0,0:0:0:0:
299,96,111633,2,0,P|325:133|332:190,1,100,2|0,0:0|0:0,0:0:0:0:
213,277,112490,6,0,P|161:272|55:300,2,150,2|2|0,0:0|0:0|0:0,0:0:0:0:
260,262,113690,2,0,P|272:227|247:110,1,150,2|0,0:0|0:0,0:0:0:0:
275,74,114375,2,0,L|374:57,1,100,2|2,0:0|0:0,0:0:0:0:
453,117,115061,5,0,0:0:0:0:
469,164,115233,2,0,P|468:215|448:276,1,100,2|0,0:0|0:0,0:0:0:0:
406,275,115747,2,0,P|337:258|255:286,1,150,2|0,0:0|0:0,0:0:0:0:
169,244,116604,2,0,L|157:130,2,100,2|0|2,0:0|0:0|0:0,0:0:0:0:
142,286,117461,1,0,0:0:0:0:
43,269,117804,5,0,0:0:0:0:
17,226,117975,2,0,P|8:188|28:120,1,100,2|0,0:0|0:0,0:0:0:0:
62,99,118490,2,0,P|117:113|209:76,1,150,2|0,0:0|0:0,0:0:0:0:
243,54,119175,2,0,P|302:36|349:43,1,100,2|0,0:0|0:0,0:0:0:0:
381,68,119690,1,0,0:0:0:0:
401,113,119861,2,0,L|409:234,1,100,2|0,0:0|0:0,0:0:0:0:
441,249,120375,1,0,0:0:0:0:
358,312,120732,6,0,P|304:299|211:346,2,150,2|2|0,0:0|0:0|0:0,0:0:0:0:
401,287,121932,2,0,P|417:244|392:135,1,150,2|0,0:0|0:0,0:0:0:0:
371,102,122617,2,0,L|260:110,1,100,2|0,0:0|0:0,0:0:0:0:
136,43,123474,6,0,P|111:81|107:143,1,100,2|0,0:0|0:0,0:0:0:0:
136,173,123989,1,2,0:0:0:0:
232,147,124332,1,0,0:0:0:0:
301,218,124674,2,0,P|361:201|380:317,1,200,2|2,0:0|0:0,0:0:0:0:
296,340,125703,1,0,0:0:0:0:
219,276,126046,5,0,0:0:0:0:
171,291,126217,2,0,P|122:291|70:270,1,100,2|0,0:0|0:0,0:0:0:0:
50,229,126732,2,0,L|36:69,1,150,2|0,0:0|0:0,0:0:0:0:
78,52,127417,2,0,P|118:67|183:56,1,100,2|0,0:0|0:0,0:0:0:0:
221,43,127932,1,0,0:0:0:0:
263,69,128103,2,0,L|286:171,2,100,2|0|0,0:0|0:0|0:0,0:0:0:0:
300,36,128960,5,4,0:0:0:0:
