osu file format v13

[General]
AudioFilename: Chase and Status ft. Plan B - End Credits.mp3
AudioLeadIn: 0
PreviewTime: 98433
Countdown: 0
SampleSet: Soft
StackLeniency: 0.7
Mode: 0
LetterboxInBreaks: 0
WidescreenStoryboard: 0

[Editor]
DistanceSpacing: 1
BeatDivisor: 4
GridSize: 4
TimelineZoom: 1

[Metadata]
Title:End Credits
TitleUnicode:End Credits
Artist:Chase and Status ft. Plan B
ArtistUnicode:Chase and Status ft. Plan B
Creator:Kyshiro
Version:Insane
Source:
Tags:Ami drum and bass no more idols dnb
BeatmapID:355154
BeatmapSetID:142668

[Difficulty]
HPDrainRate:7
CircleSize:4
OverallDifficulty:8.5
ApproachRate:9
SliderMultiplier:1.6
SliderTickRate:1

[Events]
//Background and Video events
0,0,"wallpaper-1381908.jpg",0,0
//Break Periods
//Storyboard Layer 0 (Background)
//Storyboard Layer 1 (Fail)
//Storyboard Layer 2 (Pass)
//Storyboard Layer 3 (Foreground)
//Storyboard Sound Samples
//Background Colour Transformations
3,100,163,162,255

[TimingPoints]
33,342.857142857143,4,2,1,20,1,0
21975,-133.333333333333,4,2,1,40,0,0
54890,-100,4,2,1,60,0,0
98775,-100,4,2,1,60,0,1
109747,-111.111111111111,4,2,1,50,0,0
120732,342.857142857143,4,2,1,50,1,0
120732,-133.333333333333,4,2,1,50,0,0
128960,-133.333333333333,4,2,0,20,0,0

[Colours]
Combo1 : 159,129,160
Combo2 : 192,80,83
Combo3 : 133,157,182
Combo4 : 236,200,164

[HitObjects]
53,258,21975,6,0,P|119:273|181:265,1,120.000004577637,2|0,0:0|0:0,0:0:0:0:
217,197,22490,2,0,P|283:182|345:190,1,120.000004577637,2|0,0:0|0:0,0:0:0:0:
402,268,23004,1,0,0:0:0:0:
464,185,23176,2,0,L|487:59,1,120.000004577637,2|0,0:0|0:0,0:0:0:0:
344,23,23690,1,0,0:0:0:0:
344,23,23861,2,0,P|346:88|380:137,1,120.000004577637,2|0,0:0|0:0,0:0:0:0:
285,160,24376,2,0,P|237:148|218:150,1,60.0000022888184,2|0,0:0|0:0,0:0:0:0:
161,243,24718,6,0,B|131:314|131:314|95:354,1,120.000004577637,2|0,0:0|0:0,0:0:0:0:
45,180,25233,2,0,B|75:109|75:109|111:69,1,120.000004577637,2|0,0:0|0:0,0:0:0:0:
247,74,25747,1,0,0:0:0:0:
247,74,25918,2,0,P|299:93|366:91,1,120.000004577637,2|0,0:0|0:0,0:0:0:0:
464,170,26433,1,0,0:0:0:0:
464,170,26604,2,0,P|404:167|348:187,1,120.000004577637,2|0,0:0|0:0,0:0:0:0:
291,249,27118,2,0,P|290:284|306:319,1,60.0000022888184,2|0,0:0|0:0,0:0:0:0:
216,217,27461,6,0,P|167:254|104:260,1,120.000004577637,2|0,0:0|0:0,0:0:0:0:
71,173,27976,2,0,P|120:136|183:130,1,120.000004577637,2|0,0:0|0:0,0:0:0:0:
248,84,28490,1,0,0:0:0:0:
314,134,28661,2,0,P|319:205|339:265,1,120.000004577637,2|0,0:0|0:0,0:0:0:0:
366,329,29176,2,0,L|391:387,1,60.0000022888184
421,261,29518,2,0,L|446:319,1,60.0000022888184,2|0,0:0|0:0,0:0:0:0:
474,193,29861,2,0,L|499:251,1,60.0000022888184
470,99,30204,6,0,P|429:80|347:77,1,120.000004577637,2|0,0:0|0:0,0:0:0:0:
315,149,30718,2,0,P|274:168|192:171,1,120.000004577637,2|0,0:0|0:0,0:0:0:0:
127,128,31233,1,0,0:0:0:0:
127,128,31404,1,0,0:0:0:0:
59,179,31576,2,0,L|39:237,1,60.0000022888184,2|0,0:0|0:0,0:0:0:0:
131,230,31918,2,0,L|142:290,1,60.0000022888184
220,242,32261,2,0,L|260:288,1,60.0000022888184,2|0,0:0|0:0,0:0:0:0:
305,207,32604,2,0,L|362:226,1,60.0000022888184
465,308,32947,6,0,P|473:348|462:378,2,60.0000022888184,2|0|0,0:0|0:0|0:0,0:0:0:0:
486,222,33461,2,0,P|476:163|492:106,1,120.000004577637,2|0,0:0|0:0,0:0:0:0:
419,53,33976,1,0,0:0:0:0:
419,53,34147,2,0,P|364:76|304:73,1,120.000004577637,2|0,0:0|0:0,0:0:0:0:
229,110,34661,2,0,P|199:102|160:102,2,60.0000022888184,0|0|2,0:0|0:0|0:0,0:0:0:0:
274,181,35176,2,0,P|303:188|343:189,2,60.0000022888184,0|2|0,0:0|0:0|0:0,0:0:0:0:
157,323,35690,6,0,P|217:344|292:337,1,120.000004577637,2|0,0:0|0:0,0:0:0:0:
274,181,36204,2,0,P|214:179|158:200,1,120.000004577637,2|0,0:0|0:0,0:0:0:0:
61,262,36718,1,0,0:0:0:0:
61,262,36890,1,0,0:0:0:0:
76,180,37061,5,2,0:0:0:0:
76,180,37233,1,0,0:0:0:0:
105,332,37404,1,0,0:0:0:0:
105,332,37576,1,0,0:0:0:0:
187,301,37747,1,2,0:0:0:0:
187,301,37919,1,0,0:0:0:0:
265,340,38090,2,0,P|302:333|337:338,1,60.0000022888184
457,286,38433,6,0,P|427:287|398:281,1,60.0000022888184,2|0,0:0|0:0,0:0:0:0:
350,202,38776,1,0,0:0:0:0:
350,202,38947,2,0,P|286:194|231:209,1,120.000004577637,2|0,0:0|0:0,0:0:0:0:
88,141,39461,1,0,0:0:0:0:
88,141,39633,2,0,P|152:149|206:134,1,120.000004577637,2|0,0:0|0:0,0:0:0:0:
267,78,40147,2,0,L|286:15,1,60.0000022888184
353,89,40490,2,0,L|370:146,1,60.0000022888184,2|0,0:0|0:0,0:0:0:0:
438,82,40833,2,0,L|457:19,1,60.0000022888184
501,145,41176,6,0,P|506:205|482:268,1,120.000004577637,2|0,0:0|0:0,0:0:0:0:
395,360,41690,2,0,P|375:303|380:244,1,120.000004577637,2|0,0:0|0:0,0:0:0:0:
336,154,42204,1,0,0:0:0:0:
336,154,42376,2,0,P|288:202|228:222,1,120.000004577637,2|0,0:0|0:0,0:0:0:0:
167,262,42890,2,0,L|92:258,1,60.0000022888184
38,178,43233,2,0,L|113:174,1,60.0000022888184,2|0,0:0|0:0,0:0:0:0:
219,121,43576,2,0,L|160:118,1,60.0000022888184
298,90,43918,6,0,P|338:122|424:123,2,120.000004577637,2|0|2,0:0|0:0|0:0,0:0:0:0:
242,26,44776,1,0,0:0:0:0:
184,86,44947,1,0,0:0:0:0:
184,86,45118,2,0,P|198:148|194:224,1,120.000004577637,2|0,0:0|0:0,0:0:0:0:
101,296,45633,1,0,0:0:0:0:
101,296,45804,2,0,P|100:236|114:177,1,120.000004577637,2|0,0:0|0:0,0:0:0:0:
273,163,46318,2,0,L|347:169,1,60.0000022888184
424,236,46661,6,0,P|365:250|297:253,1,120.000004577637,2|0,0:0|0:0,0:0:0:0:
198,100,47176,2,0,P|257:86|325:83,1,120.000004577637,2|0,0:0|0:0,0:0:0:0:
200,203,47690,1,0,0:0:0:0:
200,203,47861,2,0,P|160:203|77:180,1,120.000004577637,2|0,0:0|0:0,0:0:0:0:
10,233,48376,2,0,P|10:277|15:308,1,60.0000022888184
114,112,48718,2,0,P|114:68|109:37,1,60.0000022888184,2|0,0:0|0:0,0:0:0:0:
236,311,49233,1,0,0:0:0:0:
236,311,49404,6,0,P|300:336|362:331,1,120.000004577637,2|0,0:0|0:0,0:0:0:0:
419,292,49918,2,0,B|462:215|462:215|496:197,1,120.000004577637,2|0,0:0|0:0,0:0:0:0:
429,138,50433,1,0,0:0:0:0:
429,138,50604,2,0,P|353:113|296:117,1,120.000004577637,2|0,0:0|0:0,0:0:0:0:
245,162,51118,2,0,P|206:168|185:167,1,60.0000022888184
112,125,51461,2,0,P|106:86|107:65,2,60.0000022888184,2|0|0,0:0|0:0|0:0,0:0:0:0:
185,167,51976,1,0,0:0:0:0:
185,167,52147,6,0,P|190:227|177:297,1,120.000004577637,2|0,0:0|0:0,0:0:0:0:
299,204,52661,2,0,P|289:144|293:85,1,120.000004577637,2|0,0:0|0:0,0:0:0:0:
361,34,53176,1,0,0:0:0:0:
361,34,53347,2,0,B|303:47|303:47|235:38,1,120.000004577637,2|0,0:0|0:0,0:0:0:0:
159,128,53861,1,0,0:0:0:0:
159,128,54033,2,0,B|217:115|217:115|285:124,1,120.000004577637,2|0,0:0|0:0,0:0:0:0:
335,178,54547,2,0,P|344:210|339:248,1,60.0000022888184,8|0,0:0|0:0,0:0:0:0:
428,249,54890,6,0,P|349:269|265:277,1,160,4|8,0:0|0:0,0:0:0:0:
178,302,55404,2,0,P|161:344|160:380,2,80,4|0|8,0:0|0:0|0:0,0:0:0:0:
272,277,55918,2,0,P|269:237|253:200,1,80,4|0,0:0|0:0,0:0:0:0:
38,159,56261,2,0,P|70:201|176:221,1,160,4|8,0:0|0:0,0:0:0:0:
315,62,56776,2,0,P|262:68|192:150,1,160,4|8,0:0|0:0,0:0:0:0:
253,200,57290,2,0,L|346:210,1,80,4|0,0:0|0:0,0:0:0:0:
475,307,57633,5,8,0:0:0:0:
436,296,57718,1,0,0:0:0:0:
396,297,57804,1,2,0:0:0:0:
358,307,57890,1,0,0:0:0:0:
324,328,57975,1,2,0:0:0:0:
242,276,58147,1,8,0:0:0:0:
208,296,58232,1,0,0:0:0:0:
170,307,58318,1,2,0:0:0:0:
130,308,58404,1,0,0:0:0:0:
91,297,58489,1,2,0:0:0:0:
31,220,58661,1,8,0:0:0:0:
23,180,58747,1,0,0:0:0:0:
16,140,58833,1,2,0:0:0:0:
109,68,59004,6,0,L|104:118,4,40,8|0|2|0|2,0:0|0:0|0:0|0:0|0:0,0:0:0:0:
198,156,59518,2,0,L|194:116,4,40,8|0|2|0|2,0:0|0:0|0:0|0:0|0:0,0:0:0:0:
263,52,60033,2,0,P|323:48|354:54,1,80,8|0,0:0|0:0,0:0:0:0:
446,19,60376,6,0,P|479:91|471:177,1,160,4|8,0:0|0:0,0:0:0:0:
351,283,60890,2,0,P|345:204|378:132,1,160,4|8,0:0|0:0,0:0:0:0:
441,279,61404,2,0,L|427:363,1,80,4|0,0:0|0:0,0:0:0:0:
259,316,61747,2,0,L|272:237,1,80,4|0,0:0|0:0,0:0:0:0:
233,133,62090,1,8,0:0:0:0:
233,133,62261,2,0,P|174:113|63:138,1,160,4|8,0:0|0:0,0:0:0:0:
7,75,62776,1,4,0:0:0:0:
89,25,62947,1,0,0:0:0:0:
7,75,63118,5,8,0:0:0:0:
30,107,63203,1,0,0:0:0:0:
46,143,63289,1,2,0:0:0:0:
55,182,63375,1,0,0:0:0:0:
57,222,63460,1,2,0:0:0:0:
150,296,63633,1,8,0:0:0:0:
151,256,63718,1,0,0:0:0:0:
161,217,63804,1,2,0:0:0:0:
177,180,63890,1,0,0:0:0:0:
200,148,63975,1,2,0:0:0:0:
270,55,64147,1,8,0:0:0:0:
231,59,64232,1,0,0:0:0:0:
192,64,64318,1,2,0:0:0:0:
280,139,64490,5,8,0:0:0:0:
319,143,64575,1,0,0:0:0:0:
359,147,64661,1,2,0:0:0:0:
399,151,64747,1,0,0:0:0:0:
439,156,64832,1,2,0:0:0:0:
505,110,65004,2,0,P|513:86|509:60,4,40,8|0|2|0|2,0:0|0:0|0:0|0:0|0:0,0:0:0:0:
400,223,65518,1,8,0:0:0:0:
387,261,65604,1,0,0:0:0:0:
388,301,65690,1,2,0:0:0:0:
283,353,65861,6,0,P|240:279|175:229,1,160,4|8,0:0|0:0,0:0:0:0:
381,88,66376,2,0,P|339:162|328:243,1,160,4|8,0:0|0:0,0:0:0:0:
241,151,66890,2,0,P|211:108|182:88,1,80,4|0,0:0|0:0,0:0:0:0:
328,235,67233,2,0,P|380:230|412:215,1,80,4|0,0:0|0:0,0:0:0:0:
229,243,67576,1,8,0:0:0:0:
229,243,67747,2,0,P|166:230|62:244,1,160,4|8,0:0|0:0,0:0:0:0:
286,313,68261,2,0,P|336:319|377:315,1,80,4|0,0:0|0:0,0:0:0:0:
501,234,68604,5,8,0:0:0:0:
472,205,68689,1,0,0:0:0:0:
439,184,68775,1,2,0:0:0:0:
401,171,68861,1,0,0:0:0:0:
361,167,68946,1,2,0:0:0:0:
280,237,69118,2,0,L|269:280,4,40,8|0|2|0|2,0:0|0:0|0:0|0:0|0:0,0:0:0:0:
226,150,69633,1,8,0:0:0:0:
220,110,69718,1,0,0:0:0:0:
200,74,69804,1,2,0:0:0:0:
99,159,69975,5,8,0:0:0:0:
86,197,70061,1,0,0:0:0:0:
83,236,70147,1,2,0:0:0:0:
89,276,70233,1,0,0:0:0:0:
104,313,70318,1,2,0:0:0:0:
193,363,70490,2,0,L|245:369,4,40,8|0|2|0|2,0:0|0:0|0:0|0:0|0:0,0:0:0:0:
267,287,71004,1,8,0:0:0:0:
306,279,71090,1,0,0:0:0:0:
345,272,71176,1,2,0:0:0:0:
488,203,71347,6,0,P|422:176|326:188,1,160,4|8,0:0|0:0,0:0:0:0:
226,130,71861,2,0,L|184:124,2,40,2|0|2,0:0|0:0|0:0,0:0:0:0:
312,80,72204,2,0,L|354:74,2,40,8|0|2,0:0|0:0|0:0,0:0:0:0:
255,202,72547,1,0,0:0:0:0:
255,202,72718,6,0,P|185:216|87:198,1,160,4|8,0:0|0:0,0:0:0:0:
18,278,73233,2,0,L|7:320,2,40,2|0|2,0:0|0:0|0:0,0:0:0:0:
98,203,73576,2,0,L|87:164,2,40,8|0|2,0:0|0:0|0:0,0:0:0:0:
145,298,73918,1,0,0:0:0:0:
239,246,74090,5,8,0:0:0:0:
277,235,74175,1,0,0:0:0:0:
317,231,74261,1,2,0:0:0:0:
357,234,74347,1,0,0:0:0:0:
396,244,74432,1,2,0:0:0:0:
507,147,74604,1,8,0:0:0:0:
469,157,74689,1,0,0:0:0:0:
429,159,74775,1,2,0:0:0:0:
389,156,74861,1,0,0:0:0:0:
350,145,74946,1,2,0:0:0:0:
281,76,75118,2,0,L|270:33,2,40,8|0|2,0:0|0:0|0:0,0:0:0:0:
204,134,75461,6,0,L|215:177,4,40,8|0|2|0|2,0:0|0:0|0:0|0:0|0:0,0:0:0:0:
119,192,75976,1,8,0:0:0:0:
144,222,76061,1,0,0:0:0:0:
163,257,76147,1,2,0:0:0:0:
176,295,76233,1,0,0:0:0:0:
181,335,76318,1,2,0:0:0:0:
274,255,76490,1,8,0:0:0:0:
287,217,76576,1,0,0:0:0:0:
314,188,76661,1,2,0:0:0:0:
430,113,76833,6,0,P|351:107|268:65,1,160,4|8,0:0|0:0,0:0:0:0:
71,108,77347,2,0,P|150:114|233:156,1,160,4|8,0:0|0:0,0:0:0:0:
287,217,77861,2,0,P|308:263|313:297,1,80,4|0,0:0|0:0,0:0:0:0:
303,125,78204,2,0,P|329:86|428:29,1,160,4|8,0:0|0:0,0:0:0:0:
287,217,78718,2,0,P|246:229|126:225,1,160,4|8,0:0|0:0,0:0:0:0:
51,163,79233,2,0,P|41:122|26:80,1,80
7,272,79576,5,8,0:0:0:0:
31,303,79661,1,0,0:0:0:0:
62,328,79747,1,2,0:0:0:0:
99,344,79833,1,0,0:0:0:0:
138,349,79918,1,2,0:0:0:0:
234,341,80090,2,0,L|277:361,4,40,8|0|2|0|2,0:0|0:0|0:0|0:0|0:0,0:0:0:0:
132,215,80604,1,8,0:0:0:0:
165,237,80690,1,0,0:0:0:0:
198,258,80775,1,2,0:0:0:0:
287,209,80947,5,8,0:0:0:0:
323,192,81032,1,0,0:0:0:0:
362,184,81118,1,2,0:0:0:0:
402,184,81204,1,0,0:0:0:0:
441,192,81289,1,2,0:0:0:0:
508,76,81461,1,8,0:0:0:0:
471,92,81546,1,0,0:0:0:0:
432,100,81632,1,2,0:0:0:0:
392,100,81718,1,0,0:0:0:0:
353,92,81803,1,2,0:0:0:0:
170,66,81976,1,8,0:0:0:0:
205,47,82062,1,0,0:0:0:0:
245,45,82147,1,2,0:0:0:0:
60,154,82318,6,0,P|106:140|232:153,1,160,4|8,0:0|0:0,0:0:0:0:
276,220,82833,2,0,P|287:261|277:306,1,80
370,172,83176,2,0,P|406:110|497:62,1,160,8|0,0:0|0:0,0:0:0:0:
288,97,83690,2,0,P|239:110|194:108,2,80,4|0|8,0:0|0:0|0:0,0:0:0:0:
130,59,84204,1,2,0:0:0:0:
111,94,84289,1,0,0:0:0:0:
103,133,84375,1,2,0:0:0:0:
105,173,84461,1,0,0:0:0:0:
117,211,84546,1,8,0:0:0:0:
109,307,84718,2,0,L|79:339,2,40,2|0|2,0:0|0:0|0:0,0:0:0:0:
198,272,85061,5,8,0:0:0:0:
235,258,85146,1,0,0:0:0:0:
275,253,85232,1,2,0:0:0:0:
315,255,85318,1,0,0:0:0:0:
353,266,85403,1,2,0:0:0:0:
378,173,85576,1,8,0:0:0:0:
415,191,85661,1,0,0:0:0:0:
446,215,85747,1,2,0:0:0:0:
473,245,85833,1,0,0:0:0:0:
492,279,85918,1,2,0:0:0:0:
410,347,86090,2,0,L|363:366,2,40,8|0|2,0:0|0:0|0:0,0:0:0:0:
353,266,86433,5,8,0:0:0:0:
315,255,86518,1,0,0:0:0:0:
275,253,86604,1,2,0:0:0:0:
235,258,86690,1,0,0:0:0:0:
198,272,86775,1,2,0:0:0:0:
127,337,86947,2,0,L|115:377,4,40,8|0|2|0|2,0:0|0:0|0:0|0:0|0:0,0:0:0:0:
63,265,87461,1,8,0:0:0:0:
59,224,87547,1,0,0:0:0:0:
56,183,87633,1,2,0:0:0:0:
114,107,87804,6,0,P|199:84|281:94,1,160,4|8,0:0|0:0,0:0:0:0:
449,139,88318,2,0,P|406:148|358:143,1,80,4|0,0:0|0:0,0:0:0:0:
277,183,88661,1,8,0:0:0:0:
277,183,88833,2,0,P|275:222|283:261,1,80,4|0,0:0|0:0,0:0:0:0:
225,375,89176,2,0,P|206:326|121:248,1,160,4|8,0:0|0:0,0:0:0:0:
284,262,89690,2,0,P|337:282|441:280,1,160,4|8,0:0|0:0,0:0:0:0:
277,183,90204,2,0,P|220:171|167:171,1,80
57,74,90547,5,8,0:0:0:0:
92,92,90632,1,0,0:0:0:0:
131,101,90718,1,2,0:0:0:0:
171,102,90804,1,0,0:0:0:0:
210,94,90890,1,2,0:0:0:0:
290,41,91061,1,8,0:0:0:0:
329,33,91146,1,0,0:0:0:0:
369,34,91232,1,2,0:0:0:0:
408,43,91318,1,0,0:0:0:0:
443,61,91403,1,2,0:0:0:0:
497,141,91576,2,0,L|489:192,2,40,8|0|2,0:0|0:0|0:0,0:0:0:0:
387,187,91918,5,8,0:0:0:0:
374,225,92003,1,0,0:0:0:0:
370,264,92089,1,2,0:0:0:0:
372,304,92175,1,0,0:0:0:0:
382,343,92260,1,2,0:0:0:0:
287,263,92433,1,8,0:0:0:0:
285,223,92518,1,0,0:0:0:0:
275,184,92604,1,2,0:0:0:0:
258,148,92690,1,0,0:0:0:0:
235,115,92775,1,2,0:0:0:0:
318,45,92947,1,8,0:0:0:0:
357,38,93033,1,0,0:0:0:0:
396,31,93118,1,2,0:0:0:0:
235,115,93290,6,0,P|193:128|73:115,1,160,4|8,0:0|0:0,0:0:0:0:
26,56,93804,2,0,L|15:16,2,40,2|0|2,0:0|0:0|0:0,0:0:0:0:
14,176,94147,2,0,L|25:216,2,40,8|0|2,0:0|0:0|0:0,0:0:0:0:
127,263,94490,1,0,0:0:0:0:
127,263,94661,6,0,P|221:255|300:277,1,160,4|8,0:0|0:0,0:0:0:0:
350,316,95176,2,0,P|380:354|394:382,1,80,2|0,0:0|0:0,0:0:0:0:
356,229,95518,1,8,0:0:0:0:
358,188,95604,1,0,0:0:0:0:
377,152,95690,1,2,0:0:0:0:
455,97,95861,1,0,0:0:0:0:
351,37,96033,5,8,0:0:0:0:
316,57,96118,1,0,0:0:0:0:
279,70,96204,1,2,0:0:0:0:
239,75,96290,1,0,0:0:0:0:
199,71,96375,1,2,0:0:0:0:
73,140,96547,1,8,0:0:0:0:
113,137,96632,1,0,0:0:0:0:
153,142,96718,1,2,0:0:0:0:
190,155,96804,1,0,0:0:0:0:
224,175,96889,1,2,0:0:0:0:
277,255,97061,2,0,L|281:307,2,40,8|0|2,0:0|0:0|0:0,0:0:0:0:
393,219,97404,5,8,0:0:0:0:
388,179,97489,1,0,0:0:0:0:
393,139,97575,1,2,0:0:0:0:
406,102,97661,1,0,0:0:0:0:
427,68,97746,1,2,0:0:0:0:
499,149,97918,2,0,L|498:193,4,40,8|0|2|0|2,0:0|0:0|0:0|0:0|0:0,0:0:0:0:
307,90,98433,1,8,0:0:0:0:
293,52,98518,1,0,0:0:0:0:
280,14,98604,1,0,0:0:0:0:
269,173,98776,6,0,P|213:203|117:201,1,160,4|8,0:0|0:0,0:0:0:0:
20,117,99290,2,0,P|2:70|5:38,1,80
119,201,99633,2,0,P|98:233|60:260,1,80,8|0,0:0|0:0,0:0:0:0:
141,77,99976,1,0,0:0:0:0:
141,77,100147,2,0,P|234:51|311:60,1,160,4|8,0:0|0:0,0:0:0:0:
396,13,100661,2,0,P|444:33|478:33,1,80
512,182,101004,2,0,P|464:162|430:162,1,80,8|0,0:0|0:0,0:0:0:0:
349,256,101347,1,0,0:0:0:0:
349,256,101518,6,0,P|285:283|187:271,1,160,4|8,0:0|0:0,0:0:0:0:
148,70,102033,2,0,P|203:111|241:202,1,160,0|8,0:0|0:0,0:0:0:0:
145,195,102547,2,0,L|47:182,1,80
196,274,102890,6,0,P|275:284|349:256,1,160,4|8,0:0|0:0,0:0:0:0:
427,166,103404,2,0,L|439:82,1,80
314,11,103747,2,0,L|325:90,1,80,8|0,0:0|0:0,0:0:0:0:
220,206,104090,1,0,0:0:0:0:
221,206,104261,6,0,L|232:126,1,80,4|0,0:0|0:0,0:0:0:0:
164,54,104604,1,8,0:0:0:0:
128,36,104689,1,0,0:0:0:0:
89,26,104775,1,2,0:0:0:0:
49,24,104861,1,0,0:0:0:0:
10,31,104946,1,2,0:0:0:0:
124,159,105119,1,8,0:0:0:0:
163,165,105204,1,0,0:0:0:0:
203,163,105290,1,2,0:0:0:0:
242,154,105376,1,0,0:0:0:0:
277,136,105461,1,2,0:0:0:0:
362,194,105633,6,0,P|372:235|365:276,1,80,4|0,0:0|0:0,0:0:0:0:
305,346,105976,1,8,0:0:0:0:
268,361,106061,1,0,0:0:0:0:
228,365,106147,1,2,0:0:0:0:
189,357,106233,1,0,0:0:0:0:
154,339,106318,1,2,0:0:0:0:
102,257,106490,2,0,L|90:206,4,40,8|0|2|0|2,0:0|0:0|0:0|0:0|0:0,0:0:0:0:
181,193,107004,5,8,0:0:0:0:
180,153,107089,1,0,0:0:0:0:
190,114,107175,1,2,0:0:0:0:
210,80,107261,1,0,0:0:0:0:
239,53,107346,1,2,0:0:0:0:
258,240,107518,2,0,L|225:273,4,40,8|0|2|0|2,0:0|0:0|0:0|0:0|0:0,0:0:0:0:
341,182,108033,1,8,0:0:0:0:
380,175,108118,1,0,0:0:0:0:
419,168,108204,1,2,0:0:0:0:
504,303,108376,5,8,0:0:0:0:
467,285,108461,1,0,0:0:0:0:
429,276,108547,1,2,0:0:0:0:
389,274,108633,1,0,0:0:0:0:
349,280,108718,1,2,0:0:0:0:
258,240,108891,1,8,0:0:0:0:
222,257,108976,1,0,0:0:0:0:
183,267,109062,1,2,0:0:0:0:
143,268,109148,1,0,0:0:0:0:
104,262,109233,1,2,0:0:0:0:
21,298,109404,2,0,L|0:377,1,80,8|0,0:0|0:0,0:0:0:0:
52,149,109747,6,0,P|102:132|203:134,1,143.999995605469,2|0,0:0|0:0,0:0:0:0:
267,87,110261,2,0,P|335:107|407:104,1,143.999995605469,2|0,0:0|0:0,0:0:0:0:
485,64,110776,1,0,0:0:0:0:
509,189,110947,1,0,0:0:0:0:
509,189,111118,2,0,P|468:210|435:215,1,71.9999978027344,2|0,0:0|0:0,0:0:0:0:
362,181,111461,1,0,0:0:0:0:
362,181,111633,2,0,P|306:221|218:232,2,143.999995605469,2|0|0,0:0|0:0|0:0,0:0:0:0:
264,145,112490,6,0,P|204:148|127:115,1,143.999995605469,2|0,0:0|0:0,0:0:0:0:
33,197,113004,2,0,P|65:247|75:330,1,143.999995605469,2|0,0:0|0:0,0:0:0:0:
191,232,113518,2,0,L|173:305,1,71.9999978027344
249,369,113861,2,0,P|276:315|343:265,1,143.999995605469,2|0,0:0|0:0,0:0:0:0:
426,235,114376,1,2,0:0:0:0:
426,235,114547,2,0,P|470:241|501:238,1,71.9999978027344,0|2,0:0|0:0,0:0:0:0:
391,138,114889,2,0,P|347:132|316:135,1,71.9999978027344,0|0,0:0|0:0,0:0:0:0:
242,55,115233,6,0,P|211:83|182:188,1,143.999995605469,2|0,0:0|0:0,0:0:0:0:
102,293,115747,2,0,P|88:223|40:169,1,143.999995605469,2|0,0:0|0:0,0:0:0:0:
42,74,116261,2,0,P|82:72|123:78,1,71.9999978027344
184,138,116604,2,0,P|238:143|324:123,1,143.999995605469,2|0,0:0|0:0,0:0:0:0:
474,187,117118,1,0,0:0:0:0:
474,187,117290,2,0,P|426:180|387:184,1,71.9999978027344,2|0,0:0|0:0,0:0:0:0:
353,252,117633,1,0,0:0:0:0:
272,220,117804,1,0,0:0:0:0:
272,220,117976,6,0,P|230:237|128:231,1,143.999995605469,2|0,0:0|0:0,0:0:0:0:
118,127,118490,2,0,P|186:105|257:114,1,143.999995605469,2|0,0:0|0:0,0:0:0:0:
310,25,119004,1,0,0:0:0:0:
310,25,119176,2,0,P|362:73|390:139,1,143.999995605469,2|0,0:0|0:0,0:0:0:0:
464,200,119690,2,0,P|459:237|464:279,1,71.9999978027344
373,366,120033,2,0,P|376:330|371:294,1,71.9999978027344,2|0,0:0|0:0,0:0:0:0:
298,238,120376,1,0,0:0:0:0:
45,111,120732,6,0,P|33:186|45:237,1,120.000004577637,2|0,0:0|0:0,0:0:0:0:
160,328,121247,2,0,P|169:269|156:210,1,120.000004577637,2|0,0:0|0:0,0:0:0:0:
218,128,121761,1,0,0:0:0:0:
218,128,121932,2,0,P|283:123|339:138,1,120.000004577637,2|0,0:0|0:0,0:0:0:0:
387,328,122447,1,0,0:0:0:0:
387,328,122618,2,0,P|350:274|335:218,1,120.000004577637,2|0,0:0|0:0,0:0:0:0:
407,180,123132,2,0,P|446:180|481:175,1,60.0000022888184
374,73,123475,6,0,B|315:58|315:58|252:58,1,120.000004577637,2|0,0:0|0:0,0:0:0:0:
170,139,123989,2,0,B|229:154|229:154|292:154,1,120.000004577637,2|0,0:0|0:0,0:0:0:0:
407,180,124504,1,0,0:0:0:0:
319,259,124675,1,0,0:0:0:0:
319,259,124847,2,0,P|237:241|190:245,1,120.000004577637,2|0,0:0|0:0,0:0:0:0:
146,325,125361,2,0,P|64:343|17:339,1,120.000004577637,2|0,0:0|0:0,0:0:0:0:
233,347,125875,2,0,L|304:358,1,60.0000022888184
381,326,126218,6,0,P|414:282|428:205,1,120.000004577637,2|0,0:0|0:0,0:0:0:0:
290,85,126732,2,0,P|302:143|337:191,1,120.000004577637,2|0,0:0|0:0,0:0:0:0:
214,164,127247,1,0,0:0:0:0:
214,164,127418,2,0,P|155:142|75:139,1,120.000004577637,2|0,0:0|0:0,0:0:0:0:
17,102,127932,1,0,0:0:0:0:
91,45,128104,2,0,P|150:23|230:20,1,120.000004577637,2|0,0:0|0:0,0:0:0:0:
332,102,128617,2,0,P|283:109|251:102,1,60.0000022888184,2|0,0:0|0:0,0:0:0:0:
412,32,128961,5,4,2:0:0:0:
