osu file format v12

[General]
AudioFilename: Charlie Chaplin Let Us All Unite!.mp3
AudioLeadIn: 3000
PreviewTime: 65802
Countdown: 0
SampleSet: Soft
StackLeniency: 0.3
Mode: 2
LetterboxInBreaks: 0

[Editor]
DistanceSpacing: 1
BeatDivisor: 4
GridSize: 8

[Metadata]
Title:Let Us All Unite!
TitleUnicode:Let Us All Unite!
Artist:Charlie Chaplin
ArtistUnicode:Charlie Chaplin
Creator:VelperK
Version:newtoniorock8's Platter
Source:YouTube melodysheep
Tags:the great dictator newtoniorock8
BeatmapID:251827
BeatmapSetID:93055

[Difficulty]
HPDrainRate:5
CircleSize:4
OverallDifficulty:9
ApproachRate:9
SliderMultiplier:1.6
SliderTickRate:2

[Events]
//Background and Video events
0,0,"greatdictatorfull.jpg",0,0
Video,0,"unite.avi"
//Break Periods
2,55127,60327
2,105752,115770
//Storyboard Layer 0 (Background)
//Storyboard Layer 1 (Fail)
//Storyboard Layer 2 (Pass)
//Storyboard Layer 3 (Foreground)
//Storyboard Sound Samples
//Background Colour Transformations
3,100,192,192,192

[TimingPoints]
6927,375,4,2,0,60,1,0
18645,-100,4,3,0,40,0,0
30552,-66.6666666666667,4,3,0,40,0,0
30927,-66.6666666666667,4,3,0,40,0,0
31302,-66.6666666666667,4,2,0,40,0,0
66927,-66.6666666666667,4,2,0,40,0,1
66950,-66.6666666666667,4,2,0,40,0,0
72927,-66.6666666666667,4,3,0,40,0,0
75927,-62.5,4,3,0,40,0,0
78927,-100,4,2,0,40,0,1
78950,-66.6666666666667,4,1,0,40,0,0
81927,-66.6666666666667,4,3,0,40,0,0
87927,-66.6666666666667,4,2,0,40,0,0
88114,-66.6666666666667,4,3,0,40,0,0
93927,-66.6666666666667,4,2,0,40,0,0
94114,-66.6666666666667,4,3,0,40,0,0
99927,-66.6666666666667,4,2,0,40,0,0
100114,-66.6666666666667,4,3,0,40,0,0
117927,-66.6666666666667,4,2,0,40,0,1
117950,-66.6666666666667,4,2,0,40,0,0
122239,-66.6666666666667,4,3,0,30,0,0
123927,-66.6666666666667,4,3,0,40,0,0
129927,-66.6666666666667,4,2,0,40,0,1
129950,-100,4,2,0,40,0,0
130677,-66.6666666666667,4,2,0,40,0,0
134614,-66.6666666666667,4,3,0,40,0,0
141927,-66.6666666666667,4,2,0,40,0,0
142489,-66.6666666666667,4,3,0,40,0,0
147927,-66.6666666666667,4,2,0,40,0,0
148114,-66.6666666666667,4,3,0,40,0,0
153927,-100,4,2,0,40,0,1
153950,-100,4,1,0,40,0,0

[Colours]
Combo1 : 243,243,243
Combo2 : 159,159,159

[HitObjects]
56,192,6927,1,0,0:0:0:0:
216,192,7302,1,0,0:0:0:0:
56,192,7677,1,2,0:0:0:0:
288,192,8052,1,0,0:0:0:0:
448,192,8427,5,0,0:0:0:0:
288,192,8802,1,0,0:0:0:0:
448,192,9177,1,2,0:0:0:0:
208,192,9552,1,0,0:0:0:0:
128,192,9927,1,0,0:0:0:0:
368,192,10302,1,0,0:0:0:0:
288,192,10677,5,2,0:0:0:0:
48,192,11052,1,0,0:0:0:0:
208,192,11427,1,0,0:0:0:0:
368,192,11802,1,0,0:0:0:0:
208,192,12177,1,2,0:0:0:0:
48,192,12552,1,0,0:0:0:0:
288,192,12927,5,0,0:0:0:0:
128,192,13302,1,0,0:0:0:0:
208,192,13677,1,2,0:0:0:0:
48,192,14052,1,0,0:0:0:0:
288,192,14427,5,0,0:0:0:0:
368,192,14802,1,0,0:0:0:0:
128,192,15177,1,2,0:0:0:0:
288,192,15552,1,0,0:0:0:0:
448,192,15927,5,0,0:0:0:0:
368,192,16302,1,0,0:0:0:0:
208,192,16677,1,2,0:0:0:0:
448,192,17052,1,0,0:0:0:0:
128,192,17427,5,0,0:0:0:0:
408,120,17802,1,0,0:0:0:0:
64,144,18177,1,2,0:0:0:0:
328,96,18552,1,0,0:0:0:0:
248,96,18739,1,4,0:0:0:0:
0,96,18927,1,4,0:0:0:0:
168,96,19677,5,0,0:0:0:0:
0,96,20052,1,0,0:0:0:0:
160,312,20427,1,0,0:0:0:0:
336,312,20802,1,0,0:0:0:0:
80,312,21177,1,0,0:0:0:0:
416,312,21552,1,0,0:0:0:0:
160,312,21927,1,0,0:0:0:0:
336,312,22302,5,0,0:0:0:0:
80,312,22677,1,0,0:0:0:0:
416,312,23052,1,0,0:0:0:0:
160,312,23427,5,0,0:0:0:0:
80,312,23802,1,0,0:0:0:0:
240,312,24177,1,0,0:0:0:0:
160,312,24552,1,0,0:0:0:0:
240,312,24739,1,4,0:0:0:0:
488,312,24927,1,4,0:0:0:0:
320,240,25302,5,2,0:0:0:0:
200,240,25677,1,0,0:0:0:0:
280,240,26052,1,0,0:0:0:0:
40,240,26427,1,0,0:0:0:0:
128,160,26802,5,0,0:0:0:0:
336,160,27177,1,0,0:0:0:0:
208,160,27552,1,0,0:0:0:0:
416,160,27927,1,0,0:0:0:0:
128,160,28302,5,0,0:0:0:0:
336,160,28677,1,0,0:0:0:0:
48,160,29052,1,0,0:0:0:0:
336,160,29427,1,0,0:0:0:0:
128,160,29802,5,0,0:0:0:0:
416,160,30177,1,0,0:0:0:0:
336,160,30364,1,0,0:0:0:0:
48,160,30552,2,0,L|320:160,1,240.000009155274,0|4,0:0|0:0,0:0:0:0:
480,248,31302,5,0,0:0:0:0:
400,248,31489,1,0,0:0:0:0:
168,248,31677,1,8,0:0:0:0:
248,248,31864,5,0,0:0:0:0:
88,248,32052,1,0,0:0:0:0:
248,248,32239,1,0,0:0:0:0:
480,248,32427,6,0,P|440:160|296:104,1,240.000009155274
208,104,32989,1,0,0:0:0:0:
448,104,33177,1,8,0:0:0:0:
144,168,33552,5,0,0:0:0:0:
64,168,33739,1,0,0:0:0:0:
224,168,33927,1,0,0:0:0:0:
144,168,34114,5,0,0:0:0:0:
360,168,34302,1,0,0:0:0:0:
224,168,34489,1,0,0:0:0:0:
32,248,34677,6,0,P|72:160|216:104,1,240.000009155274,8|0,0:0|0:0,0:0:0:0:
360,88,35239,1,0,0:0:0:0:
120,88,35427,1,0,0:0:0:0:
120,88,35802,5,0,0:0:0:0:
200,88,35989,1,2,0:0:0:0:
488,88,36177,1,8,0:0:0:0:
256,248,36364,6,0,L|384:248,1,120.000004577637
256,248,36739,2,0,L|112:248,1,120.000004577637
32,248,37302,5,0,0:0:0:0:
104,208,37489,1,0,0:0:0:0:
320,72,37677,1,8,0:0:0:0:
480,248,38052,5,0,0:0:0:0:
408,208,38239,1,0,0:0:0:0:
192,72,38427,1,0,0:0:0:0:
408,112,38614,6,0,L|288:184,1,120.000004577637,0|0,0:0|0:0,0:0:0:0:
104,112,38989,1,0,0:0:0:0:
408,112,39177,1,0,0:0:0:0:
256,280,39552,5,0,0:0:0:0:
336,280,39739,1,0,0:0:0:0:
296,280,39833,1,0,0:0:0:0:
176,280,39927,1,0,0:0:0:0:
96,280,40302,5,0,0:0:0:0:
56,280,40489,1,0,0:0:0:0:
296,280,40677,1,8,0:0:0:0:
448,192,41052,5,0,0:0:0:0:
384,152,41145,1,0,0:0:0:0:
336,88,41239,1,0,0:0:0:0:
304,16,41333,1,0,0:0:0:0:
120,16,41427,1,0,0:0:0:0:
304,160,41614,5,0,0:0:0:0:
120,160,41989,1,0,0:0:0:0:
384,232,42177,2,0,P|352:304|304:344,1,120.000004577637
176,328,42552,1,0,0:0:0:0:
312,192,42739,1,0,0:0:0:0:
112,192,42927,6,0,L|232:192,1,120.000004577637,4|0,0:0|0:0,0:0:0:0:
312,192,43302,1,0,0:0:0:0:
112,192,43489,1,0,0:0:0:0:
64,192,43864,1,0,0:0:0:0:
64,192,47614,1,0,0:0:0:0:
224,192,47989,1,0,0:0:0:0:
416,192,48552,5,0,0:0:0:0:
368,192,48739,1,0,0:0:0:0:
288,192,48927,1,4,0:0:0:0:
96,192,49302,5,0,0:0:0:0:
288,192,49489,1,0,0:0:0:0:
176,192,49677,1,0,0:0:0:0:
360,112,49864,6,0,L|112:112,1,240.000009155274
176,272,50427,1,0,0:0:0:0:
304,272,50614,1,0,0:0:0:0:
432,272,50802,1,0,0:0:0:0:
32,248,51177,6,0,P|72:160|216:104,1,240.000009155274,8|0,0:0|0:0,0:0:0:0:
240,104,51739,1,0,0:0:0:0:
416,104,51927,1,0,0:0:0:0:
320,104,52302,5,0,0:0:0:0:
240,104,52489,1,0,0:0:0:0:
480,248,52677,2,0,P|440:160|296:104,1,240.000009155274,8|0,0:0|0:0,0:0:0:0:
64,192,53239,5,0,0:0:0:0:
128,152,53333,1,0,0:0:0:0:
160,80,53427,1,0,0:0:0:0:
320,104,53614,1,0,0:0:0:0:
424,160,53989,5,0,0:0:0:0:
144,128,54177,1,0,0:0:0:0:
32,192,54364,2,0,P|64:264|112:304,1,120.000004577637
304,288,54739,1,0,0:0:0:0:
96,296,54927,1,0,0:0:0:0:
256,192,60927,5,0,0:0:0:0:
176,192,61302,1,0,0:0:0:0:
96,192,61489,1,0,0:0:0:0:
336,192,61677,1,8,0:0:0:0:
496,192,61864,5,0,0:0:0:0:
416,192,62052,1,0,0:0:0:0:
176,192,62239,2,0,B|128:80|128:80|88:64|8:72,1,240.000009155274
88,72,62802,1,0,0:0:0:0:
168,72,62989,1,0,0:0:0:0:
448,72,63177,1,8,0:0:0:0:
312,152,63552,5,0,0:0:0:0:
232,152,63739,1,0,0:0:0:0:
392,152,63927,1,0,0:0:0:0:
40,152,64114,1,0,0:0:0:0:
256,192,64302,12,0,66927,0:0:0:0:
320,72,67677,6,0,B|496:160|496:160|248:160|248:160|232:192,1,480.000018310548,0|0,0:0|0:0,0:0:0:0:
72,192,68802,5,0,0:0:0:0:
152,192,68989,1,0,0:0:0:0:
336,192,69177,2,0,B|384:80|384:80|424:64|504:72,1,240.000009155274,8|0,0:0|0:0,0:0:0:0:
440,144,69739,5,0,0:0:0:0:
288,96,69927,1,0,0:0:0:0:
488,208,70114,1,0,0:0:0:0:
216,128,70302,1,0,0:0:0:0:
48,216,70489,1,0,0:0:0:0:
304,312,70677,2,0,L|40:312,1,240.000009155274,8|0,0:0|0:0,0:0:0:0:
176,312,71239,5,0,0:0:0:0:
360,256,71427,1,0,0:0:0:0:
312,192,71614,1,0,0:0:0:0:
256,136,71708,1,0,0:0:0:0:
160,96,71802,1,0,0:0:0:0:
256,56,71989,1,0,0:0:0:0:
464,96,72177,1,0,0:0:0:0:
320,96,72364,5,0,0:0:0:0:
464,96,72552,1,0,0:0:0:0:
384,96,72739,1,0,0:0:0:0:
80,96,72927,1,4,0:0:0:0:
120,176,73114,1,4,0:0:0:0:
312,176,73302,1,0,0:0:0:0:
432,96,74052,5,0,0:0:0:0:
392,176,74239,1,0,0:0:0:0:
200,176,74427,1,0,0:0:0:0:
160,256,75177,5,0,0:0:0:0:
256,256,75364,1,0,0:0:0:0:
352,256,75552,1,0,0:0:0:0:
32,256,75927,2,0,L|248:88,1,256
120,96,76489,1,0,0:0:0:0:
480,256,76677,2,0,L|264:88,1,256
360,152,77427,5,0,0:0:0:0:
440,152,77614,1,0,0:0:0:0:
144,152,77802,1,0,0:0:0:0:
224,152,77989,1,0,0:0:0:0:
64,152,78177,1,0,0:0:0:0:
144,152,78552,5,0,0:0:0:0:
224,152,78739,1,0,0:0:0:0:
512,152,78927,1,4,0:0:0:0:
96,192,81927,5,0,0:0:0:0:
176,192,82114,1,0,0:0:0:0:
352,192,82302,1,0,0:0:0:0:
432,192,82489,1,0,0:0:0:0:
176,192,82677,1,4,0:0:0:0:
352,192,83427,5,0,0:0:0:0:
176,192,83802,1,0,0:0:0:0:
336,192,84177,1,4,0:0:0:0:
288,192,84364,1,0,0:0:0:0:
40,192,84552,1,0,0:0:0:0:
80,192,84739,1,0,0:0:0:0:
0,192,84927,1,0,0:0:0:0:
288,192,85302,5,0,0:0:0:0:
336,192,85489,1,0,0:0:0:0:
288,192,85677,1,4,0:0:0:0:
480,192,85864,2,0,P|432:128|280:88,1,240.000009155274
32,192,86427,2,0,P|80:128|232:88,1,240.000009155274
56,48,86989,1,0,0:0:0:0:
144,48,87177,1,4,0:0:0:0:
408,48,87552,6,0,L|272:48,1,120.000004577637,4|0,0:0|0:0,0:0:0:0:
408,160,87927,1,4,0:0:0:0:
352,232,88114,1,0,0:0:0:0:
288,296,88302,2,0,L|136:296,1,120.000004577637
424,296,88677,1,4,0:0:0:0:
248,184,88864,5,0,0:0:0:0:
104,48,89052,2,0,L|240:48,1,120.000004577637
104,160,89427,1,0,0:0:0:0:
160,232,89614,1,0,0:0:0:0:
224,296,89802,2,0,L|376:296,1,120.000004577637
88,296,90177,1,4,0:0:0:0:
32,224,90552,6,0,P|112:152|240:120,1,240.000009155274,0|0,0:0|0:0,0:0:0:0:
480,224,91302,2,0,P|400:152|272:120,1,240.000009155274
120,224,92239,1,0,0:0:0:0:
80,224,92427,1,0,0:0:0:0:
192,224,92802,1,0,0:0:0:0:
368,224,93177,1,4,0:0:0:0:
224,224,93552,5,0,0:0:0:0:
136,120,93927,5,4,0:0:0:0:
256,64,94114,1,0,0:0:0:0:
136,120,94302,1,0,0:0:0:0:
440,120,94489,2,0,L|320:120,1,120.000004577637,0|4,0:0|0:0,0:0:0:0:
256,64,94864,5,0,0:0:0:0:
216,80,95052,1,0,0:0:0:0:
136,120,95239,1,0,0:0:0:0:
344,200,95427,2,0,L|208:200,1,120.000004577637
48,272,95802,2,0,L|184:272,1,120.000004577637
344,272,96177,1,4,0:0:0:0:
280,224,96364,5,0,0:0:0:0:
232,160,96552,1,0,0:0:0:0:
408,160,96739,1,0,0:0:0:0:
152,160,96927,1,0,0:0:0:0:
72,160,97114,2,0,B|96:64|96:64|40:40|0:56,2,180.000006866455
312,160,98052,5,0,0:0:0:0:
376,224,98239,1,0,0:0:0:0:
424,296,98427,1,0,0:0:0:0:
112,296,98614,2,0,L|320:152,1,240.000009155274
112,152,99177,1,4,0:0:0:0:
160,152,99364,5,0,0:0:0:0:
392,152,99552,1,4,0:0:0:0:
344,152,99927,6,0,L|152:296,1,240.000009155274,4|0,0:0|0:0,0:0:0:0:
256,296,100489,1,0,0:0:0:0:
336,296,100677,1,4,0:0:0:0:
176,296,100864,5,0,0:0:0:0:
256,296,101052,1,0,0:0:0:0:
96,296,101239,1,0,0:0:0:0:
16,296,101427,2,0,B|24:208|24:208|56:176|168:144,1,240.000009155274
240,144,101989,5,0,0:0:0:0:
456,144,102177,1,4,0:0:0:0:
88,136,102552,2,0,P|200:80|208:80,1,120.000004577637
424,136,102927,1,0,0:0:0:0:
192,80,103302,5,0,0:0:0:0:
320,80,103489,1,0,0:0:0:0:
88,136,103677,2,0,P|144:192|168:240,1,120.000004577637,4|0,0:0|0:0,0:0:0:0:
360,128,104052,5,0,0:0:0:0:
312,192,104239,1,0,0:0:0:0:
256,248,104333,1,0,0:0:0:0:
160,288,104427,1,0,0:0:0:0:
256,328,104614,1,0,0:0:0:0:
464,288,104989,5,0,0:0:0:0:
256,328,105177,1,4,0:0:0:0:
360,312,105364,1,0,0:0:0:0:
40,320,105552,1,4,0:0:0:0:
120,192,116427,5,0,0:0:0:0:
40,192,116614,1,0,0:0:0:0:
120,192,116802,1,0,0:0:0:0:
200,192,116989,1,0,0:0:0:0:
120,192,117177,1,0,0:0:0:0:
280,192,117364,5,0,0:0:0:0:
200,192,117552,1,0,0:0:0:0:
360,192,117739,1,0,0:0:0:0:
40,192,117927,1,0,0:0:0:0:
192,72,118677,6,0,B|16:160|16:160|264:160|264:160|280:192,1,480.000018310548,0|0,0:0|0:0,0:0:0:0:
440,192,119802,5,0,0:0:0:0:
360,192,119989,1,0,0:0:0:0:
176,192,120177,2,0,B|128:80|128:80|88:64|8:72,1,240.000009155274,8|0,0:0|0:0,0:0:0:0:
72,144,120739,5,0,0:0:0:0:
224,96,120927,1,0,0:0:0:0:
24,208,121114,1,0,0:0:0:0:
296,128,121302,1,0,0:0:0:0:
464,216,121489,1,0,0:0:0:0:
208,312,121677,2,0,L|472:312,1,240.000009155274,8|0,0:0|0:0,0:0:0:0:
336,312,122239,5,0,0:0:0:0:
152,256,122427,1,0,0:0:0:0:
200,192,122614,1,0,0:0:0:0:
256,136,122708,1,0,0:0:0:0:
352,96,122802,1,0,0:0:0:0:
256,56,122989,1,0,0:0:0:0:
48,96,123177,1,0,0:0:0:0:
192,96,123364,5,0,0:0:0:0:
48,96,123552,1,0,0:0:0:0:
128,96,123739,1,0,0:0:0:0:
432,96,123927,1,4,0:0:0:0:
392,176,124114,1,4,0:0:0:0:
200,176,124302,1,0,0:0:0:0:
80,96,125052,5,0,0:0:0:0:
120,176,125239,1,0,0:0:0:0:
312,176,125427,1,0,0:0:0:0:
352,256,126177,5,0,0:0:0:0:
256,256,126364,1,0,0:0:0:0:
160,256,126552,1,0,0:0:0:0:
480,256,126927,2,0,L|280:88,1,240.000009155274
392,96,127489,1,0,0:0:0:0:
32,256,127677,2,0,L|224:96,1,240.000009155274
152,152,128427,5,0,0:0:0:0:
72,152,128614,1,0,0:0:0:0:
368,152,128802,1,0,0:0:0:0:
288,152,128989,1,0,0:0:0:0:
448,152,129177,1,0,0:0:0:0:
368,152,129552,5,0,0:0:0:0:
288,152,129739,1,0,0:0:0:0:
0,152,129927,1,0,0:0:0:0:
311,293,130677,6,0,B|487:205|487:205|239:205|239:205|222:174,1,480.000018310548,0|0,0:0|0:0,0:0:0:0:
63,173,131802,5,0,0:0:0:0:
143,174,131989,1,0,0:0:0:0:
327,173,132177,2,0,B|375:284|375:284|415:300|494:291,1,240.000009155274,8|0,0:0|0:0,0:0:0:0:
430,221,132739,5,0,0:0:0:0:
279,270,132927,1,0,0:0:0:0:
478,157,133114,1,0,0:0:0:0:
207,237,133302,1,0,0:0:0:0:
39,148,133489,1,0,0:0:0:0:
295,52,133677,2,0,L|31:52,1,240.000009155274,8|0,0:0|0:0,0:0:0:0:
167,54,134239,5,0,0:0:0:0:
351,109,134427,1,0,0:0:0:0:
303,172,134614,1,0,0:0:0:0:
247,229,134708,1,0,0:0:0:0:
151,269,134802,1,0,0:0:0:0:
247,310,134989,1,0,0:0:0:0:
455,269,135177,5,0,0:0:0:0:
352,280,135364,1,0,0:0:0:0:
151,269,135552,1,0,0:0:0:0:
456,160,135927,6,0,B|320:96|320:96|240:112|232:136,1,240.000009155274,0|4,0:0|0:0,0:0:0:0:
56,160,137052,2,0,B|192:96|192:96|272:112|280:136,1,240.000009155274,0|4,0:0|0:0,0:0:0:0:
168,256,138177,5,0,0:0:0:0:
88,256,138364,1,0,0:0:0:0:
352,256,138552,1,0,0:0:0:0:
432,256,138927,5,0,0:0:0:0:
352,256,139114,1,0,0:0:0:0:
168,256,139302,2,0,B|128:160|128:160|88:144|24:72,1,240.000009155274
344,256,140052,6,0,B|384:160|384:160|424:144|488:72,1,240.000009155274
280,72,140802,1,0,0:0:0:0:
232,72,140989,1,0,0:0:0:0:
392,72,141177,1,0,0:0:0:0:
56,72,141552,5,0,0:0:0:0:
96,72,141739,1,0,0:0:0:0:
328,72,141927,1,4,0:0:0:0:
400,192,142489,5,0,0:0:0:0:
96,192,142677,1,4,0:0:0:0:
176,192,143052,5,0,0:0:0:0:
96,192,143239,1,0,0:0:0:0:
256,192,143427,1,0,0:0:0:0:
176,192,143802,1,0,0:0:0:0:
96,192,144177,1,4,0:0:0:0:
424,192,144364,5,4,0:0:0:0:
256,192,144927,1,0,0:0:0:0:
96,192,145114,2,0,P|136:104|272:40,1,240.000009155274
416,192,145677,2,0,P|376:104|240:40,1,240.000009155274
176,288,146427,5,0,0:0:0:0:
320,288,146802,1,0,0:0:0:0:
96,288,147177,1,4,0:0:0:0:
176,288,147364,5,0,0:0:0:0:
440,288,147552,1,4,0:0:0:0:
256,152,147927,5,4,0:0:0:0:
208,152,148114,1,0,0:0:0:0:
296,152,148302,1,0,0:0:0:0:
176,152,148489,1,0,0:0:0:0:
336,152,148677,1,4,0:0:0:0:
136,152,148864,5,0,0:0:0:0:
384,152,149052,1,0,0:0:0:0:
88,152,149239,1,0,0:0:0:0:
208,152,149427,1,0,0:0:0:0:
296,152,149802,1,0,0:0:0:0:
208,152,150177,1,4,0:0:0:0:
88,152,150364,5,0,0:0:0:0:
8,152,150552,1,0,0:0:0:0:
48,152,150739,1,0,0:0:0:0:
256,192,150927,12,0,153177,0:0:0:0:
80,192,153552,5,0,0:0:0:0:
432,192,153927,5,4,0:0:0:0:
