osu file format v12

[General]
AudioFilename: Charlie Chaplin Let Us All Unite!.mp3
AudioLeadIn: 3000
PreviewTime: 65802
Countdown: 0
SampleSet: Soft
StackLeniency: 0.3
Mode: 2
LetterboxInBreaks: 0
WidescreenStoryboard: 0

[Editor]
DistanceSpacing: 1
BeatDivisor: 4
GridSize: 8

[Metadata]
Title:Let Us All Unite!
TitleUnicode:Let Us All Unite!
Artist:Charlie Chaplin
ArtistUnicode:Charlie Chaplin
Creator:VelperK
Version:Overdose
Source:YouTube melodysheep
Tags:the great dictator newtoniorock8
BeatmapID:251264
BeatmapSetID:93055

[Difficulty]
HPDrainRate:7
CircleSize:4
OverallDifficulty:9
ApproachRate:9
SliderMultiplier:3.2
SliderTickRate:2

[Events]
//Background and Video events
0,0,"greatdictatorfull.jpg",0,0
Video,0,"unite.avi"
//Break Periods
2,21002,30327
2,79127,81327
//Storyboard Layer 0 (Background)
//Storyboard Layer 1 (Fail)
//Storyboard Layer 2 (Pass)
//Storyboard Layer 3 (Foreground)
//Storyboard Sound Samples
//Background Colour Transformations
3,100,192,192,192

[TimingPoints]
6927,375,4,2,0,60,1,0
12927,-100,4,2,0,40,0,0
18645,-100,4,3,0,40,0,0
20614,-100,4,2,0,40,0,0
30927,-100,4,2,0,40,0,0
66927,-100,4,2,0,40,0,1
66950,-100,4,2,0,40,0,0
78927,-100,4,2,0,40,0,1
78950,-100,4,2,0,40,0,0
117927,-100,4,2,0,40,0,1
117950,-100,4,2,0,40,0,0
119427,-100,4,2,0,40,0,1
119520,-100,4,2,0,40,0,0
129927,-100,4,2,0,40,0,1
129950,-100,4,2,0,40,0,0
153927,-100,4,2,0,40,0,1
153950,-100,4,2,0,40,0,0

[Colours]
Combo1 : 243,243,243
Combo2 : 159,159,159

[HitObjects]
464,352,12927,6,0,L|104:352,1,320
488,192,13677,1,0,0:0:0:0:
160,200,14052,1,0,0:0:0:0:
448,48,14427,6,0,L|392:208,1,160
80,40,14802,1,0,0:0:0:0:
408,48,15177,2,0,L|352:224,1,160
0,120,15552,1,0,0:0:0:0:
144,112,15927,5,0,0:0:0:0:
512,112,16115,1,0,0:0:0:0:
256,112,16302,1,0,0:0:0:0:
32,144,16677,2,0,L|408:144,2,320
400,128,17615,5,0,0:0:0:0:
480,128,17802,1,0,0:0:0:0:
48,128,18177,1,0,0:0:0:0:
448,288,18365,2,0,L|240:288,1,160
512,264,18740,1,8,0:0:0:0:
160,128,18927,1,4,0:0:0:0:
256,192,19020,12,0,20802,0:0:0:0:
440,336,30927,6,2,L|152:176,1,320
440,96,31677,1,0,0:0:0:0:
368,96,31864,1,0,0:0:0:0:
32,88,32052,1,0,0:0:0:0:
32,88,32427,1,0,0:0:0:0:
360,88,32614,1,0,0:0:0:0:
192,88,32802,1,0,0:0:0:0:
472,288,33177,2,0,L|280:216,1,160
504,360,33552,2,0,L|368:360,1,80
336,336,33739,1,0,0:0:0:0:
40,224,33927,6,0,P|216:176|360:56,1,320
64,72,34489,1,0,0:0:0:0:
440,72,34677,1,0,0:0:0:0:
136,72,35052,1,0,0:0:0:0:
512,72,35239,2,0,B|360:216|40:168,1,480
424,232,35989,1,8,0:0:0:0:
256,232,36177,1,8,0:0:0:0:
512,328,36364,6,0,L|320:240,2,160
256,320,36927,1,0,0:0:0:0:
72,320,37302,2,0,P|224:264|448:288,1,320
32,184,38052,1,0,0:0:0:0:
192,184,38239,1,0,0:0:0:0:
472,80,38427,2,0,P|208:192|200:264,1,320
488,192,38989,1,0,0:0:0:0:
32,184,39177,1,8,0:0:0:0:
408,328,39364,6,0,L|496:176,1,160
296,184,39739,1,0,0:0:0:0:
32,184,39927,1,0,0:0:0:0:
504,312,40302,2,0,L|152:312,2,320
256,312,41239,5,0,0:0:0:0:
128,312,41333,1,0,0:0:0:0:
0,312,41427,1,0,0:0:0:0:
360,312,41708,1,0,0:0:0:0:
472,312,41802,1,0,0:0:0:0:
64,160,41989,1,0,0:0:0:0:
456,200,42177,2,0,P|312:120|312:112,2,160
144,152,42739,1,0,0:0:0:0:
440,56,42927,6,0,P|448:232|72:208,1,640
40,80,44427,6,0,B|0:240|368:328|408:96,1,480
208,88,45177,1,0,0:0:0:0:
40,80,45364,1,0,0:0:0:0:
96,288,45927,5,0,0:0:0:0:
512,288,46489,1,0,0:0:0:0:
208,80,47333,2,0,L|16:104,1,160
504,232,47802,2,0,P|224:256|184:216,1,320
48,192,48552,5,0,0:0:0:0:
176,192,48645,1,0,0:0:0:0:
296,192,48739,1,0,0:0:0:0:
120,224,48927,2,0,L|288:224,2,160
464,216,49489,1,0,0:0:0:0:
256,96,49677,2,0,P|408:184|352:112,1,640
64,120,50614,1,0,0:0:0:0:
232,120,50802,2,0,P|192:232|24:344,1,320
408,120,51552,5,0,0:0:0:0:
200,120,51739,1,0,0:0:0:0:
408,120,51927,1,0,0:0:0:0:
64,320,52677,6,0,P|88:216|288:216,1,320
64,192,53239,1,0,0:0:0:0:
320,192,53427,1,0,0:0:0:0:
256,192,53520,12,0,54177,0:0:0:0:
112,192,54364,5,0,0:0:0:0:
32,192,54552,1,0,0:0:0:0:
400,192,54739,1,0,0:0:0:0:
472,192,54927,2,0,P|384:288|192:240,1,320
400,104,55489,1,0,0:0:0:0:
48,280,55677,2,0,P|176:200|368:288,1,320
480,248,56239,5,0,0:0:0:0:
136,248,56427,1,0,0:0:0:0:
32,240,56802,1,0,0:0:0:0:
480,248,56989,2,0,P|280:328|104:120,1,480
424,128,57927,5,0,0:0:0:0:
32,128,58208,1,0,0:0:0:0:
296,128,58395,1,0,0:0:0:0:
152,264,58677,2,0,P|456:224|496:224,1,320
72,224,59427,5,0,0:0:0:0:
432,224,59708,1,0,0:0:0:0:
184,224,59895,1,0,0:0:0:0:
32,224,60177,2,0,P|264:160|360:168,1,320
472,168,60739,5,0,0:0:0:0:
32,160,60927,1,0,0:0:0:0:
320,328,61114,2,0,L|456:192,2,160
144,128,61677,2,0,L|24:256,2,160
400,120,62239,2,0,P|280:328|32:312,1,480
432,192,62989,5,0,0:0:0:0:
80,192,63177,1,0,0:0:0:0:
256,192,63270,12,0,65427,0:0:0:0:
40,192,65802,5,0,0:0:0:0:
472,200,65989,1,0,0:0:0:0:
88,192,66177,2,0,P|152:304|424:160,1,480
40,192,66927,1,0,0:0:0:0:
256,192,67677,12,0,68052,0:0:0:0:
64,192,68239,5,0,0:0:0:0:
448,192,68427,2,0,P|360:296|160:232,1,320
384,152,68989,1,0,0:0:0:0:
8,144,69177,2,0,P|240:272|312:272,1,320
136,232,69739,6,0,L|16:368,1,160
464,232,70114,2,0,L|296:280,1,160
512,320,70489,1,0,0:0:0:0:
32,72,70677,2,0,B|216:232|496:80,1,480
64,160,71427,6,0,L|264:160,1,160
40,120,71802,2,0,L|248:120,1,160
472,104,72177,2,0,B|696:384|56:248,1,640
408,208,73114,1,0,0:0:0:0:
0,200,73302,1,0,0:0:0:0:
480,208,74052,5,0,0:0:0:0:
72,200,74239,1,0,0:0:0:0:
408,208,74427,1,0,0:0:0:0:
288,312,75177,1,0,0:0:0:0:
24,312,75364,1,0,0:0:0:0:
504,312,75552,1,0,0:0:0:0:
216,288,75927,6,0,L|496:104,1,320
32,168,76489,1,0,0:0:0:0:
480,168,76677,1,0,0:0:0:0:
256,192,76770,12,0,77427,0:0:0:0:
32,96,77802,5,0,0:0:0:0:
136,96,77989,1,0,0:0:0:0:
480,96,78177,1,0,0:0:0:0:
32,96,78739,1,0,0:0:0:0:
480,96,78927,1,0,0:0:0:0:
48,48,81927,6,0,P|152:208|320:312,1,320
448,272,82489,1,0,0:0:0:0:
352,288,82677,1,0,0:0:0:0:
80,256,82864,6,0,L|288:280|288:280,2,160
384,272,83427,1,0,0:0:0:0:
80,160,83802,1,0,0:0:0:0:
432,160,84177,1,0,0:0:0:0:
176,160,84364,1,0,0:0:0:0:
480,160,84552,1,0,0:0:0:0:
80,160,84739,1,0,0:0:0:0:
80,56,84927,6,0,L|416:56|416:56,1,320
136,112,85489,1,0,0:0:0:0:
24,152,85677,2,0,L|352:264,1,320
464,272,86239,1,0,0:0:0:0:
0,280,86427,2,0,L|224:336,1,160
464,320,86802,1,0,0:0:0:0:
464,320,86989,1,0,0:0:0:0:
48,320,87177,1,0,0:0:0:0:
48,320,87364,1,0,0:0:0:0:
416,312,87552,6,0,L|48:312,1,320,0|4,0:0|0:0,0:0:0:0:
256,224,88114,1,0,0:0:0:0:
416,216,88302,1,0,0:0:0:0:
104,208,88677,2,0,L|264:208,2,160
424,208,89239,2,0,L|232:208,2,160
88,72,89802,2,0,L|416:72|416:72,1,320
80,336,90552,6,0,L|448:336,1,320
24,200,91302,2,0,L|216:200,2,160
440,200,91864,2,0,P|264:272|40:112,1,480
224,120,92614,1,0,0:0:0:0:
504,120,92802,1,0,0:0:0:0:
0,112,92989,1,0,0:0:0:0:
296,152,93177,2,0,L|120:224,1,160
488,176,93552,2,0,L|144:320,1,320
128,168,94114,5,0,0:0:0:0:
408,168,94302,1,0,0:0:0:0:
40,168,94489,2,0,P|192:264|360:248,1,320
128,168,95052,1,0,0:0:0:0:
128,168,95239,1,0,0:0:0:0:
472,168,95427,1,0,0:0:0:0:
56,272,95614,2,0,L|440:264,1,320
112,352,96177,2,0,L|248:216,1,160
320,240,96552,1,0,0:0:0:0:
192,240,96645,1,0,0:0:0:0:
64,240,96739,1,0,0:0:0:0:
464,240,96927,6,0,L|96:168,2,320
472,104,98052,1,0,0:0:0:0:
280,104,98239,1,0,0:0:0:0:
120,168,98427,2,0,L|472:168,1,320
32,104,98989,1,0,0:0:0:0:
408,120,99177,2,0,L|192:120,2,160
64,304,99927,2,0,L|408:224,1,320
448,344,100677,6,0,L|480:168,2,160
56,344,101239,1,0,0:0:0:0:
344,344,101427,2,0,P|408:328|192:128,1,640
32,88,102364,1,0,0:0:0:0:
256,88,102645,5,0,0:0:0:0:
384,88,102739,1,0,0:0:0:0:
56,304,102927,2,0,L|184:184,1,160
280,192,103302,1,0,0:0:0:0:
56,248,103677,2,0,L|408:248,1,320
120,152,104145,2,0,L|32:112,1,80
392,152,104333,2,0,L|512:96,1,80
392,144,104708,1,0,0:0:0:0:
320,144,104802,1,0,0:0:0:0:
48,72,104989,2,0,L|152:248,1,160
464,56,105364,2,0,L|416:248,2,160
184,72,105927,6,0,P|176:232|512:144,1,640
40,72,107052,1,0,0:0:0:0:
472,72,107427,2,0,P|392:280|120:96,1,640
376,72,108739,5,0,0:0:0:0:
104,72,108927,1,0,0:0:0:0:
184,72,109114,1,0,0:0:0:0:
472,72,109302,2,0,P|416:232|280:224,1,320
432,232,109864,1,0,0:0:0:0:
120,144,110052,2,0,L|320:208,1,160
0,184,110427,2,0,B|200:424|512:8,1,640
256,40,111364,5,0,0:0:0:0:
408,56,111552,2,0,L|240:128,1,160
80,128,111927,2,0,P|256:264|352:224,1,320
448,192,112489,1,0,0:0:0:0:
56,192,112677,2,0,P|168:248|392:160,1,320
448,192,113239,5,0,0:0:0:0:
352,192,113427,1,0,0:0:0:0:
32,192,113614,1,0,0:0:0:0:
96,192,113802,1,0,0:0:0:0:
512,192,113989,1,0,0:0:0:0:
512,192,114177,2,0,P|376:248|328:208,1,160
96,192,114458,1,0,0:0:0:0:
152,192,114552,1,0,0:0:0:0:
448,192,114739,1,0,0:0:0:0:
72,272,114927,2,0,B|120:352|120:352|288:376|288:376|176:272|176:272|456:320|456:320|192:168|192:168|296:128|296:128|336:168|336:168|432:176|432:176|464:176|464:176,1,1280
112,192,116802,6,0,L|280:192,2,160
464,192,117739,1,0,0:0:0:0:
48,192,117927,1,0,0:0:0:0:
256,192,118677,12,0,119052,0:0:0:0:
48,336,119239,5,0,0:0:0:0:
464,328,119427,2,0,L|240:32,1,320
424,72,119989,1,0,0:0:0:0:
96,72,120177,2,0,P|152:176|376:224,1,320
80,192,120739,1,0,0:0:0:0:
256,192,120927,1,0,0:0:0:0:
432,192,121114,1,0,0:0:0:0:
256,192,121302,1,0,0:0:0:0:
0,192,121489,1,0,0:0:0:0:
400,192,121677,2,0,P|248:264|96:224,1,320
432,192,122239,5,0,0:0:0:0:
256,192,122427,1,0,0:0:0:0:
80,192,122614,1,0,0:0:0:0:
256,192,122802,1,0,0:0:0:0:
504,192,122989,1,0,0:0:0:0:
104,328,123177,6,0,B|288:304|72:128|344:96,1,320
384,104,123739,1,0,0:0:0:0:
48,96,123927,1,0,0:0:0:0:
464,104,124114,1,0,0:0:0:0:
384,104,124302,1,0,0:0:0:0:
128,96,125052,5,0,0:0:0:0:
424,104,125239,1,0,0:0:0:0:
48,96,125427,1,0,0:0:0:0:
472,184,126177,5,0,0:0:0:0:
256,184,126364,1,0,0:0:0:0:
400,184,126552,2,0,P|280:272|56:240,2,320
48,192,127489,1,0,0:0:0:0:
440,184,127677,2,0,P|376:280|192:8,1,640
408,88,128802,5,0,0:0:0:0:
480,88,128989,1,0,0:0:0:0:
32,88,129177,1,0,0:0:0:0:
104,88,129739,1,0,0:0:0:0:
408,88,129927,1,0,0:0:0:0:
256,192,130677,12,0,131052,0:0:0:0:
376,192,131239,6,0,P|320:256|208:256,1,160
104,200,131614,1,0,0:0:0:0:
464,192,131802,2,0,P|248:328|176:288,2,320
112,192,132739,5,0,0:0:0:0:
200,192,132927,1,0,0:0:0:0:
464,352,133114,2,0,L|296:192,2,160
32,192,133677,2,0,P|16:256|360:216,1,640
160,192,134614,5,0,0:0:0:0:
232,192,134708,1,0,0:0:0:0:
304,192,134802,1,0,0:0:0:0:
464,192,134989,1,0,0:0:0:0:
80,192,135177,6,0,P|160:280|136:40,1,640
352,24,136114,1,0,0:0:0:0:
512,24,136302,1,0,0:0:0:0:
0,192,137052,5,0,0:0:0:0:
256,192,137239,1,0,0:0:0:0:
0,192,137427,1,0,0:0:0:0:
512,192,138177,5,0,0:0:0:0:
256,192,138364,1,0,0:0:0:0:
512,192,138552,1,0,0:0:0:0:
184,328,138927,6,0,L|360:328,1,160
48,200,139302,1,0,0:0:0:0:
376,200,139677,5,0,0:0:0:0:
136,200,140052,5,0,0:0:0:0:
488,200,140427,5,0,0:0:0:0:
208,200,140802,5,0,0:0:0:0:
32,200,141177,5,0,0:0:0:0:
480,200,141552,5,0,0:0:0:0:
32,200,141927,6,0,P|232:272|336:216,1,320
408,184,142489,1,0,0:0:0:0:
184,184,142677,1,0,0:0:0:0:
472,184,142864,2,0,L|312:184,2,160
104,184,143427,1,0,0:0:0:0:
376,352,143802,2,0,L|256:240,1,160
32,184,144177,1,0,0:0:0:0:
208,184,144364,1,0,0:0:0:0:
256,184,144927,5,0,0:0:0:0:
408,184,145208,1,0,0:0:0:0:
32,184,145395,1,0,0:0:0:0:
384,184,145677,2,0,P|288:320|160:208,1,320
96,184,146427,1,0,0:0:0:0:
448,184,146802,1,0,0:0:0:0:
256,184,146989,1,0,0:0:0:0:
0,184,147177,2,0,P|200:312|240:256,1,320
480,256,147739,5,0,0:0:0:0:
96,184,147927,2,0,L|264:184,1,160
64,120,148302,2,0,L|264:120,2,160
288,120,148864,1,0,0:0:0:0:
472,120,149052,1,0,0:0:0:0:
136,120,149239,1,0,0:0:0:0:
256,192,149333,12,0,152427,0:0:0:0:
0,192,152802,5,0,0:0:0:0:
512,200,152989,1,0,0:0:0:0:
0,192,153177,1,0,0:0:0:0:
424,200,153739,1,0,0:0:0:0:
88,192,153927,1,0,0:0:0:0:
