osu file format v7

[General]
AudioFilename: Kataomoi.mp3
AudioLeadIn: 1500
PreviewTime: 46778
Countdown: 0
SampleSet: Soft
StackLeniency: 0.7
Mode: 0
LetterboxInBreaks: 1

[Editor]
DistanceSpacing: 0.800000011920929
BeatDivisor: 4
GridSize: 8

[Metadata]
Title:Kataomoi (TV Size)
Artist:Chara
Creator:tmokb93
Version:Normal
Source:Kimi Ni Todoke
Tags:Reaching You

[Difficulty]
HPDrainRate:4
CircleSize:4
OverallDifficulty:4
SliderMultiplier:0.999999999999999
SliderTickRate:1

[Events]
//Background and Video events
0,0,"kataomoi background.jpg"
Video,0,"Kataomoi.avi"
//Break Periods
2,11242,13681
//Storyboard Layer 0 (Background)
//Storyboard Layer 1 (Fail)
//Storyboard Layer 2 (Pass)
//Storyboard Layer 3 (Foreground)
//Storyboard Sound Samples
//Background Colour Transformations
3,100,255,255,176

[TimingPoints]
1043,416.666666666667,4,2,0,50,1,0
3438,-100,4,2,1,50,0,0
34688,-100,4,2,0,50,0,0
36772,-100,4,2,1,50,0,0
43334,-100,4,2,0,50,0,0
47709,-100,4,2,1,50,0,1
57293,-100,4,2,0,50,0,0
64063,-100,4,2,0,0,0,0

[Colours]
Combo1 : 193,255,132
Combo2 : 0,128,192
Combo3 : 255,162,117
Combo4 : 0,128,128

[HitObjects]
256,192,209,1,0
256,192,626,1,0
176,192,1042,5,4
96,192,1459,1,4
96,192,1668,1,4
96,272,2084,1,2
96,272,2293,1,2
160,328,2709,1,2
160,328,2917,1,2
216,272,3334,1,2
216,272,3542,1,4
296,272,3959,2,4,B|360:272|360:200,2,99.9999999999999
296,112,5626,6,2,B|296:48|232:48,2,99.9999999999999
256,184,6876,1,2
176,184,7293,2,2,B|136:144|80:192,1,99.9999999999999
256,192,8126,12,2,11042
256,192,15001,5,4
256,232,15209,1,2
256,312,15626,1,2
216,312,15834,2,4,B|168:360|120:360|72:312,1,150
128,152,17084,5,2
168,152,17292,1,2
208,152,17501,2,2,B|248:112|304:112|344:152,1,150
120,312,19167,5,4
80,312,19376,2,4,B|80:208,1,99.9999999999999
80,168,20001,1,4
80,88,20418,1,4
80,8,20834,2,4,B|80:64|160:64,1,99.9999999999999
232,64,21668,5,8
232,104,21876,1,8
232,184,22293,1,8
232,224,22501,2,8,B|232:280|304:280,2,99.9999999999999
312,224,23751,5,2
312,184,23959,1,2
312,144,24168,1,2
312,104,24376,1,2
120,40,25418,5,4
120,80,25626,1,4
120,120,25834,1,4
120,160,26043,2,4,B|16:160,1,99.9999999999999
24,240,26876,1,4
72,304,27293,1,4
152,304,27709,5,4
232,304,28126,1,4
312,304,28543,1,4
392,304,28959,2,4,B|440:256|392:208,2,99.9999999999999
408,184,30418,5,2
368,184,30626,1,2
328,184,30834,1,2
328,224,31043,1,2
256,184,31459,1,2
256,184,31668,1,2
184,224,32084,1,2
184,184,32293,2,0,B|80:184,1,99.9999999999999
344,192,33543,5,4
264,192,33959,1,4
184,192,34376,5,4
104,192,34793,1,4
104,192,35001,1,4
104,112,35418,1,4
104,112,35626,1,4
176,72,36043,1,2
216,72,36251,1,2
216,152,36668,1,2
216,192,36876,1,4
216,272,37293,1,4
296,272,37709,1,4
376,272,38126,1,4
376,112,38959,5,2
296,112,39376,1,2
216,112,39792,1,2
136,112,40209,1,2
136,192,40626,2,2,B|136:296|280:296,2,200
216,192,42709,1,4
296,176,43126,1,8
360,128,43542,1,4
376,48,43959,5,2
344,72,44167,1,2
312,104,44376,1,2
264,40,44792,1,2
264,40,45001,1,2
256,192,45209,12,4,46876
256,192,47709,5,4
256,272,48126,1,4
256,272,48334,1,4
256,192,48751,1,4
256,192,48959,1,4
256,112,49376,1,4
256,112,49584,1,4
256,192,50001,1,4
256,192,50209,1,2
176,192,50626,1,2
256,192,51042,1,2
336,192,51459,1,2
336,32,52292,5,2
336,112,52709,1,2
336,192,53126,1,2
416,192,53542,1,2
416,272,53959,2,2,B|368:320|320:264,1,99.9999999999999
272,216,54792,6,2,B|272:328|120:328,3,200
80,272,57709,6,8,B|80:152|216:152,3,200
288,152,60626,1,8
288,72,61042,6,8,B|360:128|432:64,1,150
464,72,61876,1,2
464,152,62292,1,2
464,232,62709,1,2
464,312,63126,1,2
384,312,63542,1,2
256,192,64167,12,0,68543
