osu file format v7

[General]
AudioFilename: Kataomoi.mp3
AudioLeadIn: 1500
PreviewTime: 46778
Countdown: 0
SampleSet: Soft
StackLeniency: 0.7
Mode: 0
LetterboxInBreaks: 1

[Editor]
DistanceSpacing: 0.800000011920929
BeatDivisor: 4
GridSize: 8

[Metadata]
Title:Kataomoi (TV Size)
Artist:Chara
Creator:tmokb93
Version:Easy
Source:Kimi Ni Todoke
Tags:Reaching You

[Difficulty]
HPDrainRate:2
CircleSize:3
OverallDifficulty:2
SliderMultiplier:0.999999999999999
SliderTickRate:0.5

[Events]
//Background and Video events
Video,0,"Kataomoi.avi"
0,0,"kataomoi background.jpg"
//Break Periods
//Storyboard Layer 0 (Background)
//Storyboard Layer 1 (Fail)
//Storyboard Layer 2 (Pass)
//Storyboard Layer 3 (Foreground)
//Storyboard Sound Samples
//Background Colour Transformations
3,100,255,255,176

[TimingPoints]
1043,416.658904109591,4,2,0,50,1,0
3751,-100,4,2,1,50,0,0
4174,-100,4,2,0,50,0,0
14584,-100,4,2,1,50,0,0
31250,-100,4,2,0,50,0,0
36667,-100,4,2,1,50,0,0
40833,-100,4,2,0,50,0,0
47709,-100,4,2,1,50,0,1
48854,-100,4,2,0,50,0,1
50833,-100,4,2,1,50,0,1
57293,-100,4,2,1,50,0,0
63958,-100,4,2,1,0,0,0

[Colours]
Combo1 : 193,255,132
Combo2 : 0,128,192
Combo3 : 255,162,117
Combo4 : 0,128,128

[HitObjects]
256,192,1043,1,4
168,104,1667,1,2
168,224,2292,1,4
256,312,2917,1,2
336,224,3542,5,2
336,144,3959,1,4
256,144,4376,1,4
176,144,4792,1,0
96,144,5209,1,2
96,224,5626,5,0
96,304,6042,1,2
176,304,6459,1,0
256,304,6876,1,2
256,144,7709,5,2
96,144,8542,1,2
256,144,9376,1,2
256,304,10209,1,2
144,192,11042,5,4
304,192,11876,1,2
304,32,12709,1,4
144,32,13542,1,2
144,112,13959,1,0
144,192,14376,5,4
224,192,14792,1,4
224,272,15209,2,0,B|272:320|320:272,1,99.9999999999999,2|0
312,192,16042,5,4
312,112,16459,1,4
312,32,16876,2,2,B|272:-8|224:40,1,99.9999999999999,2|0
152,80,17709,5,4
152,160,18126,1,4
152,240,18542,1,2
152,320,18959,1,0
232,320,19375,6,4,B|184:272|256:224,1,99.9999999999999
320,232,20209,2,2,B|360:192|312:136,1,99.9999999999999,2|0
240,136,21042,6,4,B|192:88|256:40,1,99.9999999999999
328,48,21875,1,2
408,48,22292,1,0
408,128,22709,5,4
328,128,23125,1,4
248,128,23542,2,2,B|136:128,1,99.9999999999999,2|0
144,208,24375,5,4
144,288,24792,1,4
224,288,25209,1,2
224,208,25625,1,0
224,128,26042,5,4
304,128,26459,1,4
384,128,26875,2,2,B|432:176|432:224,1,99.9999999999999,2|0
440,296,27709,5,4
384,352,28125,1,4
304,352,28542,2,8,B|216:264|304:176,3,200,8|4|8|4
360,120,31459,1,4
416,176,31875,1,4
256,192,32292,12,4,33542
256,192,34375,6,4,B|160:192|160:296,2,150
376,192,36250,1,2
256,192,36875,1,4
176,192,37292,1,4
96,192,37708,5,8
40,136,38125,1,0
40,56,38542,1,8
120,56,38958,1,0
200,56,39375,5,2
248,120,39792,1,0
296,56,40208,1,2
344,120,40625,1,2
344,200,41042,5,4
256,192,41875,12,4,46875
328,256,47708,5,4
248,256,48125,1,4
224,288,48333,1,4
160,344,48750,5,0
120,344,48958,1,4
120,264,49375,1,2
120,224,49583,1,2
120,184,49792,2,2,B|120:120|184:120,2,99.9999999999999
40,184,51042,5,4
40,264,51458,1,4
120,264,51875,1,8
200,264,52292,1,0
280,264,52708,5,2
280,184,53125,1,0
280,104,53542,1,2
280,24,53958,1,0
360,24,54375,1,2
256,192,54791,12,2,57291
256,192,57708,6,2,B|136:192|136:336,3,200
296,312,61041,5,0
400,192,61875,1,0
296,72,62708,1,0
192,192,63541,1,0
256,192,64166,12,0,68541
