osu file format v14

[General]
AudioFilename: Kaleidoscope - Chata.mp3
AudioLeadIn: 0
PreviewTime: 85403
Countdown: 0
SampleSet: Soft
StackLeniency: 0.7
Mode: 0
LetterboxInBreaks: 0
WidescreenStoryboard: 0

[Editor]
Bookmarks: 17271,32429,47587,55166,70324,85482,100640,130956,146114,163166,178324,189693,204850,216219,227587,242745,254745
DistanceSpacing: 1.2
BeatDivisor: 4
GridSize: 4
TimelineZoom: 1

[Metadata]
Title:Kaleidoscope
TitleUnicode:Kaleidoscope
Artist:Chanefutoshi
ArtistUnicode:茶音太
Creator:pkhg
Version:Easy
Source:
Tags:frostxe frostmourne ritsu-tanaika erunamojazz Usagi Kinoko ウサギキノコ 囁一 Chata 茶太
BeatmapID:646938
BeatmapSetID:232842

[Difficulty]
HPDrainRate:3
CircleSize:3
OverallDifficulty:3
ApproachRate:3
SliderMultiplier:1.39999990463257
SliderTickRate:2

[Events]
//Background and Video events
0,0,"bg.jpg",0,0
//Break Periods
2,32629,46147
2,55366,68884
2,115998,129516
2,146114,161272
//Storyboard Layer 0 (Background)
//Storyboard Layer 1 (Fail)
//Storyboard Layer 2 (Pass)
//Storyboard Layer 3 (Foreground)
//Storyboard Sound Samples

[TimingPoints]
17272,631.578947368421,3,2,1,70,1,0
32429,-100,3,2,2,40,0,0
47587,-100,3,2,1,70,0,0
55166,-100,3,2,1,60,0,0
70166,-100,3,2,1,70,0,0
85482,-100,3,2,1,90,0,1
115798,-100,3,2,2,60,0,0
130956,-100,3,2,1,70,0,0
146114,-100,3,2,1,70,0,0
163166,-100,3,2,1,90,0,1
189614,-100,3,2,1,90,0,0
189693,-100,3,2,1,90,0,1
216219,-100,3,2,1,80,0,0
261693,-100,3,2,2,60,0,0
261772,-100,3,2,2,60,0,0
262324,-100,3,2,1,35,0,0
262956,-100,3,2,1,30,0,0
263587,-100,3,2,1,25,0,0
264219,-100,3,2,1,20,0,0
264850,-100,3,2,1,15,0,0
265482,-100,3,2,1,5,0,0

[Colours]
Combo1 : 168,168,255
Combo2 : 192,192,192
Combo3 : 255,159,255

[HitObjects]
92,252,17271,6,0,B|81:215|97:183|97:183|113:151|101:115,2,139.999990463257,4|8|2,0:0|0:0|0:0,0:0:0:0:
152,312,18850,1,8,0:0:0:0:
236,312,19166,2,0,P|276:304|312:308,1,69.9999952316285,2|0,0:0|0:0,0:0:0:0:
388,296,19798,2,0,P|408:220|400:148,1,139.999990463257,8|0,0:0|0:0,0:0:0:0:
348,96,20745,1,8,0:0:0:0:
276,52,21061,6,0,P|208:36|136:48,1,139.999990463257,2|8,0:0|0:0,0:0:0:0:
136,132,22008,2,0,P|204:148|276:136,1,139.999990463257,2|8,0:0|0:0,0:0:0:0:
348,96,22956,2,0,P|356:129|348:184,1,69.9999952316285,2|0,0:0|0:0,0:0:0:0:
396,237,23587,2,0,P|430:236|464:227,2,69.9999952316285,8|2|0,0:0|0:0|0:0,0:0:0:0:
312,240,24535,1,8,0:0:0:0:
256,176,24850,6,0,B|224:160|188:172|188:172|172:140|134:133,2,139.999990463257,2|8|2,0:0|0:0|0:0,0:0:0:0:
312,240,26429,1,8,0:0:0:0:
396,240,26745,2,0,L|472:236,2,69.9999952316285,2|0|8,0:0|0:0|0:0,0:0:0:0:
356,316,27693,2,0,P|284:332|212:328,1,139.999990463257,2|8,0:0|0:0,0:0:0:0:
140,304,28640,6,0,L|133:208,1,69.9999952316285,2|0,0:0|0:0,0:0:0:0:
152,152,29271,2,0,P|211:118|291:126,1,139.999990463257,8|2,0:0|0:0,0:0:0:0:
356,164,30219,1,8,0:0:0:0:
424,116,30535,2,0,P|436:76|436:36,2,69.9999952316285,2|0|8,0:0|0:0|0:0,0:0:0:0:
356,164,31482,1,2,0:0:0:0:
304,232,31798,2,0,P|296:268|300:312,1,69.9999952316285,0|8,0:0|0:0,0:0:0:0:
352,364,32429,1,2,0:0:0:0:
272,304,47587,6,0,P|336:276|408:284,2,139.999990463257,6|8|2,0:0|0:0|1:2,0:0:0:0:
200,348,49166,1,8,0:0:0:0:
128,304,49482,2,0,P|120:268|116:224,1,69.9999952316285,2|0,1:2|0:0,0:0:0:0:
152,160,50114,2,0,P|160:92|112:36,1,139.999990463257,8|0,0:0|0:0,0:0:0:0:
80,114,51061,1,8,1:2:0:0:
76,196,51377,6,0,P|128:240|208:223,1,139.999990463257,4|8,1:2|0:0,0:0:0:0:
240,160,52324,1,0,0:0:0:0:
304,104,52640,2,0,P|340:96|388:100,1,69.9999952316285,2|8,1:2|1:2,0:0:0:0:
436,152,53271,2,0,B|449:185|438:220|438:220|426:255|440:288,1,139.999990463257,2|8,1:2|1:2,0:0:0:0:
388,356,54219,1,0,1:2:0:0:
312,320,54535,2,0,P|268:312|220:316,1,69.9999952316285,2|4,1:2|0:3,0:0:0:0:
160,332,55166,1,2,1:2:0:0:
80,344,70324,6,0,L|72:196,1,139.999990463257,6|8,0:0|0:0,0:0:0:0:
112,128,71271,1,0,0:0:0:0:
184,80,71587,2,0,P|224:68|272:72,1,69.9999952316285,2|8,0:0|0:0,0:0:0:0:
308,132,72219,2,0,P|364:172|432:160,2,139.999990463257,2|8|0,0:0|0:0|0:0,0:0:0:0:
382,93,73798,1,0,0:0:0:0:
465,88,74114,6,0,L|479:253,1,139.999990463257,6|8,0:0|0:0,0:0:0:0:
413,282,75061,2,0,P|384:287|340:283,1,69.9999952316285,8|2,0:0|0:0,0:0:0:0:
265,251,75693,1,8,0:0:0:0:
219,180,76008,2,0,L|227:40,2,139.999990463257,2|8|0,0:0|0:0|0:0,0:0:0:0:
265,251,77587,1,8,0:0:0:0:
205,311,77903,6,0,P|141:335|69:319,1,139.999990463257,6|8,0:0|0:0,0:0:0:0:
24,252,78850,1,0,0:0:0:0:
44,172,79166,2,0,L|48:88,1,69.9999952316285,2|8,0:0|0:0,0:0:0:0:
112,44,79798,2,0,B|140:28|180:32|180:32|248:68,1,139.999990463257,2|8,0:0|0:0,0:0:0:0:
306,119,80745,1,2,0:0:0:0:
388,100,81061,2,0,P|424:88|472:96,1,69.9999952316285,0|8,0:0|0:0,0:0:0:0:
436,172,81693,6,0,L|432:328,1,139.999990463257,2|8,0:0|0:0,0:0:0:0:
364,360,82640,1,0,0:0:0:0:
292,316,82956,2,0,P|232:284|160:296,1,139.999990463257,8|6,0:0|0:0,0:0:0:0:
68,96,85482,6,0,P|125:129|198:115,1,139.999990463257,4|8,1:2|0:0,0:0:0:0:
264,68,86429,1,8,0:0:0:0:
340,108,86745,2,0,P|348:144|344:192,1,69.9999952316285,0|8,1:0|0:0,0:0:0:0:
284,232,87377,2,0,L|436:212,1,139.999990463257,2|8,1:2|0:0,0:0:0:0:
472,148,88324,2,0,P|460:216|472:300,1,139.999990463257,2|8,0:0|1:2,0:0:0:0:
412,348,89271,5,2,1:2:0:0:
332,320,89587,2,0,P|300:312|260:316,1,69.9999952316285,0|8,0:0|0:0,0:0:0:0:
188,356,90219,1,8,0:0:0:0:
112,316,90535,2,0,P|104:268|108:236,1,69.9999952316285,0|8,1:0|0:0,0:0:0:0:
148,176,91166,2,0,P|200:132|196:56,1,139.999990463257,2|8,1:2|0:0,0:0:0:0:
122,96,92114,2,0,P|70:140|74:216,1,139.999990463257,2|8,0:0|0:0,0:0:0:0:
132,264,93061,6,0,P|170:265|211:275,1,69.9999952316285,2|0,1:2|0:0,0:0:0:0:
264,328,93693,1,8,0:0:0:0:
344,308,94008,2,0,P|384:296|424:296,2,69.9999952316285,2|8|2,0:0|1:2|0:0,0:0:0:0:
264,328,94956,1,2,1:2:0:0:
200,272,95271,2,0,P|192:224|196:184,1,69.9999952316285,0|8,0:0|0:0,0:0:0:0:
224,124,95903,2,0,P|224:89|216:54,2,69.9999952316285,2|0|8,0:0|1:0|0:0,0:0:0:0:
276,192,96850,6,0,P|344:200|424:168,1,139.999990463257,4|8,1:2|0:0,0:0:0:0:
472,116,97798,2,0,P|456:188|456:264,1,139.999990463257,8|8,0:0|0:0,0:0:0:0:
416,328,98745,1,6,1:2:0:0:
336,348,99061,2,0,P|292:352|248:348,1,69.9999952316285,8|8,0:0|1:2,0:0:0:0:
224,276,99693,2,0,P|160:248|88:276,1,139.999990463257,2|8,0:0|0:0,0:0:0:0:
55,342,100640,6,0,L|43:190,1,139.999990463257,4|8,1:2|0:0,0:0:0:0:
80,128,101587,1,8,0:0:0:0:
156,96,101903,2,0,P|192:88|236:92,1,69.9999952316285,0|8,1:0|0:0,0:0:0:0:
292,140,102535,2,0,P|336:152|420:104,1,139.999990463257,2|8,1:2|0:0,0:0:0:0:
468,44,103482,2,0,L|464:184,1,139.999990463257,2|8,0:0|1:2,0:0:0:0:
400,240,104429,6,0,P|360:248|288:188,1,139.999990463257,2|8,1:2|0:0,0:0:0:0:
224,136,105377,2,0,P|250:166|234:258,1,139.999990463257,8|8,0:0|0:0,0:0:0:0:
224,340,106324,2,0,P|237:301|325:269,1,139.999990463257,2|8,1:2|0:0,0:0:0:0:
404,292,107271,1,2,0:0:0:0:
472,244,107587,2,0,P|477:208|476:164,1,69.9999952316285,2|8,0:0|0:0,0:0:0:0:
424,108,108219,6,0,P|388:102|344:104,1,69.9999952316285,2|0,1:2|0:0,0:0:0:0:
280,144,108850,1,8,1:2:0:0:
212,96,109166,2,0,P|148:64|76:84,1,139.999990463257,2|8,0:0|0:0,0:0:0:0:
48,156,110114,2,0,L|56:268,1,69.9999952316285,2|0,1:2|0:0,0:0:0:0:
76,308,110745,1,8,0:0:0:0:
156,336,111061,2,0,P|220:344|284:308,1,139.999990463257,8|8,0:0|0:0,0:0:0:0:
320,232,112008,6,0,P|379:197|447:204,2,139.999990463257,2|8|2,1:2|0:0|1:2,0:0:0:0:
252,280,113587,1,8,0:0:0:0:
172,308,113903,2,0,P|136:308|96:292,2,69.9999952316285,2|0|8,1:2|1:0|1:2,0:0:0:0:
252,280,114850,1,2,1:2:0:0:
300,212,115166,2,0,P|304:168|300:128,1,69.9999952316285,8|4,1:2|1:3,0:0:0:0:
276,64,115798,1,2,1:2:0:0:
100,280,130956,6,0,P|160:248|232:260,1,139.999990463257,6|8,0:0|0:0,0:0:0:0:
300,304,131903,1,0,0:0:0:0:
376,268,132219,2,0,P|384:232|380:184,1,69.9999952316285,2|8,0:0|0:0,0:0:0:0:
356,120,132850,2,0,P|304:76|228:80,1,139.999990463257,2|8,0:0|0:0,0:0:0:0:
168,128,133798,1,2,0:0:0:0:
152,212,134114,2,0,L|156:292,1,69.9999952316285,0|2,0:0|0:0,0:0:0:0:
228,324,134745,6,0,P|163:316|80:340,2,139.999990463257,6|8|2,0:0|0:0|0:0,0:0:0:0:
308,352,136324,1,8,0:0:0:0:
388,324,136640,2,0,L|472:316,2,69.9999952316285,2|8|8,0:0|0:3|0:0,0:0:0:0:
324,268,137587,2,0,P|304:204|316:132,1,139.999990463257,2|8,0:0|0:0,0:0:0:0:
380,80,138535,6,0,L|236:92,1,139.999990463257,6|8,0:0|0:0,0:0:0:0:
160,72,139482,1,0,0:0:0:0:
104,136,139798,2,0,P|100:172|108:212,1,69.9999952316285,2|8,0:0|0:0,0:0:0:0:
163,265,140429,2,0,B|202:273|220:301|220:301|249:283|288:291,1,139.999990463257,6|8,0:0|0:0,0:0:0:0:
372,288,141377,1,2,0:0:0:0:
400,368,141693,2,0,P|365:372|331:362,1,69.9999952316285,0|8,0:0|0:0,0:0:0:0:
288,291,142324,6,0,B|287:248|320:222|320:222|272:179,1,139.999990463257,2|8,0:0|0:0,0:0:0:0:
212,236,143272,1,0,0:0:0:0:
188,156,143587,2,0,P|232:100|304:96,1,139.999990463257,8|6,0:0|0:0,0:0:0:0:
448,192,163166,6,0,P|380:176|320:216,1,139.999990463257,6|8,1:2|0:0,0:0:0:0:
277,284,164114,1,8,0:0:0:0:
197,308,164429,2,0,P|161:312|117:304,1,69.9999952316285,0|8,1:0|0:0,0:0:0:0:
88,232,165061,2,0,L|84:152,1,69.9999952316285,2|0,1:2|0:0,0:0:0:0:
108,80,165693,1,8,0:0:0:0:
184,112,166008,2,0,P|236:128|320:92,1,139.999990463257,2|8,0:0|1:2,0:0:0:0:
356,24,166956,6,0,L|376:184,1,139.999990463257,2|8,1:2|0:0,0:0:0:0:
340,240,167903,1,8,0:0:0:0:
256,256,168219,2,0,P|224:260|168:248,2,69.9999952316285,0|8|2,1:2|0:0|1:2,0:0:0:0:
340,240,169166,2,0,P|376:232|416:236,1,69.9999952316285,0|8,0:0|0:0,0:0:0:0:
460,300,169798,2,0,L|448:148,1,139.999990463257,2|8,0:0|0:0,0:0:0:0:
388,104,170745,5,2,1:2:0:0:
312,72,171061,2,0,P|276:64|236:68,1,69.9999952316285,0|8,0:0|0:0,0:0:0:0:
164,92,171693,1,2,0:0:0:0:
108,156,172008,2,0,P|92:224|100:296,1,139.999990463257,8|2,1:2|1:2,0:0:0:0:
168,340,172956,1,0,0:0:0:0:
248,316,173272,2,0,P|288:308|324:312,1,69.9999952316285,8|2,0:0|0:0,0:0:0:0:
400,332,173903,2,0,P|434:334|468:326,1,69.9999952316285,0|8,1:2|0:0,0:0:0:0:
504,248,174535,6,0,L|500:164,1,69.9999952316285,4|0,1:2|0:0,0:0:0:0:
456,108,175166,1,8,0:0:0:0:
376,136,175482,2,0,P|344:148|296:144,2,69.9999952316285,8|0|8,0:0|1:0|0:0,0:0:0:0:
328,68,176429,2,0,P|293:67|260:79,1,69.9999952316285,4|8,1:2|0:0,0:0:0:0:
224,156,177061,1,8,1:2:0:0:
140,160,177377,2,0,P|103:116|122:27,1,139.999990463257,2|8,0:0|0:0,0:0:0:0:
180,88,178324,6,0,L|192:256,1,139.999990463257,4|8,1:2|0:0,0:0:0:0:
140,296,179272,1,8,0:0:0:0:
204,352,179587,2,0,P|248:360|284:356,1,69.9999952316285,0|8,1:2|0:0,0:0:0:0:
336,304,180219,2,0,P|376:296|420:300,1,69.9999952316285,4|0,1:2|0:0,0:0:0:0:
476,344,180850,1,8,0:0:0:0:
512,268,181166,2,0,L|500:124,1,139.999990463257,2|8,0:0|1:2,0:0:0:0:
440,72,182114,6,0,P|400:64|360:68,1,69.9999952316285,2|0,1:2|0:0,0:0:0:0:
304,116,182745,1,8,0:0:0:0:
220,104,183062,2,0,P|185:105|151:97,1,69.9999952316285,8|0,0:0|1:0,0:0:0:0:
88,44,183693,1,8,0:0:0:0:
36,112,184008,2,0,L|44:224,1,69.9999952316285,2|8,1:2|0:0,0:0:0:0:
88,252,184640,1,8,0:0:0:0:
164,220,184956,2,0,P|200:212|240:216,2,69.9999952316285,2|2|2,0:0|0:0|0:0,0:0:0:0:
88,252,185903,6,0,P|140:204|136:132,1,139.999990463257,4|8,1:2|0:0,0:0:0:0:
76,84,186850,2,0,L|228:100,1,139.999990463257,6|8,0:0|0:0,0:0:0:0:
284,148,187798,1,4,1:2:0:0:
352,100,188114,2,0,P|392:88|432:92,1,69.9999952316285,8|8,0:0|0:0,0:0:0:0:
484,144,188745,2,0,L|492:296,1,139.999990463257,8|8,0:0|0:0,0:0:0:0:
448,356,189693,6,0,P|400:368|328:308,1,139.999990463257,4|8,1:2|0:0,0:0:0:0:
408,284,190640,1,8,0:0:0:0:
340,236,190956,2,0,P|301:241|266:269,1,69.9999952316285,0|8,1:0|0:0,0:0:0:0:
244,336,191587,1,2,1:2:0:0:
164,364,191903,2,0,P|128:368|80:356,1,69.9999952316285,0|8,0:0|0:0,0:0:0:0:
44,296,192535,2,0,B|30:263|42:228|42:228|53:193|40:160,1,139.999990463257,2|8,0:0|1:2,0:0:0:0:
60,76,193482,5,2,1:2:0:0:
140,96,193798,2,0,P|180:100|220:92,1,69.9999952316285,0|8,0:0|0:0,0:0:0:0:
284,52,194429,2,0,P|318:47|353:51,1,69.9999952316285,8|0,0:0|1:2,0:0:0:0:
412,112,195061,1,8,0:0:0:0:
380,188,195377,2,0,P|376:228|384:272,2,69.9999952316285,2|0|8,1:2|0:0|0:0,0:0:0:0:
328,120,196324,2,0,P|260:104|192:124,1,139.999990463257,2|8,0:0|0:0,0:0:0:0:
132,180,197272,6,0,P|96:188|44:180,2,69.9999952316285,2|0|8,1:2|0:0|0:0,0:0:0:0:
195,123,198219,1,2,0:0:0:0:
216,204,198535,2,0,L|212:352,1,139.999990463257,8|2,0:0|1:2,0:0:0:0:
292,368,199482,1,0,0:0:0:0:
368,332,199798,2,0,P|408:320|448:320,2,69.9999952316285,8|2|0,0:0|0:0|1:0,0:0:0:0:
300,284,200745,1,8,0:0:0:0:
276,204,201061,6,0,P|264:136|312:80,1,139.999990463257,4|8,1:2|0:0,0:0:0:0:
384,60,202008,1,8,0:0:0:0:
452,108,202324,2,0,P|460:140|464:200,1,69.9999952316285,0|8,0:0|0:0,0:0:0:0:
445,259,202956,1,4,1:2:0:0:
368,294,203272,2,0,P|333:293|300:284,1,69.9999952316285,8|8,0:0|0:0,0:0:0:0:
276,204,203903,2,0,P|223:173|143:190,1,139.999990463257,2|8,0:0|0:0,0:0:0:0:
96,252,204850,6,0,L|104:340,2,69.9999952316285,4|0|8,1:2|0:0|0:0,0:0:0:0:
64,176,205798,2,0,L|70:106,2,69.9999952316285,8|0|8,0:0|1:0|0:0,0:0:0:0:
96,252,206745,1,2,1:2:0:0:
176,276,207061,2,0,L|256:280,1,69.9999952316285,0|8,0:0|0:0,0:0:0:0:
304,340,207693,2,0,P|276:280|300:204,1,139.999990463257,2|8,0:0|1:2,0:0:0:0:
365,167,208640,6,0,L|445:163,2,69.9999952316285,2|0|8,1:2|0:0|0:0,0:0:0:0:
294,211,209587,1,8,0:0:0:0:
220,168,209903,2,0,P|213:131|216:88,1,69.9999952316285,0|8,1:0|0:0,0:0:0:0:
272,36,210535,2,0,L|348:32,2,69.9999952316285,2|2|8,1:2|0:0|0:0,0:0:0:0:
215,99,211482,2,0,B|157:116|157:116|120:81|65:100,1,139.999990463257,2|8,0:0|0:0,0:0:0:0:
100,176,212429,6,0,L|108:280,1,69.9999952316285,4|0,1:2|0:0,0:0:0:0:
76,324,213061,1,8,1:2:0:0:
148,368,213377,2,0,P|208:380|284:360,1,139.999990463257,0|8,0:0|0:0,0:0:0:0:
348,308,214324,2,0,P|380:300|428:308,2,69.9999952316285,4|0|8,1:2|0:0|0:0,0:0:0:0:
272,276,215272,1,2,0:0:0:0:
224,204,215587,2,0,L|220:124,1,69.9999952316285,2|8,1:2|0:0,0:0:0:0:
147,96,216219,6,0,P|215:104|287:72,2,139.999990463257,4|8|2,1:2|0:0|1:2,0:0:0:0:
69,62,217798,1,8,0:0:0:0:
28,136,218114,2,0,L|40:280,1,139.999990463257,2|8,1:2|0:0,0:0:0:0:
100,336,219061,1,8,0:0:0:0:
184,332,219377,2,0,P|219:321|272:324,1,69.9999952316285,0|8,1:0|1:2,0:0:0:0:
336,320,220008,6,0,B|368:304|403:316|403:316|410:280|438:258,1,139.999990463257,2|8,1:2|0:0,0:0:0:0:
472,180,220956,1,8,0:0:0:0:
416,120,221272,2,0,P|376:108|336:112,1,69.9999952316285,0|8,1:0|0:0,0:0:0:0:
276,152,221903,2,0,P|208:156|156:100,2,139.999990463257,2|8|2,1:2|1:2|0:0,0:0:0:0:
239,76,223482,1,8,0:0:0:0:
324,84,223798,6,0,L|316:236,1,139.999990463257,4|8,1:2|1:2,0:0:0:0:
364,296,224745,1,0,0:0:0:0:
292,340,225061,2,0,L|216:344,1,69.9999952316285,2|8,1:2|0:0,0:0:0:0:
148,300,225693,2,0,P|84:272|16:300,2,139.999990463257,4|8|0,1:2|1:2|1:0,0:0:0:0:
222,343,227272,1,8,0:0:0:0:
296,308,227587,6,0,B|317:278|320:244|320:244|300:160,1,139.999990463257,6|8,1:2|0:0,0:0:0:0:
260,103,228535,2,0,P|295:93|336:99,2,69.9999952316285,8|0|8,0:0|1:0|0:0,0:0:0:0:
216,176,229482,2,0,P|156:208|80:188,1,139.999990463257,2|8,1:2|0:0,0:0:0:0:
32,132,230429,2,0,L|48:276,1,139.999990463257,0|8,0:0|1:2,0:0:0:0:
112,324,231377,6,0,B|152:320|180:336|180:336|212:316|256:320,1,139.999990463257,4|8,1:2|0:0,0:0:0:0:
328,344,232324,1,8,0:0:0:0:
396,296,232640,2,0,P|400:263|389:208,1,69.9999952316285,0|8,1:0|0:0,0:0:0:0:
336,168,233272,2,0,P|331:133|335:98,1,69.9999952316285,12|8,1:2|0:0,0:0:0:0:
388,32,233903,1,4,1:2:0:0:
304,20,234219,2,0,L|208:28,1,69.9999952316285,0|6,0:0|0:0,0:0:0:0:
160,64,234850,1,8,0:3:0:0:
140,144,235166,6,0,P|136:208|68:248,1,139.999990463257,4|8,1:2|0:0,0:0:0:0:
24,316,236114,1,0,0:0:0:0:
92,364,236429,2,0,P|128:368|168:364,1,69.9999952316285,2|8,1:2|1:2,0:0:0:0:
232,316,237061,2,0,P|292:284|368:312,1,139.999990463257,6|8,0:0|0:0,0:0:0:0:
432,344,238008,1,0,0:0:0:0:
496,288,238324,2,0,P|500:244|496:200,1,69.9999952316285,2|8,1:2|1:2,0:0:0:0:
424,176,238956,6,0,P|360:156|332:88,1,139.999990463257,4|8,1:2|0:0,0:0:0:0:
416,92,239903,1,8,0:0:0:0:
372,20,240219,2,0,P|336:12|280:28,1,69.9999952316285,0|8,1:0|0:0,0:0:0:0:
248,80,240850,2,0,L|236:236,1,139.999990463257,12|0,1:2|0:0,0:0:0:0:
176,280,241798,1,12,0:0:0:0:
256,304,242114,2,0,L|332:312,1,69.9999952316285,8|4,1:2|0:3,0:0:0:0:
404,284,242745,6,0,B|416:224|416:224|396:192|400:144,1,139.999990463257,4|8,1:2|0:0,0:0:0:0:
444,76,243693,1,8,0:0:0:0:
376,28,244008,2,0,P|340:24|304:28,1,69.9999952316285,0|0,1:2|0:0,0:0:0:0:
240,76,244640,2,0,P|188:116|116:104,2,139.999990463257,4|8|2,1:2|0:0|0:0,0:0:0:0:
308,27,246219,1,8,0:0:0:0:
376,80,246535,6,0,L|384:236,1,139.999990463257,4|8,1:2|1:2,0:0:0:0:
416,296,247482,1,0,0:0:0:0:
344,340,247798,2,0,P|312:344|264:336,1,69.9999952316285,6|8,1:2|0:0,0:0:0:0:
212,280,248429,2,0,L|208:136,2,139.999990463257,4|8|0,1:2|1:2|1:0,0:0:0:0:
148,336,250008,1,8,1:2:0:0:
224,372,250324,6,0,L|384:364,1,139.999990463257,6|8,1:2|0:0,0:0:0:0:
436,324,251272,2,0,P|440:280|436:244,1,69.9999952316285,8|0,0:0|1:2,0:0:0:0:
380,196,251903,1,8,0:0:0:0:
296,212,252219,2,0,P|232:224|168:180,1,139.999990463257,12|0,1:2|0:0,0:0:0:0:
144,104,253166,1,12,0:0:0:0:
204,48,253482,2,0,P|248:40|280:44,1,69.9999952316285,8|8,1:2|0:3,0:0:0:0:
344,88,254114,6,0,B|358:121|346:156|346:156|335:191|348:224,1,139.999990463257,6|8,1:2|0:0,0:0:0:0:
408,284,255061,1,8,0:0:0:0:
360,352,255377,2,0,P|324:356|284:352,1,69.9999952316285,0|8,1:0|0:0,0:0:0:0:
236,288,256008,2,0,P|168:272|92:292,2,139.999990463257,4|8|0,1:2|1:2|0:0,0:0:0:0:
291,353,257587,1,8,0:0:0:0:
372,332,257903,6,0,L|380:164,1,139.999990463257,4|8,1:2|0:0,0:0:0:0:
328,124,258850,1,8,0:0:0:0:
248,152,259166,2,0,P|204:160|160:152,1,69.9999952316285,0|8,1:0|1:2,0:0:0:0:
128,92,259798,2,0,L|140:240,1,139.999990463257,4|8,1:2|0:0,0:0:0:0:
196,292,260745,1,2,0:0:0:0:
268,252,261061,2,0,P|312:244|348:248,1,69.9999952316285,2|8,1:2|1:2,0:0:0:0:
412,280,261693,1,2,1:2:0:0:
256,192,261850,12,0,265482,0:0:0:0:
