osu file format v13

[General]
AudioFilename: Wo.mp3
AudioLeadIn: 0
PreviewTime: 19560
Countdown: 0
SampleSet: Soft
StackLeniency: 0.6
Mode: 0
LetterboxInBreaks: 0
WidescreenStoryboard: 0

[Editor]
Bookmarks: 4780,12165,19550,34319,39857,54626,60165,74934,89819,91549,98934
DistanceSpacing: 1.3
BeatDivisor: 4
GridSize: 4
TimelineZoom: 1

[Metadata]
Title:Wo Zai Na Yi Jiao Luo Huan Guo Shang Feng
TitleUnicode:我在那一角落患过伤风
Artist:Chan Kwong Wing
ArtistUnicode:陈光荣
Creator:liangv587
Version:Hard
Source:
Tags:piano 冯曦妤 feng xi yu 守护天使 chen guang rong guardian angel
BeatmapID:546374
BeatmapSetID:120204

[Difficulty]
HPDrainRate:6
CircleSize:3.5
OverallDifficulty:7
ApproachRate:7.5
SliderMultiplier:1.6
SliderTickRate:2

[Events]
//Background and Video events
0,0,"bg.jpg",0,0
//Break Periods
//Storyboard Layer 0 (Background)
//Storyboard Layer 1 (Fail)
//Storyboard Layer 2 (Pass)
//Storyboard Layer 3 (Foreground)
//Storyboard Sound Samples
//Background Colour Transformations
3,100,163,162,255

[TimingPoints]
3060,461.538461538462,4,2,1,30,1,0
4098,-133.333333333333,4,2,58,30,0,0
4329,-133.333333333333,4,2,67,30,0,0
4560,-133.333333333333,4,2,65,30,0,0
4790,-133.333333333333,4,2,67,30,0,0
5021,-133.333333333333,4,2,1,30,0,0
5252,-133.333333333333,4,2,67,30,0,0
5944,-133.333333333333,4,2,1,30,0,0
6175,-133.333333333333,4,2,67,30,0,0
6406,-133.333333333333,4,2,68,30,0,0
6636,-133.333333333333,4,2,70,30,0,0
6867,-133.333333333333,4,2,1,30,0,0
7098,-133.333333333333,4,2,70,30,0,0
7790,-133.333333333333,4,2,1,30,0,0
8021,-133.333333333333,4,2,63,30,0,0
8252,-133.333333333333,4,2,65,30,0,0
8483,-133.333333333333,4,2,67,30,0,0
8713,-133.333333333333,4,2,1,30,0,0
8944,-133.333333333333,4,2,67,30,0,0
9406,-133.333333333333,4,2,75,30,0,0
10329,-133.333333333333,4,2,74,30,0,0
10560,-133.333333333333,4,2,1,30,0,0
10790,-133.333333333333,4,2,70,30,0,0
12175,-133.333333333333,4,2,68,40,0,0
12406,-133.333333333333,4,2,63,40,0,0
12636,-133.333333333333,4,2,60,40,0,0
12867,-133.333333333333,4,2,63,40,0,0
13098,-133.333333333333,4,2,2,40,0,0
13329,-133.333333333333,4,2,63,40,0,0
13560,-133.333333333333,4,2,2,40,0,0
13790,-133.333333333333,4,2,63,40,0,0
14021,-133.333333333333,4,2,2,40,0,0
14252,-133.333333333333,4,2,63,40,0,0
14483,-133.333333333333,4,2,2,40,0,0
14713,-133.333333333333,4,2,63,40,0,0
14944,-133.333333333333,4,2,2,40,0,0
15175,-133.333333333333,4,2,1,40,0,0
15406,-133.333333333333,4,2,63,40,0,0
15866,-133.333333333333,4,2,62,40,0,0
16098,-133.333333333333,4,2,70,40,0,0
16329,-133.333333333333,4,2,65,40,0,0
16560,-133.333333333333,4,2,62,40,0,0
16790,-133.333333333333,4,2,58,40,0,0
17021,-133.333333333333,4,2,62,40,0,0
17252,-133.333333333333,4,2,58,40,0,0
17483,-133.333333333333,4,2,53,40,0,0
17713,-133.333333333333,4,2,58,40,0,0
17944,-133.333333333333,4,2,53,40,0,0
18175,-133.333333333333,4,2,50,40,0,0
18406,-133.333333333333,4,2,53,40,0,0
18636,-133.333333333333,4,2,46,40,0,0
19560,-100,4,2,55,50,0,0
21175,-100,4,2,56,50,0,0
21406,-100,4,2,58,50,0,0
22098,-100,4,2,60,50,0,0
22329,-100,4,2,58,50,0,0
22560,-133.333333333333,4,2,1,50,0,0
22790,-100,4,2,51,50,0,0
23021,-100,4,2,53,50,0,0
23252,-100,4,2,55,50,0,0
24406,-100,4,2,63,50,0,0
25098,-100,4,2,62,50,0,0
25329,-100,4,2,58,50,0,0
25790,-100,4,2,60,50,0,0
26021,-100,4,2,58,50,0,0
26483,-100,4,2,2,50,0,0
26944,-100,4,2,56,50,0,0
27175,-100,4,2,60,50,0,0
28329,-100,4,2,62,50,0,0
28560,-100,4,2,63,50,0,0
28790,-100,4,2,65,50,0,0
29021,-100,4,2,63,50,0,0
29713,-100,4,2,58,50,0,0
30175,-100,4,2,1,50,0,0
30636,-100,4,2,60,50,0,0
32021,-100,4,2,62,50,0,0
32252,-100,4,2,63,50,0,0
32483,-100,4,2,62,50,0,0
32713,-100,4,2,60,50,0,0
33175,-100,4,2,58,50,0,0
33406,-100,4,2,62,50,0,0
33636,-100,4,2,1,50,0,0
34329,-100,4,2,62,50,0,0
34560,-100,4,2,60,50,0,0
35021,-100,4,2,58,50,0,0
35252,-100,4,2,62,50,0,0
35483,-100,4,2,1,50,0,0
36175,-100,4,2,60,50,0,0
37329,-100,4,2,57,50,0,0
37790,-100,4,2,60,50,0,0
38021,-100,4,2,62,50,0,0
38483,-100,4,2,1,50,0,0
38944,-100,4,2,1,40,0,0
39406,-100,4,2,2,30,0,0
39867,-100,4,2,55,50,0,0
41483,-100,4,2,56,50,0,0
41713,-100,4,2,58,50,0,0
42406,-100,4,2,60,50,0,0
42636,-100,4,2,58,50,0,0
42867,-100,4,2,1,50,0,0
43098,-100,4,2,51,50,0,0
43329,-100,4,2,53,50,0,0
43560,-100,4,2,55,50,0,0
44713,-100,4,2,63,50,0,0
45406,-100,4,2,62,50,0,0
45636,-100,4,2,58,50,0,0
46098,-100,4,2,60,50,0,0
46329,-100,4,2,58,50,0,0
46560,-100,4,2,1,50,0,0
47252,-100,4,2,56,50,0,0
47483,-100,4,2,60,50,0,0
48636,-100,4,2,62,50,0,0
48867,-100,4,2,63,50,0,0
49098,-100,4,2,65,50,0,0
49329,-100,4,2,63,50,0,0
50021,-100,4,2,58,50,0,0
50252,-100,4,2,1,50,0,0
50944,-100,4,2,56,50,0,0
51175,-100,4,2,60,50,0,0
52329,-100,4,2,62,50,0,0
52560,-100,4,2,63,50,0,0
52790,-100,4,2,62,50,0,0
53021,-100,4,2,60,50,0,0
53483,-100,4,2,58,50,0,0
53713,-100,4,2,62,50,0,0
53944,-100,4,2,1,50,0,0
54636,-100,4,2,62,50,0,0
54867,-100,4,2,60,50,0,0
55329,-100,4,2,58,50,0,0
55560,-100,4,2,51,50,0,0
56021,-100,4,2,53,50,0,0
56483,-100,4,2,60,50,0,0
57636,-100,4,2,57,50,0,0
58098,-100,4,2,60,50,0,0
58329,-100,4,2,62,50,0,0
59483,-100,4,2,55,50,0,0
59713,-100,4,2,60,50,0,0
59944,-100,4,2,62,50,0,0
60290,-80,4,2,64,50,0,1
60406,-80,4,2,1,50,0,1
60636,-80,4,2,60,50,0,1
60867,-80,4,2,55,50,0,1
61098,-80,4,2,60,50,0,1
61329,-80,4,2,1,50,0,1
61560,-80,4,2,55,50,0,1
61790,-80,4,2,52,50,0,1
62021,-80,4,2,55,50,0,1
62483,-80,4,2,52,50,0,1
62713,-80,4,2,48,50,0,1
62944,-80,4,2,52,50,0,1
63175,-80,4,2,1,50,0,1
63867,-80,4,2,53,50,0,1
64098,-80,4,2,52,50,0,1
64329,-80,4,2,53,50,0,1
64560,-80,4,2,52,50,0,1
64790,-80,4,2,53,50,0,1
65021,-80,4,2,1,50,0,1
65252,-80,4,2,64,50,0,1
65713,-80,4,2,1,50,0,1
65944,-80,4,2,62,50,0,1
66175,-80,4,2,2,50,0,1
66636,-80,4,2,62,50,0,1
66867,-80,4,2,64,50,0,1
67213,-80,4,2,65,50,0,1
67560,-80,4,2,67,50,0,1
67790,-80,4,2,1,50,0,1
68252,-80,4,2,67,50,0,1
68483,-80,4,2,1,50,0,1
68713,-80,4,2,64,50,0,1
68944,-80,4,2,1,50,0,1
69175,-80,4,2,62,50,0,1
69406,-80,4,2,60,50,0,1
69636,-80,4,2,1,50,0,1
70329,-80,4,2,60,50,0,1
70675,-80,4,2,62,50,0,1
70906,-80,4,2,64,50,0,1
71252,-80,4,2,65,50,0,1
71483,-80,4,2,1,50,0,1
71713,-80,4,2,57,50,0,1
72175,-80,4,2,2,50,0,1
72636,-80,4,2,64,50,0,1
73098,-80,4,2,62,50,0,1
73329,-80,4,2,1,50,0,1
73790,-80,4,2,55,50,0,1
74021,-80,4,2,60,50,0,1
74483,-80,4,2,62,50,0,1
74944,-80,4,2,64,50,0,1
75406,-80,4,2,60,50,0,1
75636,-80,4,2,55,50,0,1
75867,-80,4,2,60,50,0,1
76329,-80,4,2,55,50,0,1
76560,-80,4,2,52,50,0,1
76790,-80,4,2,55,50,0,1
77252,-80,4,2,52,50,0,1
77483,-80,4,2,48,50,0,1
77713,-80,4,2,52,50,0,1
77944,-80,4,2,1,50,0,1
78636,-80,4,2,53,50,0,1
78867,-80,4,2,52,50,0,1
79098,-80,4,2,53,50,0,1
79329,-80,4,2,52,50,0,1
79560,-80,4,2,53,50,0,1
79790,-80,4,2,1,50,0,1
80021,-80,4,2,64,50,0,1
80483,-80,4,2,1,50,0,1
80713,-80,4,2,62,50,0,1
80944,-80,4,2,2,50,0,1
81406,-80,4,2,62,50,0,1
81752,-80,4,2,64,50,0,1
81983,-80,4,2,65,50,0,1
82329,-80,4,2,67,50,0,1
82560,-80,4,2,1,50,0,1
83021,-80,4,2,67,50,0,1
83252,-80,4,2,2,50,0,1
83483,-80,4,2,64,50,0,1
83713,-80,4,2,1,50,0,1
83944,-80,4,2,62,50,0,1
84175,-80,4,2,61,50,0,1
84406,-80,4,2,1,50,0,1
85098,-80,4,2,61,50,0,1
85444,-80,4,2,62,50,0,1
85675,-80,4,2,64,50,0,1
86021,-80,4,2,65,50,0,1
86252,-80,4,2,1,50,0,1
86483,-80,4,2,57,50,0,1
86713,-80,4,2,65,50,0,1
86944,-80,4,2,1,50,0,1
87175,-80,4,2,57,50,0,1
87406,-80,4,2,1,50,0,1
87867,-80,4,2,65,50,0,1
88098,-80,4,2,1,50,0,1
88329,-80,4,2,57,50,0,1
88560,-80,4,2,65,50,0,1
88790,-80,4,2,1,50,0,1
89021,-80,4,2,59,50,0,1
89252,-80,4,2,1,50,0,1
89829,-100,4,2,60,50,0,0
89944,-100,4,2,62,50,0,0
90060,-100,4,2,60,50,0,0
91560,-100,4,2,48,50,0,0
91790,-100,4,2,55,50,0,0
92021,-100,4,2,48,50,0,0
92251,-100,4,2,55,50,0,0
92482,-100,4,2,48,50,0,0
92713,-100,4,2,55,50,0,0
92944,-100,4,2,48,50,0,0
93175,-100,4,2,55,50,0,0
93405,-100,4,2,46,50,0,0
93636,-100,4,2,53,50,0,0
93867,-100,4,2,46,50,0,0
94098,-100,4,2,53,50,0,0
94328,-100,4,2,46,50,0,0
94559,-100,4,2,53,50,0,0
94790,-100,4,2,46,50,0,0
95021,-100,4,2,53,50,0,0
95251,-100,4,2,48,50,0,0
95482,-100,4,2,55,50,0,0
95713,-100,4,2,48,50,0,0
95944,-100,4,2,55,50,0,0
96175,-100,4,2,48,50,0,0
96405,-100,4,2,55,50,0,0
96636,-100,4,2,48,50,0,0
96867,-100,4,2,55,50,0,0
97098,-100,4,2,60,50,0,0
97328,-100,4,2,2,50,0,0
97559,-100,4,2,59,50,0,0
98021,-100,4,2,62,50,0,0
98944,-100,4,2,24,50,0,0
99405,-100,4,2,31,50,0,0
99867,-100,4,2,36,40,0,0
100328,-100,4,2,41,30,0,0
100790,-100,4,2,40,30,0,0
101367,-100,4,2,1,40,0,0
101828,-100,4,2,1,30,0,0
102290,-100,4,2,2,20,0,0
102752,-100,4,2,24,30,0,0

[Colours]
Combo1 : 255,128,64
Combo2 : 0,128,0
Combo3 : 55,213,217
Combo4 : 255,0,128

[HitObjects]
152,136,4213,22,0,L|88:116,2,60.0000022888184,8|8|8,0:0|0:0|0:0,0:0:0:0:
200,212,4906,6,0,P|196:268|152:320,1,120.000004577637,10|8,0:0|0:0,0:0:0:0:
292,176,5829,2,0,P|237:135|220:83,1,120.000004577637,8|8,0:0|0:0,0:0:0:0:
96,228,6521,1,8,0:0:0:0:
280,276,6752,6,0,P|331:250|402:263,1,120.000004577637,10|8,0:0|0:0,0:0:0:0:
404,56,7675,2,0,P|376:108|372:172,1,120.000004577637,8|8,0:0|0:0,0:0:0:0:
456,204,8367,1,8,0:0:0:0:
280,188,8598,6,0,P|248:192|216:216,2,60.0000022888184,10|0|8,0:0|0:0|0:0,0:0:0:0:
352,360,9521,1,8,0:0:0:0:
352,360,9983,1,8,0:0:0:0:
128,336,10444,1,10,0:0:0:0:
128,336,10675,2,0,P|108:312|96:276,1,60.0000022888184,0|8,0:0|0:0,0:0:0:0:
164,104,11367,1,8,0:0:0:0:
164,104,12290,5,10,0:0:0:0:
216,32,12521,1,8,0:0:0:0:
288,84,12752,1,8,0:0:0:0:
236,156,12983,1,8,0:0:0:0:
72,76,13213,2,0,L|60:140,1,60.0000022888184,2|8,0:0|0:0,0:0:0:0:
148,196,13675,2,0,L|168:264,1,60.0000022888184,2|8,0:0|0:0,0:0:0:0:
240,356,14136,6,0,P|268:352|304:356,1,60.0000022888184,2|8,0:0|0:0,0:0:0:0:
312,260,14598,2,0,P|341:263|376:256,1,60.0000022888184,2|8,0:0|0:0,0:0:0:0:
448,152,15060,2,0,P|388:136|332:156,1,120.000004577637,2|8,0:0|0:0,0:0:0:0:
240,356,15983,5,10,0:0:0:0:
152,340,16213,1,8,0:0:0:0:
164,252,16444,1,8,0:0:0:0:
252,268,16675,1,8,0:0:0:0:
92,288,16906,2,0,P|64:276|36:252,1,60.0000022888184,10|8,0:0|0:0,0:0:0:0:
36,104,17367,2,0,P|68:120|92:140,1,60.0000022888184,8|8,0:0|0:0,0:0:0:0:
164,252,17829,5,10,0:0:0:0:
172,52,18060,1,8,0:0:0:0:
252,136,18290,2,0,P|227:156|193:164,1,60.0000022888184,8|8,0:0|0:0,0:0:0:0:
104,160,18752,1,8,0:0:0:0:
384,236,19675,5,10,0:0:0:0:
252,136,19906,1,8,0:0:0:0:
352,8,20136,1,8,0:0:0:0:
484,104,20367,1,8,3:2:0:0:
320,188,20598,5,8,0:0:0:0:
304,72,20829,1,8,0:0:0:0:
416,56,21060,1,8,3:2:0:0:
432,172,21290,1,8,0:0:0:0:
252,136,21521,6,0,P|226:103|220:56,2,80,10|8|8,0:0|0:0|0:0,0:0:0:0:
296,228,22213,1,8,0:0:0:0:
264,328,22444,2,0,P|186:321|121:365,1,160,8|8,3:2|0:0,0:0:0:0:
352,372,23136,1,8,3:2:0:0:
440,200,23367,5,10,0:0:0:0:
336,244,23598,1,8,0:0:0:0:
284,144,23829,1,8,0:0:0:0:
388,100,24060,1,8,3:2:0:0:
408,272,24290,5,8,0:0:0:0:
464,124,24521,1,8,0:0:0:0:
312,72,24752,1,8,3:2:0:0:
260,220,24983,1,8,0:0:0:0:
284,144,25213,5,10,0:0:0:0:
336,244,25444,1,8,0:0:0:0:
236,296,25675,1,8,0:0:0:0:
184,196,25906,1,8,0:0:0:0:
260,220,26136,1,8,3:2:0:0:
272,184,26598,5,2,0:0:0:0:
284,144,27060,6,0,L|224:75,1,80,10|8,0:0|0:0,0:0:0:0:
24,112,27521,2,0,L|112:120,1,80,8|8,0:0|3:2,0:0:0:0:
156,272,27983,2,0,L|76:264,1,80,8|8,0:0|0:0,0:0:0:0:
260,220,28444,2,0,L|312:284,1,80,8|8,3:2|0:0,0:0:0:0:
432,96,28906,6,0,L|348:104,1,80,10|8,0:0|0:0,0:0:0:0:
408,244,29367,2,0,L|492:236,2,80,8|8|8,0:0|0:0|3:2,0:0:0:0:
336,200,30290,5,2,0:0:0:0:
336,200,30521,1,0,3:2:0:0:
232,84,30752,5,10,0:0:0:0:
148,160,30983,1,8,0:0:0:0:
252,200,31213,1,8,0:0:0:0:
152,84,31444,5,8,3:2:0:0:
184,228,31675,1,8,0:0:0:0:
288,136,31906,1,8,0:0:0:0:
116,164,32136,5,8,3:2:0:0:
268,224,32367,1,8,0:0:0:0:
232,16,32598,5,10,0:0:0:0:
208,140,32829,1,8,0:0:0:0:
304,56,33060,1,8,0:0:0:0:
172,68,33290,1,8,0:0:0:0:
288,136,33521,2,0,P|360:160|456:136,1,160,8|0,3:2|0:0,0:0:0:0:
268,224,34444,5,10,0:0:0:0:
248,352,34675,1,8,0:0:0:0:
176,316,34906,1,8,0:0:0:0:
300,296,35136,1,8,3:2:0:0:
188,236,35367,2,0,P|112:212|32:228,1,160,8|0,0:0|3:2,0:0:0:0:
248,132,36290,5,10,0:0:0:0:
288,12,36521,1,8,0:0:0:0:
204,12,36752,1,8,0:0:0:0:
316,88,36983,1,8,3:2:0:0:
180,88,37213,2,0,P|148:120|108:136,1,80,8|8,0:0|0:0,0:0:0:0:
0,124,37675,2,0,P|28:96|72:76,1,80,8|8,3:2|0:0,0:0:0:0:
180,88,38136,1,10,0:0:0:0:
256,192,38252,12,0,39521,0:0:0:0:
168,196,39983,5,10,0:0:0:0:
248,284,40213,1,8,0:0:0:0:
360,240,40444,1,8,0:0:0:0:
352,120,40675,1,8,3:2:0:0:
236,96,40906,5,8,0:0:0:0:
204,212,41136,1,8,0:0:0:0:
300,136,41367,1,8,3:2:0:0:
180,144,41598,1,8,0:0:0:0:
280,212,41829,5,10,0:0:0:0:
180,220,42060,1,8,0:0:0:0:
168,312,42290,1,8,0:0:0:0:
256,356,42521,1,8,0:2:0:0:
332,296,42752,2,0,P|412:292|444:224,1,160,8|8,3:2|0:0,0:0:0:0:
448,128,43444,1,8,3:2:0:0:
361,136,43675,6,0,P|355:176|360:216,1,80,10|8,0:0|0:0,0:0:0:0:
288,93,44136,2,0,P|300:55|304:16,1,80,8|8,0:0|3:2,0:0:0:0:
172,172,44598,1,8,0:0:0:0:
76,156,44829,1,8,0:0:0:0:
108,320,45060,1,8,3:2:0:0:
188,268,45290,1,8,0:0:0:0:
24,252,45521,5,10,0:0:0:0:
76,156,45752,1,8,0:0:0:0:
188,268,45983,1,8,0:0:0:0:
108,320,46213,1,8,0:2:0:0:
172,172,46444,2,0,P|153:92|76:59,1,160,8|0,3:2|3:2,0:0:0:0:
316,32,47367,5,10,0:0:0:0:
312,128,47598,1,8,0:0:0:0:
252,204,47829,1,8,0:0:0:0:
168,252,48060,1,8,3:2:0:0:
76,156,48290,5,8,0:0:0:0:
172,172,48521,1,8,0:0:0:0:
260,212,48752,1,8,3:2:0:0:
308,296,48983,1,8,0:0:0:0:
152,356,49213,6,0,L|164:272,1,80,10|8,0:0|0:0,0:0:0:0:
260,224,49675,1,8,0:0:0:0:
356,212,49906,1,8,0:0:0:0:
468,360,50136,2,0,P|432:288|460:208,1,160,8|0,3:2|0:0,0:0:0:0:
416,116,50829,1,0,3:2:0:0:
296,140,51060,5,10,0:0:0:0:
320,48,51290,1,8,0:0:0:0:
200,152,51521,1,8,0:0:0:0:
216,248,51752,1,8,3:2:0:0:
104,112,51983,5,8,0:0:0:0:
128,20,52213,1,8,0:0:0:0:
8,124,52444,1,8,3:2:0:0:
24,220,52675,1,8,0:0:0:0:
108,268,52906,5,10,0:0:0:0:
272,196,53136,1,8,0:0:0:0:
176,208,53367,1,8,0:0:0:0:
360,232,53598,1,8,0:2:0:0:
416,312,53829,2,0,P|480:268|492:184,1,160,8|0,3:2|0:2,0:0:0:0:
408,20,54752,6,0,L|400:108,1,80,10|8,0:0|0:0,0:0:0:0:
272,196,55213,2,0,L|280:108,1,80,8|8,0:0|3:2,0:0:0:0:
180,40,55675,1,8,0:0:0:0:
12,132,56136,1,8,3:2:0:0:
168,256,56598,5,10,0:0:0:0:
180,160,56829,1,8,0:0:0:0:
92,196,57060,1,8,0:0:0:0:
80,292,57290,1,8,0:0:0:0:
156,352,57521,1,8,3:2:0:0:
244,316,57752,1,8,0:0:0:0:
256,220,57983,5,8,0:0:0:0:
92,196,58213,1,8,3:2:0:0:
156,352,58444,1,10,0:0:0:0:
236,48,59598,5,8,0:0:0:0:
288,144,59829,1,8,0:0:0:0:
392,144,60060,1,8,0:0:0:0:
148,104,60290,6,0,P|100:188|100:296,1,200,12|8,0:0|3:2,0:0:0:0:
216,332,60983,1,8,0:0:0:0:
340,328,61213,2,0,P|392:236|392:140,1,200,12|8,0:0|3:2,0:0:0:0:
340,24,61906,1,8,0:2:0:0:
288,144,62136,5,10,0:0:0:0:
148,104,62367,1,8,0:0:0:0:
200,192,62598,1,8,3:2:0:0:
236,52,62829,1,8,0:0:0:0:
65,78,63060,2,0,P|16:165|16:264,1,200,14|0,0:0|3:0,0:0:0:0:
372,320,63983,6,0,P|324:344|268:344,1,100,10|8,0:0|0:0,0:0:0:0:
208,84,64444,2,0,P|252:60|308:60,1,100,8|8,3:2|0:0,0:0:0:0:
200,324,64906,2,0,P|144:244|152:144,1,200,14|8,0:0|3:2,0:0:0:0:
384,84,65598,2,0,P|440:160|428:272,1,200,14|8,0:0|0:0,0:0:0:0:
296,204,66290,1,2,3:2:0:0:
120,64,66752,5,10,0:0:0:0:
216,176,67098,5,8,0:0:0:0:
200,324,67444,5,8,3:2:0:0:
108,284,67675,6,0,P|184:224|280:264,1,200,14|0,0:0|3:2,0:0:0:0:
400,284,68367,2,0,P|380:332|344:364,2,100,12|2|8,0:0|0:0|0:0,0:0:0:0:
344,164,69060,1,0,3:2:0:0:
240,88,69290,1,8,0:0:0:0:
16,144,69521,2,0,P|92:204|184:172,1,200,14|0,0:0|3:2,0:0:0:0:
296,24,70444,5,10,0:0:0:0:
440,100,70790,5,8,0:0:0:0:
264,200,71136,5,8,3:2:0:0:
336,128,71367,6,0,P|364:224|296:296,1,200,14|8,0:0|3:2,0:0:0:0:
204,280,72060,2,0,P|152:280|104:296,1,100,8|2,0:0|0:0,0:0:0:0:
388,348,72752,1,8,3:2:0:0:
116,200,73213,2,0,P|92:104|156:32,1,200,14|2,0:0|3:2,0:0:0:0:
260,64,73906,5,8,0:0:0:0:
196,132,74136,1,10,0:0:0:0:
416,116,74598,1,8,3:2:0:0:
264,276,75060,5,12,0:0:0:0:
352,60,75521,1,8,3:2:0:0:
436,192,75752,1,8,0:0:0:0:
352,324,75983,1,12,0:0:0:0:
64,352,76444,1,8,3:2:0:0:
148,296,76675,1,8,0:0:0:0:
196,184,76906,5,10,0:0:0:0:
80,116,77136,1,8,0:0:0:0:
212,104,77367,1,8,3:2:0:0:
112,192,77598,1,8,0:0:0:0:
140,64,77829,2,0,P|226:22|293:86,1,200,12|0,0:0|3:2,0:0:0:0:
292,96,78752,5,10,0:0:0:0:
272,228,78983,1,8,0:0:0:0:
372,144,79213,1,8,3:2:0:0:
352,272,79444,1,8,0:0:0:0:
460,196,79675,2,0,B|428:340|428:340|372:364,1,200,12|8,0:0|3:2,0:0:0:0:
244,308,80367,2,0,B|116:372|116:372|56:348,1,200,12|8,0:0|0:0,0:0:0:0:
186,201,81060,1,0,3:2:0:0:
380,360,81521,5,10,0:0:0:0:
272,228,81867,5,8,0:0:0:0:
88,132,82213,5,8,3:2:0:0:
12,224,82444,6,0,P|109:252|188:196,1,200,12|0,0:0|3:2,0:0:0:0:
120,39,83136,2,0,P|94:82|88:132,1,100,12|2,0:0|0:0,0:0:0:0:
208,124,83598,2,0,P|256:128|316:108,1,100,8|0,0:0|3:2,0:0:0:0:
244,8,84060,1,8,0:0:0:0:
184,200,84290,2,0,P|280:204|384:160,1,200,12|0,0:0|3:0,0:0:0:0:
388,152,85213,5,10,0:0:0:0:
208,124,85560,5,8,0:0:0:0:
276,292,85906,5,8,3:2:0:0:
464,64,86136,6,0,P|367:36|288:92,1,200,12|0,0:0|3:2,0:0:0:0:
316,204,86829,2,0,P|372:284|328:372,1,200,12|8,0:0|0:0,0:0:0:0:
212,372,87521,1,0,3:2:0:0:
212,372,87983,6,0,P|156:292|196:208,1,200,12|0,0:0|3:2,0:0:0:0:
204,88,88675,2,0,P|112:60|24:120,1,200,12|8,0:0|0:0,0:0:0:0:
20,232,89367,1,0,3:2:0:0:
256,160,89829,5,10,0:0:0:0:
264,176,89944,1,8,0:0:0:0:
272,192,90060,1,8,0:0:0:0:
392,72,91675,6,0,L|376:160,1,80,10|8,0:0|0:0,0:0:0:0:
288,264,92136,2,0,L|272:168,1,80,8|8,0:0|0:0,0:0:0:0:
196,52,92598,2,0,L|180:144,1,80,8|8,0:0|0:0,0:0:0:0:
92,244,93060,2,0,L|76:144,1,80,8|8,0:0|0:0,0:0:0:0:
192,248,93521,6,0,P|184:288|152:324,1,80,10|8,0:0|0:0,0:0:0:0:
288,264,93983,2,0,P|328:272|364:304,1,80,8|8,0:0|0:0,0:0:0:0:
304,164,94444,2,0,P|312:124|344:88,1,80,8|8,0:0|0:0,0:0:0:0:
208,152,94906,2,0,P|168:144|132:112,1,80,8|8,0:0|0:0,0:0:0:0:
324,16,95367,6,0,L|416:36,1,80,10|8,0:0|0:0,0:0:0:0:
392,164,95829,2,0,L|472:180,1,80,8|8,0:0|0:0,0:0:0:0:
272,320,96290,2,0,L|260:240,1,80,8|8,0:0|0:0,0:0:0:0:
124,288,96752,2,0,L|112:208,1,80,8|8,0:0|0:0,0:0:0:0:
188,32,97213,6,0,B|188:56|180:72|180:72|192:80|192:80|172:120|188:184,1,160,10|8,0:0|0:0,0:0:0:0:
200,260,98136,1,8,0:0:0:0:
400,144,99060,5,10,0:0:0:0:
112,144,99521,1,8,0:0:0:0:
344,316,99983,1,8,0:0:0:0:
256,40,100444,1,8,0:0:0:0:
168,316,100906,1,10,0:0:0:0:
256,192,101136,12,8,102752,0:0:0:0:
