osu file format v7

[General]
AudioFilename: Champion-No_Heaven.mp3
AudioLeadIn: 0
PreviewTime: 25500
Countdown: 1
SampleSet: Soft
StackLeniency: 0.7
Mode: 0
LetterboxInBreaks: 1

[Editor]
DistanceSpacing: 0.699999988079071
BeatDivisor: 2
GridSize: 8

[Metadata]
Title:No Heaven
Artist:Champion
Creator:Mitten
Version:Easy
Source:Borderlands
Tags:

[Difficulty]
HPDrainRate:3
CircleSize:3
OverallDifficulty:3
SliderMultiplier:1.4
SliderTickRate:2

[Events]
//Background and Video events
0,0,"borderlandswallpaperbyfb.jpg"
//Break Periods
//Storyboard Layer 0 (Background)
//Storyboard Layer 1 (Fail)
//Storyboard Layer 2 (Pass)
//Storyboard Layer 3 (Foreground)
//Storyboard Sound Samples
//Background Colour Transformations
3,100,163,162,255

[TimingPoints]
5000,500,4,2,0,40,1,0

[Colours]
Combo1 : 128,64,64
Combo2 : 255,128,64
Combo3 : 255,0,0

[HitObjects]
160,272,5000,1,0
160,80,6000,1,2
352,80,7000,1,0
352,272,8000,1,2
208,136,9000,6,0,B|192:152|192:176|208:192|192:208|192:232|208:248|192:264|192:288|200:288,1,140,0|8
296,272,10000,1,0
296,80,11000,1,2
104,80,12000,1,0
104,272,13000,2,0,B|256:272,1,140,0|8
240,176,14000,6,0,B|88:176,1,140,0|8
104,80,15000,2,0,B|272:80,1,140,0|8
344,80,16000,2,0,B|344:256,1,140,0|8
344,320,17000,2,0,B|168:320,1,140,0|8
208,224,18000,1,0
400,224,19000,5,0
208,224,20000,1,2
208,32,21000,1,0
208,128,21500,1,2
208,224,22000,1,0
104,224,22500,2,0,B|88:64|192:96|144:0|24:104,2,280,0|8|8
200,224,25000,5,0
392,224,26000,1,2
200,224,27000,1,0
200,32,28000,1,2
392,32,29000,1,0
392,224,30000,5,2
200,224,31000,1,0
392,224,32000,1,2
296,224,32500,1,0
296,128,33000,2,0,B|120:128,1,140,0|8
208,216,34000,6,0,B|136:216,2,70,0|8|8
136,216,35000,2,0,B|64:216,2,70,0|8|8
232,216,36000,6,0,B|288:160|248:80|144:88|64:136,1,280
72,232,37500,1,0
72,328,38000,1,2
168,328,38500,1,0
264,328,39000,1,2
264,136,40000,5,0
456,136,41000,1,2
264,136,42000,1,0
72,136,43000,1,2
72,328,44000,1,0
264,328,45000,6,0,B|264:296|296:256|232:216|344:264,2,140,0|8|8
360,328,46500,1,0
456,328,47000,1,2
456,136,48000,5,0
264,136,49000,1,2
264,336,50000,2,0,B|120:336,1,140,0|8
120,240,51000,2,0,B|264:240,1,140,0|8
256,144,52000,2,0,B|112:144,1,140,0|8
16,144,53000,5,0
16,240,53500,1,2
112,240,54000,1,0
304,240,55000,1,2
304,48,56000,1,0
112,48,57000,5,2
112,144,57500,2,0,B|112:296|112:288,2,140,0|8|8
208,144,59000,1,2
400,144,60000,1,0
400,328,61000,5,2
208,328,62000,1,0
208,232,62500,1,2
208,136,63000,1,0
304,136,63500,6,0,B|448:136,1,140,0|8
448,232,64500,2,0,B|296:232,1,140,0|8
312,328,65500,2,0,B|472:328,1,140,0|8
312,192,67000,1,0
120,192,68000,5,2
312,192,69000,1,4
