osu file format v13

[General]
AudioFilename: Ceui - Truth Of My Destiny.mp3
AudioLeadIn: 1985
PreviewTime: 65921
Countdown: 0
SampleSet: Soft
StackLeniency: 0.4
Mode: 0
LetterboxInBreaks: 0
WidescreenStoryboard: 0

[Editor]
DistanceSpacing: 1.2
BeatDivisor: 4
GridSize: 32
TimelineZoom: 2.199998

[Metadata]
Title:Truth Of My Destiny
TitleUnicode:Truth Of My Destiny
Artist:Ceui
ArtistUnicode:Ceui
Creator:Pururut
Version:Hard
Source:伝説の勇者の伝説
Tags:Labyrinthus Narcissu The Legend of the Legendary ending Kotaro Odaka
BeatmapID:458474
BeatmapSetID:137513

[Difficulty]
HPDrainRate:5
CircleSize:4
OverallDifficulty:6
ApproachRate:7
SliderMultiplier:1.5
SliderTickRate:1

[Events]
//Background and Video events
0,0,"bg.jpg",0,0
//Break Periods
2,207312,218468
//Storyboard Layer 0 (Background)
//Storyboard Layer 1 (Fail)
//Storyboard Layer 2 (Pass)
//Storyboard Layer 3 (Foreground)
//Storyboard Sound Samples

[TimingPoints]
815,510.63829787234,4,2,0,70,1,0
2602,-100,4,2,0,50,0,0
3878,-100,4,2,0,60,0,0
4900,-100,4,2,0,70,0,0
5921,-100,4,2,0,80,0,0
6432,-100,4,2,1,90,0,0
9751,-100,4,2,1,50,0,0
10006,-100,4,2,1,80,0,0
15112,-100,4,2,1,30,0,0
15368,-100,4,2,1,30,0,0
19708,-100,4,2,1,40,0,0
22261,-100,4,2,1,70,0,0
22517,-133.333333333333,4,2,1,60,0,0
23283,-133.333333333333,4,2,1,40,0,0
23410,-133.333333333333,4,2,1,60,0,0
27368,-133.333333333333,4,2,1,40,0,0
27623,-133.333333333333,4,2,1,60,0,0
31453,-133.333333333333,4,2,1,40,0,0
39623,-100,4,2,1,31,0,0
39878,-100,4,2,1,60,0,0
55963,-100,4,2,1,30,0,0
56219,-100,4,2,1,60,0,0
63112,-100,4,2,1,35,0,0
65155,-100,4,2,1,72,0,0
66176,-83.3333333333333,4,2,2,80,0,1
80474,-83.3333333333333,4,2,2,60,0,1
81495,-83.3333333333333,4,2,2,80,0,1
82389,-83.3333333333333,4,2,1,80,0,0
82517,-83.3333333333333,4,2,2,80,0,1
95793,-83.3333333333333,4,2,2,50,0,1
98857,-133.333333333333,4,2,1,50,0,0
100900,-133.333333333333,4,1,0,40,0,0
101921,-133.333333333333,4,2,1,50,0,0
104985,-133.333333333333,4,1,0,40,0,0
105240,-133.333333333333,4,2,1,50,0,0
111112,-133.333333333333,4,2,1,40,0,0
114432,-100,4,2,1,40,0,0
131538,-100,4,2,1,50,0,0
132049,-100,4,2,1,60,0,0
147878,-100,4,2,1,70,0,0
158091,-83.3333333333333,4,2,2,80,0,1
161921,-83.3333333333333,4,2,2,70,0,1
172389,-100,4,2,2,70,0,1
172900,-83.3333333333333,4,2,2,70,0,1
174304,-83.3333333333333,4,2,2,80,0,0
174432,-83.3333333333333,4,2,2,80,0,1
190772,-100,4,2,1,50,0,0
198942,-100,4,2,1,20,0,0
199453,-100,4,2,1,50,0,0
200985,-100,4,2,1,40,0,0
201495,-100,4,2,1,50,0,0
203027,-100,4,2,1,30,0,0
203538,-100,4,2,1,50,0,0
203793,-100,4,2,1,40,0,0
204049,-100,4,2,1,50,0,0
219368,-100,4,2,1,30,0,0
225495,-100,4,2,1,80,0,1
225623,-133.333333333333,4,2,1,80,0,0
240814,-83.3333333333333,4,2,1,40,0,0
241325,-66.6666666666667,4,2,1,40,0,0
241836,-83.3333333333333,4,2,2,80,0,1
256134,-83.3333333333333,4,2,2,80,0,1
258176,-100,4,2,1,80,0,0
261240,-133.333333333333,4,2,1,80,0,0
262772,-133.333333333333,4,2,0,80,0,0
266346,-100,4,2,1,50,0,0
266474,-100,4,2,1,80,0,0
270942,-100,4,2,1,70,0,0
271453,-100,4,2,1,60,0,0
271963,-100,4,2,1,50,0,0
272474,-100,4,2,1,40,0,0
272985,-100,4,2,1,30,0,0
273495,-100,4,2,1,20,0,0
274006,-100,4,2,1,10,0,0
274517,-100,4,2,1,5,0,0

[Colours]
Combo1 : 255,163,70
Combo2 : 255,128,192
Combo3 : 89,172,255
Combo4 : 91,255,91

[HitObjects]
256,192,2602,12,0,5921,0:0:0:0:
122,176,6432,6,0,L|111:236,3,37.5,2|0|0|0,0:0|0:0|0:0|0:0,0:0:0:0:
107,253,6942,2,0,P|189:222|204:166,1,150,10|0,0:0|0:0,0:0:0:0:
264,111,7708,1,0,0:0:0:0:
264,111,7836,1,0,0:0:0:0:
264,111,7963,2,0,L|344:112,1,75,2|0,0:0|0:0,0:0:0:0:
408,66,8474,1,0,0:0:0:0:
478,108,8729,1,0,0:0:0:0:
465,191,8985,6,0,P|430:220|389:226,1,75,2|0,0:0|0:0,0:0:0:0:
339,279,9495,2,0,P|321:239|325:202,1,75,0|2,0:0|0:0,0:0:0:0:
361,135,10006,2,0,P|425:158|481:140,2,112.5,0|0|0,0:0|0:0|0:0,0:0:0:0:
278,140,11027,2,0,P|293:84|382:55,1,150,10|0,0:0|0:0,0:0:0:0:
361,134,11793,1,0,0:0:0:0:
361,134,11921,1,0,0:0:0:0:
361,134,12049,2,0,L|377:285,1,150,2|0,0:0|0:0,0:0:0:0:
444,330,12814,1,0,0:0:0:0:
444,330,12942,1,0,0:0:0:0:
444,330,13070,6,0,P|368:362|296:304,1,150,2|0,0:0|0:0,0:0:0:0:
239,323,13836,1,2,0:0:0:0:
198,330,13964,1,0,0:0:0:0:
163,308,14091,2,0,L|119:291,3,37.5,2|0|2|0,0:0|0:0|0:0|0:0,0:0:0:0:
94,318,14602,2,0,L|49:331,3,37.5,2|0|2|0,0:0|0:0|0:0|0:0,0:0:0:0:
17,331,15112,6,0,P|-18:269|7:213,1,112.5,14|0,3:2|0:0,0:0:0:0:
26,209,15623,2,0,L|46:113,1,75,8|0,3:0|0:0,0:0:0:0:
121,115,16134,2,0,L|98:235,2,112.5,8|0|0,3:0|0:0|0:0,0:0:0:0:
162,43,17155,2,0,P|204:92|193:164,1,112.5,8|0,3:0|0:0,0:0:0:0:
188,175,17666,2,0,L|291:159,1,75,8|0,3:0|0:0,0:0:0:0:
338,194,18176,2,0,P|381:135|374:87,2,112.5,8|0|0,3:0|0:0|0:0,0:0:0:0:
299,120,19197,5,4,0:0:0:0:
256,192,19708,12,0,22517,0:0:0:0:
422,97,23283,5,6,0:0:0:0:
422,97,23793,2,0,L|433:158,1,56.2500021457673,0|2,0:0|0:0,0:0:0:0:
363,255,24559,1,0,0:0:0:0:
363,255,24814,1,0,0:0:0:0:
363,255,25070,2,0,P|305:273|244:255,1,112.500004291535,0|0,0:0|0:0,0:0:0:0:
137,226,26091,2,0,L|10:240,2,112.500004291535,2|0|0,0:0|0:0|0:0,0:0:0:0:
137,226,27368,5,6,0:0:0:0:
221,135,27878,2,0,L|213:54,1,56.2500021457673,0|2,0:0|0:0,0:0:0:0:
332,118,28644,1,0,0:0:0:0:
332,118,28900,1,0,0:0:0:0:
332,118,29155,2,0,P|333:175|282:234,1,112.500004291535,0|0,0:0|0:0,0:0:0:0:
199,287,30176,2,0,L|85:273,1,112.500004291535,2|0,0:0|0:0,0:0:0:0:
191,206,31197,1,2,0:0:0:0:
191,206,31453,6,0,P|250:217|282:256,1,112.500004291535,6|0,0:0|0:0,0:0:0:0:
380,333,32219,2,0,P|430:322|477:264,1,112.500004291535,2|0,0:0|0:0,0:0:0:0:
368,205,33495,6,0,L|387:87,1,112.500004291535,2|0,0:0|0:0,0:0:0:0:
316,47,34261,1,0,0:0:0:0:
316,47,34517,2,0,L|303:123,1,56.2500021457673,2|0,0:0|0:0,0:0:0:0:
273,167,35027,2,0,P|244:142|237:121,1,56.2500021457673,0|0,0:0|0:0,0:0:0:0:
174,88,35538,2,0,L|54:101,1,112.500004291535,6|0,0:0|0:0,0:0:0:0:
256,192,36304,12,0,38602,0:0:0:0:
413,188,39623,6,0,P|408:252|331:302,1,150,6|0,3:2|3:0,0:0:0:0:
271,259,40389,1,0,0:0:0:0:
208,312,40644,2,0,L|119:324,1,75,0|0,3:0|0:0,0:0:0:0:
121,240,41155,2,0,L|202:229,1,75,0|0,3:0|0:0,0:0:0:0:
271,259,41666,2,0,P|290:202|249:122,1,150,2|0,3:2|3:0,0:0:0:0:
173,100,42432,2,0,L|86:106,2,75,0|0|0,0:0|3:0|0:0,0:0:0:0:
253,125,43197,2,0,L|341:121,1,75,0|0,3:0|0:0,0:0:0:0:
381,182,43708,6,0,P|410:120|354:42,2,150,2|0|0,3:2|3:0|3:0,0:0:0:0:
322,240,44985,2,0,L|231:235,1,75,0|0,0:0|3:0,0:0:0:0:
217,312,45495,2,0,L|297:318,1,75,0|2,0:0|3:2,0:0:0:0:
374,315,46006,2,0,P|399:284|406:236,1,75,0|0,0:0|3:0,0:0:0:0:
321,240,46517,2,0,L|316:152,1,75,0|0,0:0|3:0,0:0:0:0:
253,113,47027,2,0,P|188:144|107:128,1,150,0|0,0:0|0:0,0:0:0:0:
128,50,47793,5,2,3:2:0:0:
211,39,48049,1,0,0:0:0:0:
253,113,48304,2,0,P|320:132|405:97,1,150,0|0,3:0|3:0,0:0:0:0:
433,34,49070,1,0,0:0:0:0:
394,106,49325,2,0,L|387:204,1,75,0|0,3:0|0:0,0:0:0:0:
455,232,49836,6,0,P|397:278|307:266,1,150,2|0,3:2|3:0,0:0:0:0:
265,217,50602,1,0,0:0:0:0:
186,190,50857,2,0,L|97:184,1,75,0|0,3:0|0:0,0:0:0:0:
48,238,51368,2,0,P|109:266|142:250,1,75,0|0,3:0|0:0,0:0:0:0:
195,269,51878,6,0,P|249:247|262:146,1,150,2|0,3:2|3:0,0:0:0:0:
426,109,52900,2,0,L|387:265,1,150,0|0,3:0|3:0,0:0:0:0:
323,205,53666,1,0,0:0:0:0:
270,268,53921,2,0,P|225:275|176:257,1,75,2|0,3:2|0:0,0:0:0:0:
77,51,54942,6,0,L|61:115,1,37.5,2|0,0:0|0:0,0:0:0:0:
102,109,55197,2,0,L|103:148,1,37.5,2|0,0:0|0:0,0:0:0:0:
144,151,55453,2,0,L|157:203,1,37.5,2|0,0:0|0:0,0:0:0:0:
193,177,55708,2,0,L|218:219,1,37.5,2|0,0:0|0:0,0:0:0:0:
243,182,55963,6,0,P|285:194|336:183,1,75,6|0,3:2|0:0,0:0:0:0:
363,123,56474,1,0,3:0:0:0:
404,194,56729,2,0,P|444:161|450:118,1,75,0|0,0:0|3:0,0:0:0:0:
424,61,57240,1,0,0:0:0:0:
363,123,57495,2,0,L|280:116,1,75,0|0,3:0|0:0,0:0:0:0:
218,72,58006,6,0,P|143:99|60:93,1,150,0|0,3:0|3:0,0:0:0:0:
27,165,58772,2,0,P|67:220|60:323,1,150,0|0,0:0|0:0,0:0:0:0:
126,360,59538,1,0,3:0:0:0:
187,305,59793,1,0,0:0:0:0:
264,333,60049,6,0,P|320:323|370:256,1,112.5,4|0,3:2|0:0,0:0:0:0:
383,252,60559,2,0,L|486:249,1,75,0|0,3:0|0:0,0:0:0:0:
478,169,61070,2,0,L|385:169,1,75,0|0,3:0|0:0,0:0:0:0:
360,98,61580,1,0,3:0:0:0:
360,98,61836,1,4,3:2:0:0:
360,98,62602,5,0,3:0:0:0:
200,56,63112,1,0,3:0:0:0:
98,185,63623,1,0,3:0:0:0:
190,321,64134,1,0,3:0:0:0:
357,280,64644,1,0,0:0:0:0:
357,280,65155,6,0,L|330:315,1,37.5,2|0,0:0|0:0,0:0:0:0:
298,289,65410,2,0,L|262:305,1,37.5,2|0,0:0|0:0,0:0:0:0:
239,270,65666,2,0,L|190:272,1,37.5,2|0,0:0|0:0,0:0:0:0:
187,232,65921,2,0,L|148:222,1,37.5,2|0,0:0|0:0,0:0:0:0:
172,178,66176,6,0,L|183:76,1,89.9999972534181,6|0,0:0|0:0,0:0:0:0:
260,27,66687,1,10,0:0:0:0:
260,27,66942,1,0,0:0:0:0:
318,106,67197,2,0,P|392:114|426:97,1,89.9999972534181,6|0,0:0|0:0,0:0:0:0:
497,73,67708,2,0,L|477:178,1,89.9999972534181,10|0,0:0|0:0,0:0:0:0:
417,238,68219,6,0,L|431:347,1,89.9999972534181,6|0,0:0|0:0,0:0:0:0:
333,298,68729,1,10,0:0:0:0:
240,335,68985,1,0,0:0:0:0:
146,302,69240,2,0,P|119:236|163:162,1,134.999995880127,6|0,0:0|0:0,0:0:0:0:
189,167,69751,2,0,L|202:73,1,89.9999972534181,10|0,0:0|0:0,0:0:0:0:
239,46,70134,1,0,0:0:0:0:
239,46,70261,6,0,P|293:56|337:47,1,89.9999972534181,6|2,0:0|0:0,0:0:0:0:
413,98,70772,2,0,P|376:140|318:145,1,89.9999972534181,10|0,0:0|0:0,0:0:0:0:
246,134,71283,1,6,0:0:0:0:
228,231,71538,1,2,0:0:0:0:
325,246,71793,1,8,0:0:0:0:
368,335,72049,1,0,0:0:0:0:
259,319,72304,6,0,P|166:309|136:233,1,179.999994506836,6|10,0:0|0:0,0:0:0:0:
90,148,73070,1,2,0:0:0:0:
90,148,73197,1,2,0:0:0:0:
90,148,73325,2,0,L|-13:139,1,89.9999972534181,6|0,0:0|0:0,0:0:0:0:
148,75,73836,1,10,0:0:0:0:
211,187,74091,1,0,0:0:0:0:
211,187,74346,6,0,P|285:175|325:113,1,134.999995880127,6|0,0:0|0:0,0:0:0:0:
351,90,74857,1,10,0:0:0:0:
388,181,75112,1,0,0:0:0:0:
388,181,75240,1,0,0:0:0:0:
388,181,75368,2,0,L|374:287,1,89.9999972534181,6|0,0:0|0:0,0:0:0:0:
316,348,75878,2,0,P|262:340|231:309,1,89.9999972534181,10|0,0:0|0:0,0:0:0:0:
159,255,76389,6,0,L|31:270,2,89.9999972534181,6|2|10,0:0|0:0|0:0,0:0:0:0:
252,222,77155,1,0,0:0:0:0:
252,222,77283,1,0,0:0:0:0:
252,222,77410,2,0,P|262:167|245:115,1,89.9999972534181,6|0,0:0|0:0,0:0:0:0:
177,71,77921,2,0,L|78:78,1,89.9999972534181,10|0,0:0|0:0,0:0:0:0:
56,168,78432,2,0,L|168:160,2,89.9999972534181,6|2|10,0:0|0:0|0:0,0:0:0:0:
110,250,79197,1,0,0:0:0:0:
208,239,79453,2,0,P|242:184|221:129,1,89.9999972534181,6|0,0:0|0:0,0:0:0:0:
311,93,79963,2,0,L|406:88,1,89.9999972534181,10|2,0:0|0:0,0:0:0:0:
497,65,80474,6,0,P|481:150|387:186,1,179.999994506836,6|10,0:0|0:0,0:0:0:0:
401,89,81240,1,10,0:0:0:0:
302,71,81495,2,0,L|246:107,3,44.999998626709,4|0|2|0,0:0|0:0|0:0|0:0,0:0:0:0:
214,104,82006,2,0,L|156:89,3,44.999998626709,14|0|10|0,0:0|0:0|0:0|0:0,0:0:0:0:
123,74,82517,6,0,P|146:188|124:220,1,134.999995880127,6|0,0:0|0:0,0:0:0:0:
107,234,83027,2,0,L|-3:227,1,89.9999972534181,10|0,0:0|0:0,0:0:0:0:
76,148,83538,1,6,0:0:0:0:
76,148,83793,1,2,0:0:0:0:
162,301,84049,2,0,L|266:293,1,89.9999972534181,10|0,0:0|0:0,0:0:0:0:
338,341,84559,6,0,P|364:273|342:215,1,134.999995880127,6|0,0:0|0:0,0:0:0:0:
302,188,85070,1,10,0:0:0:0:
350,102,85325,1,0,0:0:0:0:
416,175,85580,2,0,P|459:181|504:150,1,89.9999972534181,6|2,0:0|0:0,0:0:0:0:
350,102,86091,1,10,0:0:0:0:
204,198,86346,1,0,0:0:0:0:
204,198,86474,1,0,0:0:0:0:
204,198,86602,6,0,P|117:193|94:178,1,89.9999972534181,6|0,0:0|0:0,0:0:0:0:
62,109,87112,1,10,0:0:0:0:
62,109,87368,1,0,0:0:0:0:
127,33,87623,2,0,P|154:68|160:113,1,89.9999972534181,6|0,0:0|0:0,0:0:0:0:
103,194,88134,2,0,L|116:306,1,89.9999972534181,10|0,0:0|0:0,0:0:0:0:
148,375,88644,6,0,P|202:325|201:285,1,89.9999972534181,6|2,0:0|0:0,0:0:0:0:
273,242,89155,2,0,L|379:243,1,89.9999972534181,10|2,0:0|0:0,0:0:0:0:
457,212,89666,1,6,0:0:0:0:
427,117,89921,1,0,0:0:0:0:
332,147,90176,1,10,0:0:0:0:
238,114,90432,1,0,0:0:0:0:
153,166,90687,6,0,P|108:157|68:108,1,89.9999972534181,6|0,0:0|0:0,0:0:0:0:
152,63,91197,1,10,0:0:0:0:
152,63,91453,1,0,0:0:0:0:
238,114,91708,2,0,L|350:114,1,89.9999972534181,6|2,0:0|0:0,0:0:0:0:
416,158,92219,2,0,P|371:200|312:198,1,89.9999972534181,10|0,0:0|0:0,0:0:0:0:
245,204,92729,6,0,P|261:259|291:287,1,89.9999972534181,6|0,0:0|0:0,0:0:0:0:
333,367,93240,2,0,L|223:363,1,89.9999972534181,10|0,0:0|0:0,0:0:0:0:
158,312,93751,1,6,0:0:0:0:
62,335,94006,1,0,0:0:0:0:
32,240,94261,1,10,0:0:0:0:
128,215,94517,1,0,0:0:0:0:
158,312,94772,6,0,P|225:266|229:192,1,134.999995880127,6|0,0:0|0:0,0:0:0:0:
259,173,95283,2,0,L|353:161,1,89.9999972534181,10|0,0:0|0:0,0:0:0:0:
383,69,95793,2,0,L|262:85,1,89.9999972534181,0|0,3:0|0:0,0:0:0:0:
196,100,96304,2,0,L|92:80,1,89.9999972534181,0|0,3:0|0:0,0:0:0:0:
256,192,96814,12,0,98857,0:0:0:0:
256,192,100900,5,0,0:0:0:0:
256,192,101921,2,0,P|209:220|136:209,1,112.500004291535,2|0,0:0|0:0,0:0:0:0:
324,271,102942,2,0,L|453:277,2,112.500004291535,2|0|0,0:0|0:0|0:0,0:0:0:0:
258,193,104474,1,0,0:0:0:0:
257,30,104985,5,0,0:0:0:0:
257,108,106006,2,0,P|193:135|141:132,1,112.500004291535,2|0,0:0|0:0,0:0:0:0:
104,52,106900,1,0,0:0:0:0:
104,52,107027,6,0,P|59:135|68:166,1,112.500004291535,2|0,0:0|0:0,0:0:0:0:
92,267,108049,2,0,P|130:286|187:282,2,84.3750032186509,0|0|0,0:0|0:0|0:0,0:0:0:0:
208,151,109070,2,0,P|172:174|147:225,2,84.3750032186509,0|0|0,0:0|0:0|0:0,0:0:0:0:
251,311,110091,2,0,P|248:268|216:221,2,84.3750032186509,0|0|0,0:0|0:0|0:0,0:0:0:0:
251,311,111112,5,0,0:0:0:0:
447,203,112134,2,0,L|429:304,2,84.3750032186509,0|0|0,0:0|0:0|0:0,0:0:0:0:
448,204,113155,1,0,0:0:0:0:
223,97,114432,5,0,0:0:0:0:
147,130,114687,1,0,0:0:0:0:
85,74,114942,1,0,0:0:0:0:
85,74,115197,1,6,3:2:0:0:
30,229,115708,2,0,L|39:318,1,75,0|2,3:0|0:0,0:0:0:0:
108,345,116219,2,0,B|152:327|152:327|265:337,1,150,0|0,3:0|3:0,0:0:0:0:
332,361,116985,1,0,0:0:0:0:
396,309,117240,6,0,L|433:212,1,75,2|0,3:2|0:0,0:0:0:0:
399,159,117751,1,0,3:0:0:0:
338,214,118006,1,2,0:0:0:0:
263,179,118261,1,0,3:0:0:0:
184,205,118517,2,0,P|130:205|67:137,1,150,0|0,0:0|0:0,0:0:0:0:
157,53,119283,6,0,L|149:128,1,75,6|0,3:2|0:0,0:0:0:0:
183,204,119793,1,0,3:0:0:0:
183,204,120049,2,0,L|187:296,1,75,2|0,0:0|0:0,0:0:0:0:
266,258,120559,1,0,0:0:0:0:
322,318,120814,2,0,P|379:315|439:255,1,112.5,0|0,3:0|0:0,0:0:0:0:
457,259,121325,6,0,L|449:174,1,75,2|0,3:2|0:0,0:0:0:0:
367,181,121836,2,0,L|379:80,1,75,0|2,3:0|0:0,0:0:0:0:
284,219,122346,2,0,P|232:221|198:206,1,75,0|0,3:0|0:0,0:0:0:0:
173,139,122857,1,0,0:0:0:0:
173,139,123112,1,0,0:0:0:0:
146,271,123368,6,0,L|150:370,1,75,6|0,3:2|0:0,0:0:0:0:
67,334,123878,2,0,L|64:247,1,75,0|0,3:0|0:0,0:0:0:0:
225,359,124389,2,0,P|284:379|338:358,1,112.5,0|0,3:0|0:0,0:0:0:0:
366,344,124900,2,0,L|454:353,1,75,0|0,3:0|0:0,0:0:0:0:
472,275,125410,6,0,L|375:266,1,75,0|0,3:0|0:0,0:0:0:0:
366,191,125921,1,0,3:0:0:0:
295,233,126176,1,0,0:0:0:0:
212,237,126432,2,0,P|156:238|105:202,1,112.5,0|0,3:0|0:0,0:0:0:0:
84,175,126942,2,0,L|-9:184,1,75,0|0,3:2|0:0,0:0:0:0:
193,121,127453,6,0,P|262:115|303:76,1,112.5,0|0,3:0|0:0,0:0:0:0:
331,66,127963,2,0,L|432:76,1,75,0|0,3:0|0:0,0:0:0:0:
449,143,128474,2,0,L|365:153,1,75,0|0,3:0|0:0,0:0:0:0:
329,221,128985,2,0,L|409:234,1,75,0|0,3:0|0:0,0:0:0:0:
479,263,129495,6,0,P|435:304|330:286,1,150,0|0,3:0|0:0,0:0:0:0:
263,282,130261,1,0,0:0:0:0:
19,327,130772,1,0,0:0:0:0:
19,327,131027,1,0,0:0:0:0:
19,327,131283,1,0,0:0:0:0:
19,327,131538,6,0,L|2:231,1,75,6|0,3:2|0:0,0:0:0:0:
78,212,132049,1,0,3:0:0:0:
78,212,132304,1,2,0:0:0:0:
79,211,132559,2,0,P|142:224|175:212,1,75,0|0,3:0|0:0,0:0:0:0:
218,173,133070,2,0,L|322:174,1,75,0|0,3:0|0:0,0:0:0:0:
426,116,133580,6,0,B|412:154|412:154|423:205,1,75,2|0,3:2|0:0,0:0:0:0:
441,258,134091,2,0,L|419:336,1,75,0|2,3:0|0:0,0:0:0:0:
347,290,134602,1,0,3:0:0:0:
275,331,134857,1,0,0:0:0:0:
196,305,135112,1,0,3:0:0:0:
121,339,135368,1,0,0:0:0:0:
39,328,135623,6,0,P|13:266|35:198,1,112.5,2|0,3:2|0:0,0:0:0:0:
55,200,136134,2,0,L|61:117,1,75,0|2,3:0|0:0,0:0:0:0:
130,82,136644,1,0,3:0:0:0:
183,144,136900,2,0,P|235:140|274:115,1,75,0|0,0:0|3:0,0:0:0:0:
331,161,137410,2,0,P|343:96|335:62,1,75,0|0,0:0|3:0,0:0:0:0:
454,184,137921,6,0,L|473:264,1,75,0|0,0:0|3:0,0:0:0:0:
405,347,138432,2,0,L|390:274,1,75,0|0,0:0|3:0,0:0:0:0:
309,291,138942,2,0,P|238:323|149:289,1,150,0|0,0:0|0:0,0:0:0:0:
109,250,139708,5,2,3:2:0:0:
32,281,139963,1,0,0:0:0:0:
109,250,140219,2,0,P|121:178|63:107,1,150,0|0,3:0|3:0,0:0:0:0:
21,174,140985,1,0,0:0:0:0:
109,250,141240,2,0,P|165:251|194:239,1,75,0|0,3:0|0:0,0:0:0:0:
253,202,141751,6,0,L|339:197,1,75,2|0,3:2|0:0,0:0:0:0:
360,121,142261,2,0,B|341:197|341:197|357:275,1,150,2|0,3:2|3:0,0:0:0:0:
410,329,143027,1,0,0:0:0:0:
492,318,143283,1,0,3:0:0:0:
440,253,143538,1,0,0:0:0:0:
410,329,143793,6,0,P|339:346|266:319,1,150,2|0,3:2|3:0,0:0:0:0:
132,226,144814,2,0,P|237:230|281:198,1,150,0|0,3:0|3:0,0:0:0:0:
298,129,145580,1,0,0:0:0:0:
350,248,145836,2,0,L|333:336,1,75,0|0,3:0|0:0,0:0:0:0:
114,210,146857,6,0,L|96:158,1,37.5,2|0,0:0|0:0,0:0:0:0:
142,166,147112,2,0,L|138:118,1,37.5,2|0,0:0|0:0,0:0:0:0:
179,138,147368,2,0,L|186:92,1,37.5,2|0,0:0|0:0,0:0:0:0:
222,118,147623,2,0,L|255:74,1,37.5,2|0,0:0|0:0,0:0:0:0:
266,123,147878,6,0,L|360:118,1,75,6|0,3:2|0:0,0:0:0:0:
407,70,148389,1,0,3:0:0:0:
450,139,148644,2,0,L|457:242,1,75,0|0,0:0|3:0,0:0:0:0:
376,240,149155,1,0,0:0:0:0:
296,219,149410,1,0,3:0:0:0:
242,281,149666,1,0,0:0:0:0:
162,302,149921,6,0,P|139:236|188:164,1,150,0|0,3:0|3:0,0:0:0:0:
297,220,150687,2,0,P|369:217|425:151,1,150,0|0,0:0|0:0,0:0:0:0:
392,86,151453,1,0,3:0:0:0:
392,86,151708,1,0,0:0:0:0:
324,133,151963,6,0,P|260:137|215:115,1,112.5,0|0,3:0|0:0,0:0:0:0:
179,99,152474,2,0,L|99:95,1,75,0|0,3:0|0:0,0:0:0:0:
55,162,152985,2,0,L|7:94,1,75,0|0,3:0|0:0,0:0:0:0:
105,231,153495,1,0,3:0:0:0:
105,231,153751,1,6,0:0:0:0:
256,192,154006,12,0,156049,0:0:0:0:
441,204,157070,6,0,L|461:260,1,37.5,2|0,0:0|0:0,0:0:0:0:
412,244,157325,2,0,L|414:302,1,37.5,2|0,0:0|0:0,0:0:0:0:
372,273,157580,2,0,L|359:318,1,37.5,2|0,0:0|0:0,0:0:0:0:
322,293,157836,2,0,L|297:328,1,37.5,2|0,0:0|0:0,0:0:0:0:
270,293,158091,6,0,P|227:305|149:282,1,89.9999972534181,6|0,0:0|0:0,0:0:0:0:
88,268,158602,1,10,0:0:0:0:
162,202,158857,1,0,0:0:0:0:
260,207,159112,2,0,P|312:176|323:142,2,89.9999972534181,6|2|10,0:0|0:0|0:0,0:0:0:0:
162,202,159878,1,0,0:0:0:0:
219,121,160134,6,0,P|216:69|177:18,1,89.9999972534181,6|0,0:0|0:0,0:0:0:0:
316,132,160644,2,0,L|416:129,1,89.9999972534181,10|0,0:0|0:0,0:0:0:0:
486,71,161155,2,0,P|499:139|466:214,1,134.999995880127,6|0,0:0|0:0,0:0:0:0:
433,223,161666,2,0,L|456:323,1,89.9999972534181,10|0,0:0|0:0,0:0:0:0:
405,297,162049,1,0,0:0:0:0:
360,318,162176,6,0,P|295:334|245:314,1,89.9999972534181,6|0,0:0|0:0,0:0:0:0:
192,272,162687,2,0,L|89:276,1,89.9999972534181,10|2,0:0|0:0,0:0:0:0:
286,228,163197,1,6,0:0:0:0:
255,133,163453,1,0,0:0:0:0:
156,136,163708,1,10,0:0:0:0:
172,38,163963,1,0,0:0:0:0:
156,136,164219,6,0,P|100:146|78:42,1,179.999994506836,6|10,0:0|0:0,0:0:0:0:
172,38,164985,1,0,0:0:0:0:
172,38,165112,1,0,0:0:0:0:
172,38,165240,2,0,L|288:49,1,89.9999972534181,6|0,0:0|0:0,0:0:0:0:
302,136,165751,2,0,L|207:128,1,89.9999972534181,10|0,0:0|0:0,0:0:0:0:
405,79,166261,6,0,P|415:160|343:240,1,179.999994506836,6|10,0:0|0:0,0:0:0:0:
270,282,167027,1,0,0:0:0:0:
270,282,167155,1,0,0:0:0:0:
270,282,167283,2,0,L|282:391,1,89.9999972534181,6|0,0:0|0:0,0:0:0:0:
173,247,167793,2,0,L|183:144,1,89.9999972534181,10|0,0:0|0:0,0:0:0:0:
71,264,168304,6,0,P|96:330|221:339,1,179.999994506836,6|10,0:0|0:0,0:0:0:0:
270,282,169070,1,0,0:0:0:0:
270,282,169197,1,0,0:0:0:0:
270,282,169325,2,0,L|382:291,1,89.9999972534181,6|2,0:0|0:0,0:0:0:0:
414,206,169836,2,0,L|296:197,1,89.9999972534181,10|2,0:0|0:0,0:0:0:0:
187,199,170346,6,0,L|98:206,2,89.9999972534181,6|2|10,0:0|0:0|0:0,0:0:0:0:
257,109,171112,1,0,0:0:0:0:
325,199,171368,2,0,L|414:206,2,89.9999972534181,6|0|10,0:0|0:0|0:0,0:0:0:0:
257,109,172134,1,10,0:0:0:0:
257,109,172389,6,0,L|256:20,2,75,6|2|10,0:0|0:0|0:0,0:0:0:0:
257,279,173155,1,2,0:0:0:0:
167,288,173410,6,0,L|102:270,3,44.999998626709,6|0|2|0,0:0|0:0|0:0|0:0,0:0:0:0:
78,270,173921,2,0,L|16:290,3,44.999998626709,10|0|10|0,0:0|0:0|0:0|0:0,0:0:0:0:
11,322,174432,6,0,B|25:256|25:256|-1:172,1,134.999995880127,6|0,0:0|0:0,0:0:0:0:
7,146,174942,2,0,L|25:50,1,89.9999972534181,10|0,0:0|0:0,0:0:0:0:
113,47,175453,2,0,L|93:153,1,89.9999972534181,6|0,0:0|0:0,0:0:0:0:
230,214,175963,5,10,0:0:0:0:
316,187,176219,1,0,0:0:0:0:
384,246,176474,2,0,P|472:222|503:163,1,134.999995880127,6|0,0:0|0:0,0:0:0:0:
501,144,176985,2,0,L|492:44,1,89.9999972534181,10|0,0:0|0:0,0:0:0:0:
403,57,177495,5,6,0:0:0:0:
327,105,177751,1,2,0:0:0:0:
237,94,178006,1,10,0:0:0:0:
176,27,178261,1,0,0:0:0:0:
176,27,178389,1,0,0:0:0:0:
176,27,178517,6,0,P|129:25|87:43,1,89.9999972534181,6|0,0:0|0:0,0:0:0:0:
39,115,179027,2,0,L|58:218,1,89.9999972534181,10|0,0:0|0:0,0:0:0:0:
115,270,179538,2,0,P|178:267|227:237,1,89.9999972534181,6|0,0:0|0:0,0:0:0:0:
249,183,180049,2,0,L|235:83,1,89.9999972534181,10|0,0:0|0:0,0:0:0:0:
401,142,180559,6,0,P|409:251|353:310,1,179.999994506836,6|10,0:0|0:0,0:0:0:0:
284,264,181325,1,0,0:0:0:0:
228,334,181580,2,0,L|120:344,1,89.9999972534181,6|0,0:0|0:0,0:0:0:0:
101,259,182091,2,0,L|201:249,1,89.9999972534181,10|0,0:0|0:0,0:0:0:0:
336,352,182602,6,0,P|380:302|343:181,1,179.999994506836,6|10,0:0|0:0,0:0:0:0:
176,32,183623,2,0,P|132:82|169:203,1,179.999994506836,6|10,0:0|0:0,0:0:0:0:
220,243,184389,1,0,0:0:0:0:
142,289,184644,2,0,L|153:392,1,89.9999972534181,6|0,0:0|0:0,0:0:0:0:
360,378,185155,2,0,L|370:289,1,89.9999972534181,10|0,0:0|0:0,0:0:0:0:
220,243,185666,5,6,0:0:0:0:
256,325,185921,1,0,0:0:0:0:
291,243,186176,1,10,0:0:0:0:
258,158,186432,1,0,0:0:0:0:
396,88,186687,6,0,P|450:147|435:233,1,134.999995880127,4|0,0:0|0:0,0:0:0:0:
413,222,187197,2,0,L|399:318,1,89.9999972534181,8|0,0:0|0:0,0:0:0:0:
326,331,187708,2,0,L|273:325,3,44.999998626709,0|0|0|0,3:0|0:0|0:0|0:0,0:0:0:0:
235,327,188219,2,0,L|181:352,3,44.999998626709,0|0|0|0,3:0|0:0|0:0|0:0,0:0:0:0:
151,359,188729,6,0,P|98:354|72:220,1,179.999994506836,0|0,3:0|3:0,0:0:0:0:
256,192,189368,12,4,190772,3:1:0:0:
364,132,191283,6,0,L|380:206,1,75,2|2,3:2|0:0,0:0:0:0:
310,234,191793,2,0,L|305:326,1,75,2|0,3:2|0:0,0:0:0:0:
248,175,192304,1,2,3:2:0:0:
165,176,192559,1,0,0:0:0:0:
94,219,192814,6,0,P|36:195|31:124,1,112.5,2|0,3:2|0:0,0:0:0:0:
38,112,193325,2,0,L|32:64,1,37.5,2|0,3:2|0:0,0:0:0:0:
74,75,193580,2,0,L|99:20,1,37.5,2|0,0:0|0:0,0:0:0:0:
124,63,193836,2,0,L|176:55,3,37.5,2|2|2|0,3:2|0:0|0:0|0:0,0:0:0:0:
199,72,194346,2,0,L|263:85,3,37.5,2|2|2|2,3:2|0:0|0:0|0:0,0:0:0:0:
276,69,194857,5,2,3:2:0:0:
382,170,195112,1,2,0:0:0:0:
354,93,195368,1,2,3:2:0:0:
341,241,195623,1,2,0:0:0:0:
382,170,195878,1,2,3:2:0:0:
261,260,196133,1,2,0:0:0:0:
341,241,196389,6,0,L|498:261,1,150,2|2,3:2|3:2,0:0:0:0:
460,337,197155,2,0,L|416:331,1,37.5,2|0,0:0|0:0,0:0:0:0:
381,329,197410,2,0,L|334:346,3,37.5,2|2|2|0,3:2|0:0|0:0|0:0,0:0:0:0:
305,352,197921,2,0,L|256:342,3,37.5,2|2|2|2,3:2|0:0|0:0|0:0,0:0:0:0:
235,318,198432,2,0,L|184:326,1,37.5,2|2,3:2|0:0,0:0:0:0:
156,332,198687,2,0,L|117:315,1,37.5,2|2,0:0|0:0,0:0:0:0:
85,281,198942,5,6,3:2:0:0:
61,144,199453,1,2,3:2:0:0:
140,190,199708,1,2,0:0:0:0:
140,190,199836,1,2,0:0:0:0:
140,190,199963,2,0,P|150:152|141:100,1,75,2|2,3:2|0:0,0:0:0:0:
216,72,200474,2,0,L|238:151,1,75,2|2,3:2|0:0,0:0:0:0:
315,168,200985,5,6,3:2:0:0:
315,168,201495,1,0,3:2:0:0:
384,213,201751,1,2,0:0:0:0:
384,213,201878,1,2,0:0:0:0:
384,213,202006,2,0,P|445:217|481:196,1,75,2|2,3:2|0:0,0:0:0:0:
465,130,202517,2,0,L|378:123,1,75,2|2,3:2|0:0,0:0:0:0:
343,56,203027,5,6,3:2:0:0:
169,56,203538,1,0,3:2:0:0:
169,56,203666,1,2,0:0:0:0:
169,56,203793,1,6,0:0:0:0:
100,196,204559,1,2,3:2:0:0:
100,196,204687,1,2,0:0:0:0:
100,196,204814,1,6,3:2:0:0:
201,327,205325,6,0,L|273:333,3,37.5,0|0|0|0,0:0|0:0|0:0|0:0,0:0:0:0:
279,339,205836,2,0,L|324:327,1,37.5,0|0,0:0|0:0,0:0:0:0:
350,308,206091,2,0,L|410:315,1,37.5,2|0,0:0|0:0,0:0:0:0:
427,323,206346,2,0,L|490:303,1,37.5,0|0,0:0|0:0,0:0:0:0:
494,284,206602,2,0,L|516:243,2,37.5,0|0|0,0:0|0:0|0:0,0:0:0:0:
445,219,207112,5,2,0:0:0:0:
256,192,219368,12,0,223453,0:0:0:0:
258,192,225495,5,4,1:0:0:0:
120,112,226517,1,0,0:0:0:0:
246,269,227538,2,0,L|228:373,2,84.3750032186509,0|0|0,0:0|0:0|0:0,0:0:0:0:
324,225,228559,1,0,0:0:0:0:
52,157,229325,1,0,0:0:0:0:
52,157,229453,1,0,0:0:0:0:
52,157,229580,5,4,1:0:0:0:
191,125,230346,2,0,P|199:176|171:232,1,112.500004291535,0|0,0:0|0:0,0:0:0:0:
237,290,231368,2,0,P|187:313|110:300,1,112.500004291535,0|0,0:0|0:0,0:0:0:0:
341,328,232389,1,0,0:0:0:0:
341,328,232517,1,0,0:0:0:0:
341,328,232644,2,0,L|476:334,1,112.500004291535,0|0,0:0|0:0,0:0:0:0:
512,256,233410,1,0,0:0:0:0:
429,201,233666,6,0,P|424:153|453:91,1,112.500004291535,4|0,1:0|0:0,0:0:0:0:
323,38,234432,1,0,0:0:0:0:
323,38,234559,1,0,0:0:0:0:
323,38,234687,2,0,L|340:158,1,112.500004291535,0|0,3:0|0:0,0:0:0:0:
236,164,235453,1,0,0:0:0:0:
172,249,235708,6,0,P|128:246|66:189,1,112.500004291535,4|0,1:0|0:0,0:0:0:0:
251,324,236474,1,0,0:0:0:0:
251,324,236602,1,0,0:0:0:0:
251,324,236729,2,0,L|368:330,1,112.500004291535,0|0,3:0|3:0,0:0:0:0:
465,229,237751,2,0,L|343:222,1,112.500004291535,4|0,1:0|3:0,0:0:0:0:
275,106,238772,2,0,L|392:112,1,112.500004291535,0|0,3:0|3:0,0:0:0:0:
184,35,239793,5,0,3:0:0:0:
155,47,239921,1,0,0:0:0:0:
127,62,240049,1,0,0:0:0:0:
99,75,240176,1,0,0:0:0:0:
72,91,240304,2,0,L|95:135,1,28.1250010728836,0|0,0:0|0:0,0:0:0:0:
139,180,240559,2,0,L|117:229,1,28.1250010728836,0|0,0:0|0:0,0:0:0:0:
82,276,240814,2,0,P|134:307|223:266,1,134.999995880127,0|0,3:0|0:0,0:0:0:0:
202,289,241325,6,0,L|332:283,1,112.500004291535,0|0,0:0|0:0,0:0:0:0:
445,189,241836,6,0,L|334:194,1,89.9999972534181,6|0,0:0|0:0,0:0:0:0:
275,134,242346,1,10,0:0:0:0:
189,185,242602,1,0,0:0:0:0:
90,184,242857,2,0,P|54:153|53:107,1,89.9999972534181,6|0,0:0|0:0,0:0:0:0:
147,89,243368,1,10,0:0:0:0:
147,89,243623,1,0,0:0:0:0:
189,185,243878,6,0,P|176:261|103:293,1,134.999995880127,6|0,0:0|0:0,0:0:0:0:
93,323,244389,2,0,L|225:339,1,89.9999972534181,10|0,0:0|0:0,0:0:0:0:
329,333,244900,2,0,L|419:323,1,89.9999972534181,6|2,0:0|0:0,0:0:0:0:
475,242,245410,1,10,0:0:0:0:
418,160,245666,1,0,0:0:0:0:
418,160,245793,1,0,0:0:0:0:
418,160,245921,6,0,P|395:115|403:69,1,89.9999972534181,6|0,0:0|0:0,0:0:0:0:
310,31,246432,2,0,L|295:129,1,89.9999972534181,10|0,0:0|0:0,0:0:0:0:
200,146,246942,2,0,L|222:249,1,89.9999972534181,6|0,0:0|0:0,0:0:0:0:
136,288,247453,1,10,0:0:0:0:
58,226,247708,1,0,0:0:0:0:
100,136,247963,6,0,L|75:46,1,89.9999972534181,6|0,0:0|0:0,0:0:0:0:
175,45,248474,1,10,0:0:0:0:
250,109,248729,1,0,0:0:0:0:
342,145,248985,2,0,L|458:140,1,89.9999972534181,6|0,0:0|0:0,0:0:0:0:
484,57,249495,2,0,L|379:62,1,89.9999972534181,10|0,0:0|0:0,0:0:0:0:
302,230,250006,6,0,L|200:235,1,89.9999972534181,6|2,0:0|0:0,0:0:0:0:
126,283,250517,2,0,P|50:252|51:138,1,179.999994506836,10|6,0:0|0:0,0:0:0:0:
108,95,251283,1,0,0:0:0:0:
189,150,251538,2,0,L|314:142,1,89.9999972534181,10|0,0:0|0:0,0:0:0:0:
320,170,251921,1,0,0:0:0:0:
320,170,252049,6,0,P|367:150|387:92,1,89.9999972534181,6|0,0:0|0:0,0:0:0:0:
380,26,252559,1,10,0:0:0:0:
295,76,252814,1,0,0:0:0:0:
444,184,253070,2,0,L|418:313,1,89.9999972534181,6|0,0:0|0:0,0:0:0:0:
328,259,253580,1,10,0:0:0:0:
268,332,253836,1,0,0:0:0:0:
268,331,253963,1,0,0:0:0:0:
268,332,254091,6,0,P|205:355|110:321,1,134.999995880127,6|2,0:0|0:0,0:0:0:0:
104,306,254602,2,0,L|-4:300,1,89.9999972534181,10|0,0:0|0:0,0:0:0:0:
190,172,255112,2,0,P|203:214|194:258,1,89.9999972534181,6|0,0:0|0:0,0:0:0:0:
96,130,255623,2,0,P|129:88|188:74,1,89.9999972534181,10|2,0:0|0:0,0:0:0:0:
190,171,256134,6,0,L|305:160,1,89.9999972534181,0|0,3:0|3:0,0:0:0:0:
351,230,256644,2,0,P|378:164|371:120,1,89.9999972534181,0|0,3:0|3:0,0:0:0:0:
263,252,257155,2,0,L|278:346,1,89.9999972534181,0|0,0:0|3:0,0:0:0:0:
421,321,257666,1,0,3:0:0:0:
443,306,257793,1,0,0:0:0:0:
459,284,257921,1,0,0:0:0:0:
465,257,258049,1,0,0:0:0:0:
463,234,258176,5,4,1:0:0:0:
256,192,258304,12,0,261240,0:0:0:0:
411,143,261751,5,2,3:2:0:0:
411,143,262261,2,0,P|410:202|366:242,1,112.500004291535,4|2,1:0|3:2,0:0:0:0:
256,192,262900,12,0,265325,0:0:0:0:
92,196,265836,5,2,3:2:0:0:
92,196,266346,2,0,B|109:270|109:270|77:355,1,150,4|2,3:2|3:2,0:0:0:0:
256,192,266985,12,0,269410,0:0:0:0:
256,192,270432,12,0,274517,0:0:0:0:
