osu file format v13

[General]
AudioFilename: Ceui - Truth Of My Destiny.mp3
AudioLeadIn: 1985
PreviewTime: 65921
Countdown: 0
SampleSet: Soft
StackLeniency: 0.4
Mode: 0
LetterboxInBreaks: 0
WidescreenStoryboard: 0

[Editor]
Bookmarks: 255112
DistanceSpacing: 1.4
BeatDivisor: 4
GridSize: 8
TimelineZoom: 4.399998

[Metadata]
Title:Truth Of My Destiny
TitleUnicode:Truth Of My Destiny
Artist:Ceui
ArtistUnicode:Ceui
Creator:Pururut
Version:Destiny
Source:伝説の勇者の伝説
Tags:Labyrinthus Narcissu The Legend of the Legendary ending Kotaro Odaka
BeatmapID:459946
BeatmapSetID:137513

[Difficulty]
HPDrainRate:7
CircleSize:3.5
OverallDifficulty:7.8
ApproachRate:9
SliderMultiplier:2
SliderTickRate:2

[Events]
//Background and Video events
0,0,"bg.jpg",0,0
//Break Periods
2,111312,113832
2,207312,217746
//Storyboard Layer 0 (Background)
//Storyboard Layer 1 (Fail)
//Storyboard Layer 2 (Pass)
//Storyboard Layer 3 (Foreground)
//Storyboard Sound Samples

[TimingPoints]
815,510.63829787234,4,2,0,70,1,0
2602,-100,4,2,0,50,0,0
3878,-100,4,2,0,60,0,0
4900,-100,4,2,0,70,0,0
5921,-100,4,2,0,80,0,0
6176,-100,4,2,0,25,0,0
6432,-100,4,2,1,90,0,0
9751,-100,4,2,1,60,0,0
10006,-200,4,2,1,80,0,0
11027,-100,4,2,1,80,0,0
14346,-100,4,2,1,60,0,0
15112,-100,4,2,1,30,0,0
19197,-100,4,2,1,40,0,0
22261,-100,4,2,1,70,0,0
22517,-200,4,2,1,60,0,0
23283,-200,4,2,1,40,0,0
23410,-200,4,2,1,60,0,0
35538,-200,4,2,1,40,0,0
39623,-100,4,2,1,31,0,0
39878,-100,4,2,1,60,0,0
53921,-133.333333333333,4,2,1,60,0,0
54942,-100,4,2,1,60,0,0
55963,-100,4,2,1,30,0,0
56219,-100,4,2,1,60,0,0
63112,-100,4,2,1,20,0,0
64134,-100,4,2,1,40,0,0
64389,-100,4,2,1,50,0,0
64644,-100,4,2,1,60,0,0
64900,-100,4,2,1,70,0,0
65155,-100,4,2,1,75,0,0
66176,-66.6666666666667,4,2,2,80,0,1
80474,-66.6666666666667,4,2,2,60,0,1
81495,-66.6666666666667,4,2,2,80,0,1
82389,-66.6666666666667,4,2,1,80,0,0
82517,-66.6666666666667,4,2,2,80,0,1
95793,-66.6666666666667,4,2,1,50,0,1
98857,-133.333333333333,4,2,2,50,0,0
100900,-133.333333333333,4,1,0,10,0,0
101921,-133.333333333333,4,2,1,50,0,0
104985,-133.333333333333,4,1,0,10,0,0
106006,-133.333333333333,4,2,1,50,0,0
107027,-133.333333333333,4,2,1,40,0,0
109070,-133.333333333333,4,1,0,10,0,0
114432,-133.333333333333,4,2,1,40,0,0
131538,-100,4,2,1,50,0,0
132049,-100,4,2,1,60,0,0
145836,-133.333333333333,4,2,1,60,0,0
146857,-100,4,2,1,60,0,0
147878,-100,4,2,1,70,0,0
158091,-66.6666666666667,4,2,2,80,0,1
161921,-66.6666666666667,4,2,2,85,0,1
174304,-66.6666666666667,4,2,1,80,0,0
174432,-66.6666666666667,4,2,2,80,0,1
187708,-100,4,2,1,80,0,1
190772,-100,4,2,1,80,0,0
191027,-100,4,2,1,50,0,0
198942,-100,4,2,1,20,0,0
199453,-100,4,2,1,50,0,0
200985,-100,4,2,1,40,0,0
201495,-100,4,2,1,50,0,0
203027,-100,4,2,1,30,0,0
203538,-100,4,2,1,50,0,0
203793,-100,4,2,1,40,0,0
204049,-100,4,2,1,50,0,0
206346,-100,4,2,1,25,0,0
218346,-172.413793103448,4,2,1,30,0,0
219112,-172.413793103448,4,2,1,20,0,0
219368,-172.413793103448,4,2,1,30,0,0
224474,-133.333333333333,4,2,1,30,0,0
224729,-133.333333333333,4,2,1,40,0,0
224985,-133.333333333333,4,2,1,50,0,0
225240,-133.333333333333,4,2,1,55,0,0
225495,-83.3333333333333,4,2,2,60,0,1
225623,-83.3333333333333,4,2,1,50,0,0
229580,-83.3333333333333,4,2,1,55,0,0
233666,-83.3333333333333,4,2,1,60,0,0
235708,-83.3333333333333,4,2,1,65,0,0
237751,-83.3333333333333,4,2,1,70,0,0
237878,-83.3333333333333,4,2,1,80,0,0
240814,-83.3333333333333,4,2,1,40,0,0
241708,-83.3333333333333,4,2,1,80,0,0
241836,-55.5555555555556,4,2,2,80,0,1
258176,-66.6666666666667,4,2,2,80,0,0
258687,-80,4,2,2,80,0,0
261240,-100,4,2,2,80,0,0
266346,-100,4,2,1,50,0,0
266474,-100,4,2,2,80,0,0
270942,-100,4,2,1,70,0,0
271453,-100,4,2,1,60,0,0
271963,-100,4,2,1,50,0,0
272474,-100,4,2,1,40,0,0
272985,-100,4,2,1,30,0,0
273495,-100,4,2,1,20,0,0
274006,-100,4,2,1,10,0,0
274517,-100,4,2,1,5,0,0

[Colours]
Combo1 : 255,163,70
Combo2 : 255,128,192
Combo3 : 89,172,255
Combo4 : 91,255,91

[HitObjects]
256,192,2602,12,2,6176,0:0:0:0:
89,80,6432,6,0,L|77:158,1,66.6666666666667,2|0,0:0|0:0,0:0:0:0:
172,205,6687,2,0,L|168:139,1,66.6666666666667,0|0,0:0|0:0,0:0:0:0:
244,258,6942,2,0,P|176:287|106:268,2,150,10|0|0,0:0|0:0|0:0,0:0:0:0:
265,168,7836,1,0,0:0:0:0:
265,168,7963,6,0,L|377:171,1,100,2|0,0:0|0:0,0:0:0:0:
403,273,8346,1,0,0:0:0:0:
403,273,8474,2,0,P|462:271|516:226,1,100,0|0,0:0|0:0,0:0:0:0:
508,154,8857,1,0,0:0:0:0:
508,154,8985,2,0,L|492:25,1,100,2|0,0:0|0:0,0:0:0:0:
349,79,9495,2,0,L|240:73,1,100,0|2,0:0|0:0,0:0:0:0:
190,158,10006,6,0,P|193:197|183:246,2,75,0|0|0,0:0|0:0|0:0,0:0:0:0:
104,287,11027,6,0,L|344:264,1,200,10|0,0:0|0:0,0:0:0:0:
408,80,11793,1,0,0:0:0:0:
408,80,11921,1,0,0:0:0:0:
408,80,12049,2,0,B|304:32|304:152|192:96,1,200,2|0,0:0|0:0,0:0:0:0:
67,120,12814,1,0,0:0:0:0:
81,134,12942,1,0,0:0:0:0:
92,145,13070,6,0,B|90:213|90:213|104:284|104:284|99:346,1,200,2|0,0:0|0:0,0:0:0:0:
241,330,13836,2,0,L|321:349,1,50,2|0,0:0|0:0,0:0:0:0:
429,271,14091,2,0,L|370:277,1,50,2|0,0:0|0:0,0:0:0:0:
276,210,14346,2,0,L|289:157,1,50,2|0,0:0|0:0,0:0:0:0:
386,140,14602,2,0,L|372:71,1,50,2|0,0:0|0:0,0:0:0:0:
298,45,14857,1,2,0:0:0:0:
208,55,14985,1,0,0:0:0:0:
158,129,15112,6,0,P|66:152|7:108,1,150,14|0,3:2|0:0,0:0:0:0:
90,61,15623,2,0,L|94:224,1,150,8|0,3:0|0:0,0:0:0:0:
52,288,16134,2,0,L|177:306,1,100,8|0,3:0|0:0,0:0:0:0:
349,368,16644,2,0,B|337:298|337:298|353:198,1,150,8|0,3:0|0:0,0:0:0:0:
480,247,17155,6,0,L|498:78,1,150,8|0,3:0|0:0,0:0:0:0:
416,142,17666,2,0,P|334:166|271:147,1,150,8|0,3:0|0:0,0:0:0:0:
202,93,18176,2,0,B|146:98|146:98|84:152,1,100,8|0,3:0|0:0,0:0:0:0:
14,278,18687,2,0,L|6:111,1,150,8|0,3:0|0:0,0:0:0:0:
59,55,19197,1,4,0:0:0:0:
256,192,19325,12,0,22261,0:0:0:0:
103,280,22517,5,0,0:0:0:0:
103,280,22772,1,0,0:0:0:0:
103,280,23027,1,0,0:0:0:0:
103,280,23283,6,0,L|218:274,1,100,6|0,0:0|0:0,0:0:0:0:
285,331,24049,2,0,P|356:324|395:292,1,100,2|0,0:0|0:0,0:0:0:0:
436,227,24814,1,0,0:0:0:0:
270,115,25070,1,0,0:0:0:0:
270,115,25197,1,0,0:0:0:0:
270,115,25325,6,0,L|217:126,2,50,2|0|0,0:0|0:0|0:0,0:0:0:0:
353,170,26091,2,0,B|347:233|347:233|361:288,2,100,2|0|0,0:0|0:0|0:0,0:0:0:0:
445,346,27368,6,0,L|326:365,1,100,6|0,0:0|0:0,0:0:0:0:
268,298,28134,2,0,P|203:293|164:309,1,100,2|0,0:0|0:0,0:0:0:0:
84,354,28900,1,0,0:0:0:0:
145,162,29155,1,0,0:0:0:0:
152,147,29283,1,0,0:0:0:0:
158,136,29410,6,0,L|207:120,2,50,2|0|0,0:0|0:0|0:0,0:0:0:0:
225,210,30176,2,0,L|203:279,1,50,2|0,0:0|0:0,0:0:0:0:
324,173,30687,2,0,L|348:57,1,100,0|2,0:0|0:0,0:0:0:0:
432,235,31453,6,0,P|380:267|330:267,1,100,6|0,0:0|0:0,0:0:0:0:
352,178,32219,2,0,L|365:78,1,100,2|0,0:0|0:0,0:0:0:0:
269,46,32985,1,0,0:0:0:0:
183,97,33240,1,0,0:0:0:0:
183,97,33368,1,0,0:0:0:0:
183,97,33495,6,0,P|118:100|76:77,1,100,2|0,0:0|0:0,0:0:0:0:
16,156,34261,1,0,0:0:0:0:
139,316,34517,2,0,L|252:311,1,100,2|0,0:0|0:0,0:0:0:0:
430,251,35283,1,0,0:0:0:0:
430,251,35410,1,0,0:0:0:0:
430,251,35538,6,0,L|319:243,1,100,6|0,0:0|0:0,0:0:0:0:
261,154,36304,1,0,0:0:0:0:
261,154,36432,1,0,0:0:0:0:
261,154,36559,1,0,0:0:0:0:
256,192,36687,12,0,38602,0:0:0:0:
94,323,38857,5,0,0:0:0:0:
94,323,39112,1,0,0:0:0:0:
94,323,39368,1,0,0:0:0:0:
94,322,39623,6,0,P|161:326|233:280,1,150,6|0,3:2|0:0,0:0:0:0:
351,239,40134,2,0,L|469:229,1,100,0|0,3:0|0:0,0:0:0:0:
501,109,40517,1,0,0:0:0:0:
501,109,40644,2,0,L|366:118,1,100,0|0,3:0|0:0,0:0:0:0:
153,117,41155,2,0,P|142:61|160:17,1,100,0|0,3:0|0:0,0:0:0:0:
292,80,41666,6,0,P|302:139|252:194,1,100,2|0,3:2|0:0,0:0:0:0:
109,248,42176,2,0,L|-8:235,2,100,0|0|0,3:0|0:0|3:0,0:0:0:0:
247,337,42942,2,0,P|341:330|376:312,1,100,0|0,0:0|3:0,0:0:0:0:
442,228,43453,1,0,0:0:0:0:
296,93,43708,6,0,L|169:88,1,100,2|0,3:2|0:0,0:0:0:0:
110,141,44091,1,0,0:0:0:0:
110,141,44219,2,0,L|76:215,1,50,0|0,3:0|0:0,0:0:0:0:
10,226,44474,2,0,P|41:300|78:312,1,100,2|0,0:0|3:0,0:0:0:0:
194,323,44985,6,0,L|317:303,1,100,0|0,0:0|3:0,0:0:0:0:
455,141,45495,2,0,P|409:163|343:167,1,100,0|2,0:0|3:2,0:0:0:0:
195,137,46006,2,0,L|216:18,1,100,0|0,0:0|3:0,0:0:0:0:
317,247,46517,2,0,L|296:366,1,100,0|0,0:0|3:0,0:0:0:0:
489,366,47027,6,0,L|473:231,1,100,0|0,0:0|3:0,0:0:0:0:
372,151,47538,2,0,P|327:185|261:191,1,100,0|2,0:0|3:2,0:0:0:0:
195,138,47921,1,0,0:0:0:0:
195,138,48049,2,0,L|127:129,1,50,0|0,0:0|0:0,0:0:0:0:
40,247,48304,2,0,L|150:238,1,100,0|0,3:0|0:0,0:0:0:0:
364,328,48814,2,0,L|481:314,1,100,0|0,3:0|0:0,0:0:0:0:
291,96,49325,1,0,3:0:0:0:
144,295,49580,1,0,0:0:0:0:
144,295,49708,1,0,0:0:0:0:
144,295,49836,6,0,P|83:293|35:261,1,100,2|0,3:2|0:0,0:0:0:0:
118,200,50346,2,0,L|281:193,1,150,0|0,3:0|0:0,0:0:0:0:
358,237,50857,1,0,3:0:0:0:
214,51,51112,1,0,0:0:0:0:
214,51,51240,1,0,0:0:0:0:
214,51,51368,1,0,3:0:0:0:
118,200,51623,1,0,0:0:0:0:
293,296,51878,6,0,L|476:263,1,150,2|0,3:2|0:0,0:0:0:0:
511,197,52389,1,0,3:0:0:0:
329,114,52644,2,0,P|341:91|346:60,2,50,0|0|0,0:0|0:0|3:0,0:0:0:0:
254,181,53027,1,0,0:0:0:0:
254,181,53155,2,0,L|121:174,1,100,0|0,0:0|3:0,0:0:0:0:
77,73,53666,1,0,0:0:0:0:
166,318,53921,6,0,L|395:293,1,225.000008583069,2|0,3:2|0:0,0:0:0:0:
424,114,54942,6,0,L|406:172,1,50,2|0,0:0|0:0,0:0:0:0:
223,203,55197,2,0,L|205:154,1,50,2|0,0:0|0:0,0:0:0:0:
327,92,55453,2,0,L|311:160,1,50,2|0,0:0|0:0,0:0:0:0:
132,243,55708,2,0,L|114:194,1,50,2|0,0:0|0:0,0:0:0:0:
19,83,55963,6,0,L|35:234,1,100,6|0,3:2|0:0,0:0:0:0:
39,288,56346,1,0,0:0:0:0:
39,288,56474,2,0,P|118:347|156:342,1,100,0|0,3:0|0:0,0:0:0:0:
232,315,56857,1,0,0:0:0:0:
232,315,56985,2,0,L|352:309,1,100,0|0,3:0|0:0,0:0:0:0:
443,240,57495,2,0,L|468:327,1,50,0|0,3:0|0:0,0:0:0:0:
495,130,57751,2,0,L|466:59,1,50
338,194,58006,6,0,P|308:201|181:194,1,150,0|0,3:0|0:0,0:0:0:0:
105,131,58517,1,0,3:0:0:0:
28,315,58772,1,0,0:0:0:0:
135,266,59027,1,0,3:0:0:0:
2,116,59283,1,0,0:0:0:0:
135,266,59538,1,0,3:0:0:0:
105,131,59793,1,0,0:0:0:0:
105,131,59921,1,0,0:0:0:0:
105,131,60049,6,0,L|92:23,1,100,4|0,3:2|0:0,0:0:0:0:
234,178,60432,1,0,0:0:0:0:
234,178,60559,2,0,L|253:302,1,100,0|0,3:0|0:0,0:0:0:0:
374,334,61070,2,0,P|445:324|480:283,1,100,0|0,3:0|0:0,0:0:0:0:
465,158,61580,1,0,3:0:0:0:
460,153,61836,1,4,3:2:0:0:
456,147,62602,5,0,3:0:0:0:
453,141,63112,1,0,3:0:0:0:
450,135,63623,1,0,3:0:0:0:
447,129,64134,6,0,L|372:165,7,50,0|0|0|0|0|0|0|0,3:0|0:0|0:0|0:0|3:0|0:0|0:0|0:0,0:0:0:0:
364,262,65155,6,0,L|294:256,1,50,2|0,0:0|0:0,0:0:0:0:
172,133,65410,2,0,L|248:153,1,50,2|0,0:0|0:0,0:0:0:0:
208,348,65666,2,0,L|197:289,1,50,2|0,0:0|0:0,0:0:0:0:
19,201,65921,2,0,P|51:232|95:231,1,50,2|0,0:0|0:0,0:0:0:0:
209,348,66176,6,0,B|259:328|259:328|362:346,1,150.000005722046,6|0,0:0|0:0,0:0:0:0:
471,305,66559,1,0,0:0:0:0:
402,200,66687,2,0,P|385:118|419:51,1,150.000005722046,10|0,0:0|0:0,0:0:0:0:
293,127,67070,1,0,0:0:0:0:
293,127,67197,2,0,P|201:148|142:125,1,150.000005722046,6|0,0:0|0:0,0:0:0:0:
53,87,67580,1,0,0:0:0:0:
58,190,67708,2,0,P|83:297|50:356,1,150.000005722046,10|0,0:0|0:0,0:0:0:0:
161,383,68091,1,0,0:0:0:0:
161,383,68219,6,0,P|249:350|280:290,1,150.000005722046,6|0,0:0|0:0,0:0:0:0:
320,193,68602,1,0,0:0:0:0:
439,230,68729,2,0,L|449:383,1,150.000005722046,10|0,0:0|0:0,0:0:0:0:
244,281,69240,2,0,L|168:269,1,75.0000028610231,6|0,0:0|0:0,0:0:0:0:
305,91,69495,2,0,L|390:99,1,75.0000028610231,6|0,0:0|0:0,0:0:0:0:
276,187,69751,2,0,L|196:177,1,75.0000028610231,10|0,0:0|0:0,0:0:0:0:
25,124,70006,1,0,0:0:0:0:
30,36,70134,1,0,0:0:0:0:
113,87,70261,6,0,P|92:216|55:245,2,150.000005722046,6|2|10,0:0|0:0|0:0,0:0:0:0:
173,348,71027,2,0,P|257:369|266:365,1,75.0000028610231
387,291,71283,2,0,L|225:279,2,150.000005722046,6|2|8,0:0|0:0|0:0,0:0:0:0:
469,98,72049,2,0,P|367:85|295:111,1,150.000005722046,0|6,0:0|0:0,0:0:0:0:
77,299,72559,6,0,B|54:237|54:237|56:135,1,150.000005722046,0|10,0:0|0:0,0:0:0:0:
248,134,73070,2,0,P|266:94|267:42,1,75.0000028610231,2|2,0:0|0:0,0:0:0:0:
335,163,73325,2,0,L|347:337,1,150.000005722046,6|0,0:0|0:0,0:0:0:0:
456,232,73708,1,0,0:0:0:0:
456,232,73836,2,0,P|478:153|458:72,1,150.000005722046,10|0,0:0|0:0,0:0:0:0:
345,48,74219,1,0,0:0:0:0:
248,135,74346,6,0,P|174:144|104:120,2,150.000005722046,6|2|10,0:0|0:0|0:0,0:0:0:0:
4,191,75112,1,0,0:0:0:0:
7,273,75240,1,0,0:0:0:0:
77,316,75368,2,0,P|160:313|173:305,1,75.0000028610231,6|0,0:0|0:0,0:0:0:0:
279,238,75623,2,0,L|198:230,1,75.0000028610231
319,327,75878,2,0,P|427:311|457:260,1,150.000005722046,10|0,0:0|0:0,0:0:0:0:
388,163,76261,1,0,0:0:0:0:
278,238,76389,6,0,P|161:217|119:182,2,150.000005722046,6|2|10,0:0|0:0|0:0,0:0:0:0:
170,84,77155,1,0,0:0:0:0:
170,84,77283,1,0,0:0:0:0:
170,84,77410,2,0,L|96:79,1,75.0000028610231,6|0,0:0|0:0,0:0:0:0:
204,231,77666,2,0,L|279:239,1,75.0000028610231
353,148,77921,2,0,L|279:142,1,75.0000028610231,10|0,0:0|0:0,0:0:0:0:
380,331,78176,2,0,L|455:338,1,75.0000028610231
404,224,78432,5,6,0:0:0:0:
303,204,78559,1,2,0:0:0:0:
203,231,78687,1,2,0:0:0:0:
124,298,78814,1,2,0:0:0:0:
124,298,78942,6,0,P|92:225|119:132,1,150.000005722046,10|0,0:0|0:0,0:0:0:0:
190,76,79325,1,0,0:0:0:0:
254,182,79453,2,0,L|424:168,2,150.000005722046,6|0|10,0:0|0:0|0:0,0:0:0:0:
351,321,80219,2,0,L|425:331,1,75.0000028610231,10|0,0:0|0:0,0:0:0:0:
506,274,80474,6,0,P|489:201|512:131,1,150.000005722046,6|2,0:0|0:0,0:0:0:0:
437,41,80857,1,0,0:0:0:0:
349,117,80985,2,0,L|228:125,1,75.0000028610231,10|0,0:0|0:0,0:0:0:0:
94,89,81240,2,0,L|213:80,1,75.0000028610231,10|0,0:0|0:0,0:0:0:0:
388,202,81495,2,0,L|267:210,1,75.0000028610231,4|0,0:0|0:0,0:0:0:0:
133,174,81750,2,0,L|252:165,1,75.0000028610231,2|0,0:0|0:0,0:0:0:0:
471,258,82006,2,0,L|442:287,3,37.5000014305115,6|0|0|0,0:0|0:0|0:0|0:0,0:0:0:0:
416,298,82261,2,0,L|356:304,3,37.5000014305115,2|0|0|0,0:0|0:0|0:0|0:0,0:0:0:0:
354,322,82517,6,0,P|234:321|199:293,1,150.000005722046,6|0,0:0|0:0,0:0:0:0:
168,196,82900,1,0,0:0:0:0:
49,222,83027,2,0,P|59:304|71:379,2,150.000005722046,10|0|6,0:0|0:0|0:0,0:0:0:0:
249,87,83793,2,0,L|339:96,1,75.0000028610231,2|0,0:0|0:0,0:0:0:0:
379,201,84049,2,0,P|434:142|437:57,1,150.000005722046,10|0,0:0|0:0,0:0:0:0:
266,199,84432,1,0,0:0:0:0:
170,261,84559,6,0,P|80:259|0:209,1,150.000005722046,6|2,0:0|0:0,0:0:0:0:
160,370,84942,1,0,0:0:0:0:
160,370,85070,2,0,L|366:355,1,150.000005722046,10|0,0:0|0:0,0:0:0:0:
461,274,85453,1,0,0:0:0:0:
461,274,85580,2,0,P|484:199|440:108,1,150.000005722046,6|2,0:0|0:0,0:0:0:0:
379,201,85963,1,0,0:0:0:0:
292,282,86091,2,0,L|128:272,1,150.000005722046,10|0,0:0|0:0,0:0:0:0:
50,194,86474,1,0,0:0:0:0:
49,195,86602,6,0,P|18:274|56:346,1,150.000005722046,6|0,0:0|0:0,0:0:0:0:
379,202,87112,1,10,0:0:0:0:
96,58,87368,1,0,0:0:0:0:
237,379,87623,2,0,L|432:359,1,150.000005722046,6|0,0:0|0:0,0:0:0:0:
472,280,88006,1,0,0:0:0:0:
379,202,88134,2,0,P|345:126|373:56,2,150.000005722046,10|0|6,0:0|0:0|0:0,0:0:0:0:
379,202,88772,5,0,0:0:0:0:
379,202,88900,2,0,L|285:193,1,75.0000028610231,2|0,0:0|0:0,0:0:0:0:
97,60,89155,2,0,L|184:69,1,75.0000028610231,10|0,0:0|0:0,0:0:0:0:
74,271,89410,2,0,L|-20:262,1,75.0000028610231,2|2,0:0|0:0,0:0:0:0:
102,177,89666,2,0,P|167:251|162:312,1,150.000005722046,6|0,0:0|0:0,0:0:0:0:
67,364,90049,1,0,0:0:0:0:
245,384,90176,2,0,L|450:354,1,150.000005722046,10|0,0:0|0:0,0:0:0:0:
418,138,90687,6,0,P|359:221|267:232,1,150.000005722046,6|0,0:0|0:0,0:0:0:0:
194,125,91070,1,0,0:0:0:0:
90,183,91197,2,0,L|106:335,2,150.000005722046,10|0|6,0:0|0:0|0:0,0:0:0:0:
84,61,91836,1,0,0:0:0:0:
194,125,91963,2,0,P|236:140|286:139,1,75.0000028610231,2|0,0:0|0:0,0:0:0:0:
403,34,92219,2,0,L|234:53,1,150.000005722046,10|0,0:0|0:0,0:0:0:0:
311,213,92602,1,0,0:0:0:0:
407,208,92729,6,0,P|457:151|379:128,1,150.000005722046,6|0,0:0|0:0,0:0:0:0:
220,229,93112,2,0,P|276:295|289:298,1,75.0000028610231,0|10,0:0|0:0,0:0:0:0:
354,372,93368,1,0,0:0:0:0:
422,303,93495,2,0,P|347:279|310:300,1,75.0000028610231
213,360,93751,2,0,L|122:354,1,75.0000028610231,6|0,0:0|0:0,0:0:0:0:
40,346,94006,1,0,0:0:0:0:
21,250,94134,1,0,0:0:0:0:
113,202,94261,2,0,P|129:140|83:56,1,150.000005722046,10|0,0:0|0:0,0:0:0:0:
354,48,94772,6,0,L|453:46,1,75.0000028610231,6|0,0:0|0:0,0:0:0:0:
310,145,95027,2,0,L|222:144,1,75.0000028610231,2|0,0:0|0:0,0:0:0:0:
141,91,95283,1,10,0:0:0:0:
60,144,95410,1,0,0:0:0:0:
58,231,95538,1,0,0:0:0:0:
142,282,95666,1,0,0:0:0:0:
232,236,95793,6,0,L|230:144,1,75.0000028610231,0|0,3:0|0:0,0:0:0:0:
142,90,96049,2,0,L|142:178,1,75.0000028610231
67,281,96304,2,0,L|142:281,1,75.0000028610231,0|0,3:0|0:0,0:0:0:0:
326,103,96559,2,0,L|251:104,1,75.0000028610231
384,326,96814,6,0,B|426:309|426:309|453:264,1,75.0000028610231,2|0,0:0|0:0,0:0:0:0:
232,235,97070,2,0,B|225:279|225:279|251:325,1,75.0000028610231,2|0,0:0|0:0,0:0:0:0:
392,133,97325,2,0,B|356:105|356:105|303:104,1,75.0000028610231,2|0,0:0|0:0,0:0:0:0:
125,311,97580,2,0,P|212:357|232:352,1,75.0000028610231
383,326,97836,5,2,0:0:0:0:
397,312,97900,1,2,0:0:0:0:
408,295,97963,1,2,0:0:0:0:
414,276,98027,1,0,0:0:0:0:
415,257,98091,2,0,L|405:204,3,37.5000014305115,0|0|0|0,0:0|0:0|0:0|0:0,0:0:0:0:
354,168,98346,6,0,L|361:129,12,25.0000009536744,0|0|0|0|0|0|0|0|0|0|0|0|4,0:0|0:0|0:0|0:0|0:0|0:0|0:0|0:0|0:0|0:0|0:0|0:0|2:0,0:0:0:0:
256,192,98985,12,4,100900,0:0:0:0:
161,297,101921,6,0,B|137:177|137:177|145:241|126:289|103:329|50:341,1,300.000011444092,2|2,0:0|0:0,0:0:0:0:
256,192,103070,12,6,104985,0:2:0:0:
351,297,106006,6,0,B|375:177|375:177|367:241|386:289|409:329|462:341,1,300.000011444092,2|2,0:0|0:0,0:0:0:0:
256,192,107155,12,6,111112,0:2:0:0:
75,315,114432,5,0,0:0:0:0:
113,209,114687,1,0,0:0:0:0:
76,315,114942,1,0,0:0:0:0:
179,358,115197,6,0,P|253:379|348:341,1,150.000005722046,6|0,3:2|3:0,0:0:0:0:
433,340,115963,2,0,P|477:277|461:182,1,150.000005722046,2|0,0:0|0:0,0:0:0:0:
408,114,116729,1,0,3:0:0:0:
190,204,116985,1,0,0:0:0:0:
190,204,117112,1,0,0:0:0:0:
190,204,117240,6,0,L|104:212,2,75.0000028610231,2|0|0,3:2|0:0|3:0,0:0:0:0:
282,138,118006,2,0,P|237:100|208:98,1,75.0000028610231,2|0,0:0|3:0,0:0:0:0:
190,204,118517,2,0,L|203:309,1,75.0000028610231,0|0,0:0|3:0,0:0:0:0:
363,139,119027,1,0,0:0:0:0:
395,339,119283,6,0,L|465:183,1,150.000005722046,6|0,3:2|3:0,0:0:0:0:
363,138,120049,2,0,P|331:209|264:220,1,150.000005722046,2|0,0:0|0:0,0:0:0:0:
146,159,120814,1,0,3:0:0:0:
25,337,121070,1,0,0:0:0:0:
25,337,121197,1,0,0:0:0:0:
25,337,121325,6,0,L|105:324,1,75.0000028610231,2|0,3:2|0:0,0:0:0:0:
221,370,121836,2,0,L|294:317,1,75.0000028610231,0|2,3:0|0:0,0:0:0:0:
352,235,122346,1,0,3:0:0:0:
465,314,122602,2,0,B|439:243|439:243|447:153,1,150.000005722046
210,190,123368,6,0,P|140:181|80:111,1,150.000005722046,6|0,3:2|3:0,0:0:0:0:
296,104,124134,1,0,0:0:0:0:
296,104,124389,2,0,P|331:184|315:254,1,150.000005722046,0|0,3:0|3:0,0:0:0:0:
165,306,125155,1,0,0:0:0:0:
269,347,125410,6,0,L|430:309,1,150.000005722046,0|0,3:0|3:0,0:0:0:0:
222,183,126176,1,0,0:0:0:0:
222,183,126432,2,0,P|133:217|68:206,1,150.000005722046,0|0,3:0|3:2,0:0:0:0:
15,118,127197,1,0,0:0:0:0:
239,81,127453,6,0,P|302:115|319:218,1,150.000005722046,0|0,3:0|3:0,0:0:0:0:
304,296,128219,1,0,0:0:0:0:
304,296,128474,2,0,L|406:280,2,75.0000028610231,0|0|0,3:0|0:0|3:0,0:0:0:0:
203,244,129240,1,0,0:0:0:0:
120,320,129495,2,0,L|15:308,2,75.0000028610231,0|0|0,3:0|0:0|0:0,0:0:0:0:
203,244,130261,1,0,0:0:0:0:
203,244,130772,5,0,0:0:0:0:
203,244,131027,1,0,0:0:0:0:
203,244,131283,1,0,0:0:0:0:
203,244,131538,6,0,P|201:153|139:92,1,150,6|0,3:2|0:0,0:0:0:0:
111,197,132049,2,0,L|-12:184,1,100,0|2,3:0|0:0,0:0:0:0:
228,24,132559,1,0,3:0:0:0:
383,171,132814,1,0,0:0:0:0:
383,171,133070,2,0,P|445:171|503:155,1,100,0|0,3:0|0:0,0:0:0:0:
303,251,133580,6,0,L|159:239,1,100,2|0,3:2|0:0,0:0:0:0:
167,108,134091,1,0,3:0:0:0:
46,330,134346,1,2,0:0:0:0:
46,330,134602,2,0,L|180:335,1,100,0|0,3:0|0:0,0:0:0:0:
302,251,135112,2,0,P|359:260|430:242,1,100,0|0,3:0|0:0,0:0:0:0:
243,116,135623,6,0,L|82:153,1,150,2|0,3:2|0:0,0:0:0:0:
16,82,136134,1,0,3:0:0:0:
46,330,136389,1,2,0:0:0:0:
46,330,136517,1,0,0:0:0:0:
46,330,136644,1,0,3:0:0:0:
179,261,136900,2,0,P|244:253|319:277,1,100,0|0,0:0|3:0,0:0:0:0:
439,361,137410,6,0,P|492:314|509:264,1,100,0|0,0:0|3:0,0:0:0:0:
437,118,137921,2,0,L|314:130,1,100,0|0,0:0|3:0,0:0:0:0:
217,247,138432,2,0,L|348:253,1,100,0|0,0:0|3:0,0:0:0:0:
166,360,138942,6,0,P|92:278|96:262,1,100,0|0,0:0|3:0,0:0:0:0:
132,150,139453,2,0,L|231:109,1,100,0|2,0:0|3:2,0:0:0:0:
361,193,139963,2,0,P|428:201|477:186,2,100,0|0|0,0:0|3:0|0:0,0:0:0:0:
98,309,140729,2,0,L|-22:291,1,100,0|0,3:0|0:0,0:0:0:0:
223,108,141240,1,0,3:0:0:0:
319,340,141495,1,0,0:0:0:0:
319,340,141751,6,0,P|386:333|416:297,1,100,2|0,3:2|0:0,0:0:0:0:
465,225,142134,1,0,0:0:0:0:
465,225,142261,2,0,P|396:166|396:99,1,150,2|0,3:2|0:0,0:0:0:0:
489,132,142772,1,0,3:0:0:0:
270,251,143027,1,0,0:0:0:0:
270,251,143155,1,0,0:0:0:0:
270,251,143283,1,0,3:0:0:0:
212,59,143538,1,0,0:0:0:0:
173,170,143793,6,0,L|0:157,1,150,2|0,3:2|0:0,0:0:0:0:
102,77,144304,1,0,3:0:0:0:
97,301,144559,2,0,L|81:365,2,50,0|0|0,0:0|0:0|3:0,0:0:0:0:
233,313,144942,1,0,0:0:0:0:
233,313,145070,2,0,P|301:329|368:308,1,100,0|0,0:0|3:0,0:0:0:0:
438,239,145580,1,0,0:0:0:0:
214,212,145836,6,0,B|191:207|191:207|183:178|183:178|116:172|80:81|146:20,1,225.000008583069,0|0,3:0|0:0,0:0:0:0:
376,146,146857,6,0,L|397:72,1,50,2|0,0:0|0:0,0:0:0:0:
276,97,147112,2,0,L|293:165,1,50,2|0,0:0|0:0,0:0:0:0:
442,222,147368,2,0,L|469:153,1,50,2|0,0:0|0:0,0:0:0:0:
203,163,147623,2,0,L|218:228,1,50,2|0,0:0|0:0,0:0:0:0:
269,323,147878,6,0,L|150:314,1,100,6|0,3:2|0:0,0:0:0:0:
89,279,148261,1,0,0:0:0:0:
89,279,148389,2,0,P|68:218|99:156,1,100,0|0,3:0|0:0,0:0:0:0:
191,55,148900,2,0,L|335:46,1,100,0|0,3:0|0:0,0:0:0:0:
366,96,149283,1,0,0:0:0:0:
366,96,149410,2,0,L|383:159,1,50,0|0,3:0|0:0,0:0:0:0:
291,241,149666,2,0,L|292:178,1,50
397,248,149921,6,0,P|360:324|268:343,1,150,0|0,3:0|0:0,0:0:0:0:
218,302,150432,1,0,3:0:0:0:
102,164,150687,1,0,0:0:0:0:
102,164,150814,1,0,0:0:0:0:
102,164,150942,1,0,3:0:0:0:
51,336,151197,5,0,0:0:0:0:
218,302,151453,1,0,3:0:0:0:
382,342,151708,1,0,0:0:0:0:
382,342,151963,6,0,P|475:304|492:233,1,150,0|0,3:0|0:0,0:0:0:0:
399,249,152474,2,0,L|403:134,1,100,0|0,3:0|0:0,0:0:0:0:
288,52,152985,2,0,P|265:132|182:179,1,150,0|0,3:0|0:0,0:0:0:0:
62,114,153495,1,0,3:0:0:0:
124,179,153751,1,6,0:0:0:0:
59,242,154006,5,0,3:0:0:0:
153,77,154261,1,0,3:0:0:0:
153,267,154517,1,0,3:0:0:0:
359,267,154772,1,0,3:0:0:0:
256,338,155027,1,0,3:0:0:0:
453,242,155283,1,0,3:0:0:0:
359,77,155538,1,0,3:0:0:0:
359,267,155794,5,0,3:0:0:0:
450,114,156049,1,0,3:0:0:0:
356,176,156304,2,0,L|288:171,5,50,0|0|0|0|0|0,0:0|0:0|0:0|0:0|0:0|0:0,0:0:0:0:
242,263,157070,6,0,L|159:258,1,50,2|0,0:0|0:0,0:0:0:0:
270,121,157325,2,0,L|353:126,1,50,2|0,0:0|0:0,0:0:0:0:
163,111,157580,2,0,P|157:85|161:54,1,50,2|0,0:0|0:0,0:0:0:0:
349,273,157836,2,0,P|355:299|351:330,1,50,2|0,0:0|0:0,0:0:0:0:
245,382,158091,6,0,B|84:361|84:361|47:376,1,150.000005722046,6|0,0:0|0:0,0:0:0:0:
19,260,158474,1,0,0:0:0:0:
133,203,158602,2,0,P|166:120|154:52,2,150.000005722046,10|0|6,0:0|0:0|0:0,0:0:0:0:
339,200,159368,2,0,P|336:240|355:281,1,75.0000028610231,2|0,0:0|0:0,0:0:0:0:
430,144,159623,2,0,P|341:157|266:137,1,150.000005722046,10|0,0:0|0:0,0:0:0:0:
193,53,160006,1,0,0:0:0:0:
93,133,160134,6,0,L|113:301,1,150.000005722046,6|0,0:0|0:0,0:0:0:0:
227,336,160517,1,0,0:0:0:0:
395,237,160644,2,0,L|232:234,1,150.000005722046,10|0,0:0|0:0,0:0:0:0:
227,336,161027,1,0,0:0:0:0:
402,328,161155,2,0,P|478:272|479:256,1,75.0000028610231,6|0,0:0|0:0,0:0:0:0:
388,161,161410,2,0,L|397:259,1,75.0000028610231,6|0,0:0|0:0,0:0:0:0:
228,136,161666,2,0,L|220:38,1,75.0000028610231,10|0,0:0|0:0,0:0:0:0:
27,81,161921,1,0,0:0:0:0:
94,135,162049,1,0,0:0:0:0:
127,214,162176,6,0,P|123:321|85:365,2,150.000005722046,6|0|10,0:0|0:0|0:0,0:0:0:0:
100,352,162942,2,0,L|187:358,1,75.0000028610231,2|0,0:0|0:0,0:0:0:0:
395,319,163197,2,0,P|328:273|220:289,2,150.000005722046,6|0|10,0:0|0:0|0:0,0:0:0:0:
295,380,163836,1,0,0:0:0:0:
395,320,163963,2,0,L|421:157,1,150.000005722046,0|6,0:0|0:0,0:0:0:0:
347,73,164346,5,0,0:0:0:0:
263,159,164474,2,0,P|177:171|92:143,1,150.000005722046,0|10,0:0|0:0,0:0:0:0:
347,73,164985,2,0,L|432:84,1,75.0000028610231
263,160,165240,2,0,P|225:66|254:0,1,150.000005722046,6|0,0:0|0:0,0:0:0:0:
266,289,165623,1,0,0:0:0:0:
267,289,165751,2,0,L|82:267,1,150.000005722046,10|0,0:0|0:0,0:0:0:0:
263,161,166134,1,0,0:0:0:0:
374,229,166261,6,0,P|386:336|352:379,2,150.000005722046,6|0|10,0:0|0:0|0:0,0:0:0:0:
264,160,167027,1,0,0:0:0:0:
267,289,167155,1,0,0:0:0:0:
374,229,167283,2,0,L|473:227,1,75.0000028610231,6|0,0:0|0:0,0:0:0:0:
264,161,167538,2,0,L|180:161|180:161,1,75.0000028610231
65,261,167793,2,0,P|28:184|59:92,1,150.000005722046,10|0,0:0|0:0,0:0:0:0:
160,40,168176,1,0,0:0:0:0:
264,161,168304,6,0,L|457:151,2,150.000005722046,6|0|10,0:0|0:0|0:0,0:0:0:0:
65,260,169070,1,0,0:0:0:0:
124,322,169197,1,0,0:0:0:0:
206,330,169325,2,0,L|302:325,1,75.0000028610231,6|0,0:0|0:0,0:0:0:0:
393,239,169580,2,0,L|307:243,1,75.0000028610231,2|0,0:0|0:0,0:0:0:0:
136,53,169836,2,0,L|233:55,1,75.0000028610231,10|0,0:0|0:0,0:0:0:0:
264,161,170091,2,0,L|171:160,1,75.0000028610231,2|0,0:0|0:0,0:0:0:0:
65,260,170346,5,6,0:0:0:0:
113,183,170474,1,2,0:0:0:0:
146,266,170602,1,2,0:0:0:0:
206,328,170729,1,2,0:0:0:0:
206,328,170857,6,0,P|316:341|365:302,1,150.000005722046,10|0,0:0|0:0,0:0:0:0:
471,255,171240,1,0,0:0:0:0:
349,180,171368,2,0,L|199:243,1,150.000005722046,6|0,0:0|0:0,0:0:0:0:
404,81,171878,1,10,0:0:0:0:
407,272,172134,1,10,0:0:0:0:
407,272,172261,1,0,0:0:0:0:
407,272,172389,6,0,L|345:323,1,75.0000028610231,6|0,0:0|0:0,0:0:0:0:
105,272,172644,2,0,L|167:323,1,75.0000028610231,6|0,0:0|0:0,0:0:0:0:
406,157,172900,2,0,L|347:209,1,75.0000028610231,10|0,0:0|0:0,0:0:0:0:
106,157,173155,2,0,L|165:209,1,75.0000028610231,2|0,0:0|0:0,0:0:0:0:
381,51,173410,2,0,L|308:124,1,75.0000028610231,6|0,0:0|0:0,0:0:0:0:
131,51,173666,2,0,L|204:124,1,75.0000028610231,2|0,0:0|0:0,0:0:0:0:
255,192,173921,2,0,L|256:139,6,37.5000014305115,2|0|0|0|0|0|0,0:0|0:0|0:0|0:0|0:0|0:0|0:0,0:0:0:0:
255,192,174432,6,0,P|361:176|391:122,1,150.000005722046,6|0,0:0|0:0,0:0:0:0:
250,61,174814,1,0,0:0:0:0:
131,141,174942,2,0,L|155:318,1,150.000005722046,10|0,0:0|0:0,0:0:0:0:
366,250,175325,1,0,0:0:0:0:
376,123,175453,2,0,P|280:155|247:229,1,150.000005722046,6|0,0:0|0:0,0:0:0:0:
468,199,175836,1,0,0:0:0:0:
250,61,175963,2,0,P|202:117|128:141,1,150.000005722046,10|0,0:0|0:0,0:0:0:0:
228,340,176346,1,0,0:0:0:0:
228,340,176474,6,0,L|256:184,1,150.000005722046,6|0,0:0|0:0,0:0:0:0:
366,250,176857,1,0,0:0:0:0:
227,341,176985,2,0,P|131:341|91:301,1,150.000005722046,10|0,0:0|0:0,0:0:0:0:
175,112,177368,1,0,0:0:0:0:
318,164,177495,2,0,P|390:124|390:20,2,150.000005722046,6|2|10,0:0|0:0|0:0,0:0:0:0:
176,112,178134,1,0,0:0:0:0:
136,248,178261,2,0,L|160:328,1,75.0000028610231
400,256,178517,6,0,P|304:288|238:246,1,150.000005722046,6|0,0:0|0:0,0:0:0:0:
103,31,179027,1,10,0:0:0:0:
475,77,179283,1,0,0:0:0:0:
240,352,179538,2,0,B|166:364|166:364|80:360,1,150.000005722046,6|0,0:0|0:0,0:0:0:0:
0,64,180049,2,0,P|56:144|120:160,1,150.000005722046,10|0,0:0|0:0,0:0:0:0:
176,112,180432,1,0,0:0:0:0:
176,112,180559,6,0,L|272:136,1,75.0000028610231,6|0,0:0|0:0,0:0:0:0:
304,220,180814,2,0,L|232:240,1,75.0000028610231,2|0,0:0|0:0,0:0:0:0:
352,320,181070,2,0,P|416:256|408:176,1,150.000005722046,10|0,0:0|0:0,0:0:0:0:
281,31,181453,1,0,0:0:0:0:
272,128,181580,2,0,P|208:200|104:184,1,150.000005722046,6|0,0:0|0:0,0:0:0:0:
127,54,181963,1,0,0:0:0:0:
281,31,182091,2,0,P|357:73|371:141,1,150.000005722046,10|0,0:0|0:0,0:0:0:0:
144,166,182474,1,0,0:0:0:0:
234,225,182602,6,0,L|266:393,1,150.000005722046,6|0,0:0|0:0,0:0:0:0:
426,169,182985,1,0,0:0:0:0:
360,96,183112,2,0,P|329:172|362:242,1,150.000005722046,10|0,0:0|0:0,0:0:0:0:
462,75,183495,1,0,0:0:0:0:
360,96,183623,2,0,P|240:112|199:90,1,150.000005722046,6|0,0:0|0:0,0:0:0:0:
78,291,184006,1,0,0:0:0:0:
184,336,184134,2,0,P|256:312|288:248,1,150.000005722046,10|0,0:0|0:0,0:0:0:0:
392,200,184517,1,0,0:0:0:0:
360,96,184644,6,0,P|301:163|221:155,1,150.000005722046,6|0,0:0|0:0,0:0:0:0:
192,48,185027,2,0,L|280:72,1,75.0000028610231,0|10,0:0|0:0,0:0:0:0:
360,96,185283,1,0,0:0:0:0:
392,200,185410,2,0,L|376:304,1,75.0000028610231
257,346,185666,1,6,0:0:0:0:
210,212,185793,2,0,L|280:240,1,75.0000028610231
56,136,186049,1,0,0:0:0:0:
56,136,186176,2,0,B|39:214|39:214|48:304,1,150.000005722046,10|0,0:0|0:0,0:0:0:0:
152,328,186687,5,4,0:0:0:0:
208,176,186814,1,0,0:0:0:0:
248,328,186942,2,0,L|328:338,1,75.0000028610231
280,240,187197,1,8,0:0:0:0:
369,242,187325,1,0,0:0:0:0:
439,173,187453,2,0,L|407:93,1,75.0000028610231
248,64,187708,6,0,P|296:120|296:152,1,100,0|0,3:0|0:0,0:0:0:0:
280,192,188091,1,0,0:0:0:0:
248,232,188219,1,0,3:0:0:0:
208,256,188346,1,0,0:0:0:0:
160,256,188474,1,0,0:0:0:0:
112,232,188602,1,0,0:0:0:0:
88,192,188729,5,0,3:0:0:0:
88,144,188857,1,0,0:0:0:0:
112,104,188985,1,0,0:0:0:0:
152,80,189112,1,0,0:0:0:0:
200,80,189240,1,0,3:0:0:0:
248,104,189368,1,0,0:0:0:0:
296,96,189495,1,0,0:0:0:0:
328,56,189623,1,0,0:0:0:0:
376,48,189751,6,0,L|416:56,10,25,0|0|0|0|0|0|0|0|0|0|0,3:0|0:0|0:0|0:0|0:0|0:0|0:0|0:0|3:0|0:0|0:0,0:0:0:0:
444,147,190517,6,0,L|456:144,8,12.5,0|0|0|0|0|0|0|0|4,0:0|0:0|0:0|0:0|0:0|0:0|0:0|0:0|3:1,0:0:0:0:
416,280,191027,5,2,0:0:0:0:
296,336,191283,1,2,3:2:0:0:
176,296,191538,1,2,0:0:0:0:
176,296,191793,2,0,L|194:209,1,50,2|0,3:2|0:0,0:0:0:0:
185,49,192049,2,0,L|175:133,1,50
74,191,192304,2,0,L|87:115,1,50,2|0,3:2|0:0,0:0:0:0:
289,117,192559,2,0,L|282:168,1,50
353,304,192814,6,0,L|373:179,1,100,2|0,3:2|0:0,0:0:0:0:
186,49,193325,2,0,L|250:81,1,50,2|0,3:2|0:0,0:0:0:0:
357,53,193580,2,0,L|373:109,1,50,2|0,0:0|0:0,0:0:0:0:
463,182,193836,2,0,L|456:232,1,50,2|2,3:2|0:0,0:0:0:0:
352,304,194091,2,0,L|368:352,1,50,2|0,0:0|0:0,0:0:0:0:
216,296,194346,1,2,3:2:0:0:
216,296,194474,2,0,L|160:304,2,50
216,296,194857,5,2,3:2:0:0:
296,96,195112,1,2,0:0:0:0:
352,304,195368,1,2,3:2:0:0:
184,168,195623,1,2,0:0:0:0:
400,180,195878,2,0,L|432:44,1,100,2|2,3:2|0:0,0:0:0:0:
62,145,196389,2,0,P|87:248|175:288,1,200,2|2,3:2|3:2,0:0:0:0:
352,304,197155,6,0,L|408:264,1,50,2|0,0:0|0:0,0:0:0:0:
336,168,197410,2,0,L|400:184|400:184,1,50,2|2,3:2|0:0,0:0:0:0:
400,56,197666,2,0,L|440:104,1,50,2|0,0:0|0:0,0:0:0:0:
176,56,197921,2,0,L|248:32,2,50,2|2|2,3:2|0:0|0:0,0:0:0:0:
184,168,198304,1,2,0:0:0:0:
80,224,198432,2,0,L|24:200,2,50,2|2|2,3:2|0:0|0:0,0:0:0:0:
136,320,198814,1,2,0:0:0:0:
136,320,198942,6,2,B|176:312|208:296|208:296|237:333|284:347|344:328,1,200,6|2,3:2|3:2,0:0:0:0:
448,200,199708,1,2,0:0:0:0:
364,182,199836,1,2,0:0:0:0:
389,263,199963,1,2,3:2:0:0:
464,88,200219,1,2,0:0:0:0:
256,144,200474,1,2,3:2:0:0:
256,144,200729,1,2,0:0:0:0:
256,144,200985,6,0,P|176:160|72:72,1,200,6|0,3:2|3:2,0:0:0:0:
240,248,201751,1,2,0:0:0:0:
320,320,201878,1,2,0:0:0:0:
216,352,202006,1,2,3:2:0:0:
96,224,202261,1,2,0:0:0:0:
352,200,202517,1,2,3:2:0:0:
352,200,202602,2,0,L|396:167,2,33.3333333333333,2|2|2,0:0|0:0|0:0,0:0:0:0:
256,144,202900,1,2,0:0:0:0:
184,64,203027,6,0,P|272:32|368:128,1,200,6|0,3:2|3:2,0:0:0:0:
348,254,203666,1,2,0:0:0:0:
216,352,203793,2,0,P|168:288|248:168,1,200,6|0,0:0|0:0,0:0:0:0:
432,248,204559,5,2,3:2:0:0:
264,264,204687,1,2,0:0:0:0:
90,285,204814,2,0,P|114:167|199:111,1,200,6|0,3:2|0:0,0:0:0:0:
264,96,205453,1,0,0:0:0:0:
264,96,205580,6,0,L|253:31,1,50
361,157,205836,2,0,L|376:81,1,50
216,230,206091,2,0,L|208:161,1,50,2|0,0:0|0:0,0:0:0:0:
394,164,206346,2,0,L|384:89,1,50,0|0,0:0|0:0,0:0:0:0:
254,254,206602,2,0,L|254:192,1,50
435,175,206857,2,0,L|423:101,1,50
291,274,207112,5,2,0:0:0:0:
320,74,218346,6,0,L|509:88,1,174.000005310059,2|2,0:0|0:0,0:0:0:0:
344,160,219368,38,0,B|240:176|229:62|229:62|272:352|216:432|24:416|-16:272|64:144|236:237|328:312|344:368,1,928.000028320313,2|2,0:0|3:2,0:0:0:0:
39,78,224474,6,0,L|33:56,7,18.7500007152558,0|0|0|0|0|0|0|0,0:0|0:0|0:0|0:0|0:0|0:0|0:0|0:0,0:0:0:0:
80,152,224985,6,0,L|76:169,9,12.5000004768372,0|0|0|0|0|0|0|0|0|0,0:0|0:0|0:0|0:0|0:0|0:0|0:0|0:0|0:0|0:0,0:0:0:0:
80,152,225495,6,0,P|152:168|208:144,1,119.999996337891,4|0,1:0|0:0,0:0:0:0:
238,69,225878,2,0,L|318:66,1,59.9999981689454
416,208,226261,2,0,L|392:328,1,119.999996337891
312,384,226644,2,0,L|304:248,1,119.999996337891
240,152,227027,2,0,L|216:288,1,119.999996337891
80,152,227538,6,0,P|112:80|168:64,1,119.999996337891
240,152,227921,2,0,P|328:144|368:120,1,119.999996337891
440,47,228304,1,0,0:0:0:0:
512,218,228559,2,0,L|505:374,2,119.999996337891,0|0|0,0:0|0:0|0:0,0:0:0:0:
137,330,229325,1,0,0:0:0:0:
137,330,229453,1,0,0:0:0:0:
137,330,229580,5,4,1:0:0:0:
80,96,230346,1,0,0:0:0:0:
152,0,230602,1,0,0:0:0:0:
248,72,230857,2,0,P|240:152|208:184,1,119.999996337891
75,271,231368,2,0,B|120:262|120:262|180:313|264:297|264:297|296:325,1,239.999992675781
432,32,232389,5,0,0:0:0:0:
432,32,232517,1,0,0:0:0:0:
432,32,232644,2,0,L|416:176,1,119.999996337891
400,256,233155,1,0,0:0:0:0:
312,256,233410,1,0,0:0:0:0:
240,208,233666,5,4,1:0:0:0:
240,208,234432,1,0,0:0:0:0:
240,208,234559,1,0,0:0:0:0:
240,208,234687,1,0,3:0:0:0:
95,273,234942,2,0,B|63:193|151:137,1,119.999996337891
240,208,235453,1,0,0:0:0:0:
384,303,235708,6,0,B|448:255|424:183|424:183|384:159|368:87,1,239.999992675781,4|0,1:0|0:0,0:0:0:0:
370,98,236474,1,0,0:0:0:0:
374,104,236602,1,0,0:0:0:0:
379,108,236729,2,0,L|236:121,1,119.999996337891,0|0,3:0|0:0,0:0:0:0:
121,191,237240,2,0,L|279:214,1,119.999996337891,0|0,3:0|0:0,0:0:0:0:
382,303,237751,6,0,L|225:327,1,119.999996337891,4|0,1:0|0:0,0:0:0:0:
152,296,238134,1,0,0:0:0:0:
152,296,238261,2,0,L|128:208,1,59.9999981689454,0|0,3:0|0:0,0:0:0:0:
248,104,238517,1,0,0:0:0:0:
248,104,238644,1,0,0:0:0:0:
248,104,238772,2,0,B|264:184|376:176|368:176,2,119.999996337891,0|0|0,3:0|0:0|3:0,0:0:0:0:
184,2,239538,1,0,0:0:0:0:
82,63,239793,5,0,3:0:0:0:
74,119,239921,1,0,0:0:0:0:
90,167,240049,1,0,0:0:0:0:
130,199,240176,1,0,0:0:0:0:
186,199,240304,1,0,3:0:0:0:
234,215,240432,1,0,0:0:0:0:
266,263,240559,1,0,0:0:0:0:
258,319,240687,1,0,0:0:0:0:
215,358,240814,6,0,L|210:326,21,19.9999993896485,0|0|0|0|0|0|0|0|0|0|0|0|0|0|0|0|0|0|0|0|0|0,3:0|0:0|0:0|0:0|0:0|0:0|0:0|0:0|0:0|0:0|0:0|0:0|3:0|0:0|0:0|0:0|0:0|0:0|0:0|0:0|0:0|0:0,0:0:0:0:
216,357,241836,6,0,P|320:353|382:296,1,179.999994506836,6|0,0:0|0:0,0:0:0:0:
365,165,242219,1,0,0:0:0:0:
236,89,242346,2,0,B|237:155|237:155|220:222|220:222|222:275,2,179.999994506836,10|0|6,0:0|0:0|0:0,0:0:0:0:
375,77,242985,1,0,0:0:0:0:
375,77,243112,2,0,B|379:113|379:113|365:165,1,89.9999972534181
440,332,243368,2,0,B|432:242|432:242|457:156,1,179.999994506836,10|0,0:0|0:0,0:0:0:0:
251,250,243751,1,0,0:0:0:0:
178,345,243878,6,0,L|-23:320,2,179.999994506836,6|0|10,0:0|0:0|0:0,0:0:0:0:
336,241,244517,2,0,P|292:234|251:250,1,89.9999972534181
308,360,244771,1,0,0:0:0:0:
427,331,244900,2,0,P|465:256|430:152,1,179.999994506836,6|2,0:0|0:0,0:0:0:0:
314,102,245283,1,0,0:0:0:0:
241,160,245410,2,0,L|251:250,1,89.9999972534181,10|0,0:0|0:0,0:0:0:0:
189,85,245666,1,0,0:0:0:0:
103,61,245793,1,0,0:0:0:0:
18,92,245921,5,6,0:0:0:0:
183,332,246176,1,0,0:0:0:0:
189,85,246432,1,10,0:0:0:0:
0,258,246687,1,0,0:0:0:0:
299,367,246942,2,0,P|369:301|352:184,1,179.999994506836,6|0,0:0|0:0,0:0:0:0:
282,61,247325,1,0,0:0:0:0:
209,185,247453,2,0,L|2:174,2,179.999994506836,10|0|6,0:0|0:0|0:0,0:0:0:0:
209,185,248091,5,0,0:0:0:0:
209,185,248219,2,0,L|194:90,1,89.9999972534181
118,277,248474,2,0,P|221:311|238:304,1,89.9999972534181,10|0,0:0|0:0,0:0:0:0:
403,279,248729,2,0,P|346:263|268:289,1,89.9999972534181
353,359,248985,2,0,P|450:361|493:257,1,179.999994506836,6|0,0:0|0:0,0:0:0:0:
470,151,249368,1,0,0:0:0:0:
403,279,249495,2,0,L|220:267,1,179.999994506836,10|0,0:0|0:0,0:0:0:0:
116,170,249878,1,0,0:0:0:0:
1,257,250006,6,0,L|8:361,1,89.9999972534181,6|0,0:0|0:0,0:0:0:0:
116,170,250261,2,0,L|113:70,1,89.9999972534181,6|0,0:0|0:0,0:0:0:0:
120,277,250517,2,0,P|206:218|214:131,2,179.999994506836,10|0|6,0:0|0:0|0:0,0:0:0:0:
403,279,251283,1,0,0:0:0:0:
392,40,251538,2,0,L|288:40,1,89.9999972534181,10|0,0:0|0:0,0:0:0:0:
182,153,251793,1,0,0:0:0:0:
182,153,251921,2,0,L|278:153,1,89.9999972534181,0|6,0:0|0:0,0:0:0:0:
121,275,252176,5,0,0:0:0:0:
121,275,252304,2,0,L|217:275,1,89.9999972534181
392,353,252559,2,0,P|424:233|378:169,1,179.999994506836,10|0,0:0|0:0,0:0:0:0:
192,40,252942,1,0,0:0:0:0:
192,40,253070,2,0,L|312:64,1,89.9999972534181,6|0,0:0|0:0,0:0:0:0:
496,176,253325,1,0,0:0:0:0:
496,176,253453,2,0,L|389:188,1,89.9999972534181,0|10,0:0|0:0,0:0:0:0:
122,275,253708,1,0,0:0:0:0:
122,275,253836,2,0,B|235:291|233:291,1,89.9999972534181
328,312,254091,5,6,0:0:0:0:
392,216,254219,1,2,0:0:0:0:
312,136,254346,1,2,0:0:0:0:
216,200,254474,1,2,0:0:0:0:
120,136,254602,5,10,0:0:0:0:
152,24,254729,1,2,0:0:0:0:
272,24,254857,2,0,L|376:24|368:24,1,89.9999972534181
312,135,255112,2,0,L|415:153,1,89.9999972534181,6|0,0:0|0:0,0:0:0:0:
216,200,255368,2,0,L|214:309,1,89.9999972534181
120,136,255623,2,0,L|17:154,1,89.9999972534181,10|0,0:0|0:0,0:0:0:0:
312,134,255878,2,0,L|415:152,1,89.9999972534181,2|0,0:0|0:0,0:0:0:0:
314,258,256134,6,0,L|313:368,1,89.9999972534181,0|0,3:0|3:0,0:0:0:0:
119,354,256389,2,0,L|118:264,1,89.9999972534181,0|0,3:0|3:0,0:0:0:0:
216,200,256644,1,0,3:0:0:0:
216,200,256772,1,0,3:0:0:0:
216,200,256900,2,0,L|218:327,1,89.9999972534181,0|0,3:0|0:0,0:0:0:0:
313,347,257155,2,0,L|314:258,1,89.9999972534181
209,373,257410,5,0,3:0:0:0:
186,371,257474,1,0,3:0:0:0:
165,362,257538,1,0,3:0:0:0:
145,350,257602,1,0,3:0:0:0:
134,332,257666,6,0,L|130:291,5,29.9999990844727,0|0|0|0|0|0,3:0|0:0|0:0|0:0|0:0|0:0,0:0:0:0:
117,292,257921,2,0,L|127:240,1,29.9999990844727
105,264,258006,2,0,L|111:218,1,29.9999990844727
77,249,258091,2,0,L|87:207,1,29.9999990844727
52,250,258176,5,4,1:0:0:0:
209,298,258432,1,0,0:0:0:0:
354,267,258687,2,0,P|450:226|457:163,1,125,10|0,0:0|0:0,0:0:0:0:
407,97,259070,1,0,0:0:0:0:
407,97,259197,2,0,L|323:93,1,62.5,6|0,0:0|0:0,0:0:0:0:
195,144,259453,2,0,L|261:155,1,62.5,0|0,1:0|0:0,0:0:0:0:
74,192,259708,2,0,L|255:182,1,125,10|0,0:0|0:0,0:0:0:0:
292,273,260091,1,0,0:0:0:0:
292,273,260219,6,0,L|383:265,1,62.5,6|0,0:0|0:0,0:0:0:0:
408,348,260474,2,0,L|485:342,1,62.5,4|0,0:0|0:0,0:0:0:0:
280,367,260729,2,0,P|206:320|197:253,1,125,10|0,0:0|0:0,0:0:0:0:
85,196,261112,1,0,0:0:0:0:
85,196,261240,6,0,L|77:320,1,100,6|0,0:0|0:0,0:0:0:0:
194,144,261623,1,0,0:0:0:0:
194,144,261751,2,0,L|201:38,1,100,10|0,0:0|0:0,0:0:0:0:
446,188,262261,2,0,P|441:284|425:304,2,100,4|4|10,1:0|0:0|0:0,0:0:0:0:
259,242,263027,1,0,0:0:0:0:
259,242,263155,1,0,0:0:0:0:
259,242,263283,2,0,L|342:237,1,50,6|0,0:0|0:0,0:0:0:0:
202,326,263538,2,0,L|110:327,1,50,4|0,0:0|0:0,0:0:0:0:
54,353,263793,6,0,B|66:304|66:304|51:217,1,100,10|0,0:0|0:0,0:0:0:0:
124,173,264176,1,0,0:0:0:0:
124,173,264304,2,0,L|144:269,1,50,6|0,0:0|0:0,0:0:0:0:
202,325,264559,2,0,L|187:256,1,50,4|0,0:0|0:0,0:0:0:0:
256,200,264814,2,0,L|236:120,1,50,10|0,0:0|0:0,0:0:0:0:
316,78,265070,5,0,0:0:0:0:
123,149,265325,1,4,0:0:0:0:
126,194,265708,1,0,0:0:0:0:
129,232,266091,2,0,L|137:344,1,100,0|4,0:0|0:0,0:0:0:0:
376,256,266602,1,0,0:0:0:0:
376,256,266857,2,0,P|312:280|272:264,1,100,10|0,0:0|0:0,0:0:0:0:
379,147,267368,2,0,L|439:150,1,50,2|0,0:0|0:0,0:0:0:0:
338,53,267623,2,0,L|258:70,1,50,2|0,0:0|0:0,0:0:0:0:
206,144,267878,2,0,P|132:126|88:75,1,100,10|0,0:0|0:0,0:0:0:0:
88,232,268389,6,0,L|91:347,1,100,6|0,0:0|0:0,0:0:0:0:
243,363,268900,2,0,L|236:245,1,100,10|0,0:0|0:0,0:0:0:0:
384,288,269410,1,0,3:0:0:0:
384,288,269921,1,0,3:0:0:0:
448,216,270176,6,0,L|452:184,6,16.6666666666667,0|0|0|0|0|0|4,0:0|0:0|0:0|0:0|0:0|0:0|1:0,0:0:0:0:
256,192,270559,12,0,274517,0:0:0:0:
