osu file format v12

[General]
AudioFilename: 23.Stardust Melodia (TV Size).mp3
AudioLeadIn: 1996
PreviewTime: 57071
Countdown: 0
SampleSet: Soft
StackLeniency: 0.7
Mode: 0
LetterboxInBreaks: 0

[Editor]
DistanceSpacing: 1
BeatDivisor: 4
GridSize: 4

[Metadata]
Title:Stardust Melodia (TV Size)
TitleUnicode:Stardust Melodia (TV Size)
Artist:Ceui
ArtistUnicode:Ceui
Creator:Lanturn
Version:Easy
Source:Kyoukai Senjou no Horizon
Tags:in the Middle of Nowhere ending
BeatmapID:170229
BeatmapSetID:56272

[Difficulty]
HPDrainRate:2
CircleSize:2
OverallDifficulty:2
ApproachRate:3
SliderMultiplier:1.20000000596046
SliderTickRate:2

[Events]
//Background and Video events
Video,-1306,"melodia.avi"
0,0,"stardust melodia.jpg",0,0
//Break Periods
//Storyboard Layer 0 (Background)
//Storyboard Layer 1 (Fail)
//Storyboard Layer 2 (Pass)
//Storyboard Layer 3 (Foreground)
//Storyboard Sound Samples
//Background Colour Transformations
3,100,128,255,255

[TimingPoints]
670,571.428571428571,4,2,0,60,1,0
7527,-100,4,1,0,30,0,0
7669,-100,4,2,0,60,0,0
10812,-100,4,1,0,30,0,0
11527,-100,4,1,0,35,0,0
11955,-100,4,1,0,40,0,0
12241,-100,4,2,0,60,0,0
13669,-100,4,1,0,40,0,0
13955,-100,4,2,0,60,0,0
16098,-100,4,1,0,40,0,0
16241,-100,4,2,0,60,0,0
18384,-100,4,1,0,40,0,0
18527,-100,4,2,0,60,0,0
20669,-100,4,1,0,40,0,0
20812,-100,4,2,0,60,0,0
21241,-100,4,2,0,40,0,0
30384,-100,4,2,0,60,0,0
38955,-100,4,1,0,40,0,0
39669,-100,4,2,0,60,0,0
41098,-100,4,1,0,40,0,0
41384,-100,4,2,0,60,0,0
43527,-100,4,1,0,40,0,0
43669,-100,4,2,0,60,0,0
45812,-100,4,1,0,40,0,0
45955,-100,4,2,0,60,0,0
48098,-100,4,1,0,40,0,0
48241,-100,4,2,0,60,0,0
48669,-100,4,1,0,50,0,0
48812,-100,4,2,0,60,0,0
50384,-100,4,1,0,40,0,0
50527,-100,4,2,0,60,0,0
52669,-100,4,1,0,40,0,0
52812,-100,4,2,0,60,0,0
53241,-100,4,1,0,40,0,0
53384,-100,4,2,0,60,0,0
54384,-100,4,1,0,40,0,0
54527,-100,4,2,0,60,0,0
55527,-100,4,1,0,30,0,0
55669,-100,4,2,0,60,0,0
56669,-100,4,1,0,40,0,0
57812,-100,4,1,0,55,0,1
57955,-100,4,2,0,75,0,1
59527,-100,4,1,0,55,0,1
59669,-100,4,2,0,75,0,1
61812,-100,4,1,0,55,0,1
61955,-100,4,2,0,75,0,1
64098,-100,4,1,0,55,0,1
64241,-100,4,2,0,75,0,1
65812,-100,4,1,0,55,0,1
67098,-100,4,2,0,75,0,1
68669,-100,4,1,0,55,0,1
68812,-100,4,2,0,75,0,1
70955,-100,4,1,0,55,0,1
71098,-100,4,2,0,75,0,1
73241,-100,4,1,0,55,0,1
73384,-100,4,2,0,75,0,1
75241,-100,4,1,0,55,0,1
76098,-100,4,1,0,40,0,0
76241,-100,4,2,0,60,0,0
77812,-100,4,1,0,40,0,0
77955,-100,4,2,0,60,0,0
80098,-100,4,1,0,40,0,0
80241,-100,4,2,0,60,0,0
82384,-100,4,1,0,40,0,0
82527,-100,4,2,0,60,0,0
84669,-100,4,1,0,40,0,0
85384,-100,4,2,0,60,0,0
86955,-100,4,1,0,40,0,0
87098,-100,4,2,0,60,0,0
89241,-100,4,1,0,40,0,0
89384,-100,4,2,0,60,0,0
91527,-100,4,1,0,40,0,0
91669,-100,4,2,0,60,0,0
93527,-100,4,1,0,40,0,0
94241,-100,4,2,0,30,0,0
96527,-100,4,2,0,5,0,0

[Colours]
Combo1 : 209,142,82
Combo2 : 150,200,100
Combo3 : 208,111,111
Combo4 : 205,224,67
SliderBorder : 179,179,179

[HitObjects]
184,332,670,2,0,P|72:256|56:156,1,240.000001192092,2|0,0:0|0:0,0:0:0:0:
140,76,2384,1,0,0:0:0:0:
256,44,2955,1,2,0:0:0:0:
372,76,3527,1,0,0:0:0:0:
456,160,4098,6,0,P|439:256|327:332,1,240.000001192092,2|2,0:0|0:0,0:0:0:0:
220,280,5812,1,2,0:0:0:0:
152,180,6384,2,0,P|117:195|84:196,2,60.000000298023,2|2|2,0:0|0:0|0:0,0:0:0:0:
224,84,7527,6,0,B|316:36|376:136|456:80,2,240.000001192092,4|0|2,0:0|0:0|0:0,0:0:0:0:
220,204,10384,1,2,0:0:0:0:
340,204,10955,2,0,P|368:208|416:204,4,60.000000298023,0|0|0|0|4,0:0|0:0|0:0|0:0|0:0,0:0:0:0:
320,324,12670,5,2,0:0:0:0:
200,316,13241,2,0,P|144:336|84:324,2,120.000000596046,0|0|2,0:0|0:0|0:0,0:0:0:0:
308,264,14955,1,2,0:0:0:0:
400,188,15527,2,0,P|436:152|436:64,2,120.000000596046,2|0|2,0:0|0:0|0:0,0:0:0:0:
288,144,17241,5,0,0:0:0:0:
308,264,17812,2,0,P|344:300|428:308,2,120.000000596046,2|0|2,0:0|0:0|0:0,0:0:0:0:
188,256,19527,1,0,0:0:0:0:
88,188,20098,2,0,P|95:126|152:80,1,120.000000596046,2|0,0:0|0:0,0:0:0:0:
249,52,21241,5,2,0:0:0:0:
364,84,21812,1,0,0:0:0:0:
440,176,22384,2,0,B|468:240|416:296,1,120.000000596046,2|0,0:0|0:0,0:0:0:0:
304,272,23527,2,0,B|225:272|225:272|132:312|54:264,1,240.000001192092,2|2,0:0|0:0,0:0:0:0:
154,187,25241,5,0,0:0:0:0:
69,102,25812,2,0,B|131:62|224:102|224:102|303:102,1,240.000001192092,2|2,0:0|0:0,0:0:0:0:
379,330,28098,2,0,P|423:310|459:238,2,120.000000596046,2|0|0,0:0|0:0|0:0,0:0:0:0:
140,292,30384,6,0,B|37:179|147:72,1,240.000001192092,2|0,0:0|0:0,0:0:0:0:
256,52,32098,1,0,0:0:0:0:
372,79,32669,2,0,B|475:179|372:292,1,240.000001192092,2|0,0:0|0:0,0:0:0:0:
264,340,34384,1,0,0:0:0:0:
148,316,34955,5,2,0:0:0:0:
140,76,36098,2,0,B|220:76|256:52|256:52|292:76|372:76,1,240.000001192092,2|2,0:0|0:0,0:0:0:0:
362,199,37812,1,2,0:0:0:0:
256,256,38384,1,2,0:0:0:0:
150,199,38955,1,0,0:0:0:0:
248,116,39527,6,0,B|284:52|284:52|328:120|328:120|384:116|384:116|328:185|328:185|356:256,1,360.000001788138,4|0,0:0|0:0,0:0:0:0:
350,241,41812,2,0,B|283:215|283:215|215:239|215:239|235:176|235:176|182:111|182:111|262:117,1,360.000001788138,2|0,0:0|0:0,0:0:0:0:
360,73,44098,5,2,0:0:0:0:
433,168,44670,2,0,B|473:216|433:288,2,120.000000596046,2|0|0,0:0|0:0|0:0,0:0:0:0:
360,73,46384,1,2,0:0:0:0:
240,64,46955,2,0,L|164:48,2,60.000000298023,2|0|0,0:0|0:0|0:0,0:0:0:0:
198,176,48098,1,0,0:0:0:0:
84,140,48670,6,0,B|72:288|196:356,1,240.000001192092,4|2,0:0|0:0,0:0:0:0:
256,254,50384,1,0,0:0:0:0:
332,346,50955,2,0,B|440:288|428:140,1,240.000001192092,2|2,0:0|0:0,0:0:0:0:
340,60,52670,1,0,0:0:0:0:
221,76,53241,6,0,B|165:76|165:76|101:68|101:68|129:120|129:120|129:192,1,240.000001192092,4|0,0:0|0:0,0:0:0:0:
144,300,54955,2,0,P|172:328|260:352,1,120.000000596046,0|4,0:0|0:0,0:0:0:0:
260,232,56098,2,0,P|335:208|363:180,1,120.000000596046,0|0,0:0|0:0,0:0:0:0:
328,64,57241,2,0,P|356:44|400:32,2,60.000000298023,0|0|4,0:0|0:0|0:0,0:0:0:0:
236,144,58384,6,0,B|196:204|240:264,1,120.000000596046,0|2,0:0|0:0,0:0:0:0:
356,264,59527,1,0,0:0:0:0:
432,172,60098,2,0,P|388:72|244:68,1,240.000001192092,2|2,0:0|0:0,0:0:0:0:
204,156,61812,1,0,0:0:0:0:
101,218,62384,6,0,B|59:163|103:83,2,120.000000596046,2|0|2,0:0|0:0|0:0,0:0:0:0:
212,260,64098,1,0,0:0:0:0:
332,268,64670,2,0,B|396:284|456:256,2,120.000000596046,2|0|0,0:0|0:0|0:0,0:0:0:0:
380,158,66384,6,0,P|408:134|456:123,2,60.000000298023,0|0|4,0:0|0:0|0:0,0:0:0:0:
261,174,67527,1,0,0:0:0:0:
164,244,68098,2,0,B|124:304|48:296,2,120.000000596046,2|0|2,0:0|0:0|0:0,0:0:0:0:
172,124,69812,5,2,0:0:0:0:
256,39,70384,1,2,0:0:0:0:
340,123,70955,1,0,0:0:0:0:
390,232,71527,2,0,P|374:280|298:316,1,120.000000596046,2|0,0:0|0:0,0:0:0:0:
197,315,72670,2,0,P|140:279|124:231,1,120.000000596046,2|0,0:0|0:0,0:0:0:0:
169,120,73812,5,2,0:0:0:0:
256,204,74384,1,2,0:0:0:0:
343,120,74955,1,2,0:0:0:0:
413,223,75527,2,0,B|489:223,2,60.000000298023,0|0|4,0:0|0:0|0:0,0:0:0:0:
395,341,76670,5,2,0:0:0:0:
276,340,77241,1,2,0:0:0:0:
156,336,77812,1,0,0:0:0:0:
96,232,78384,2,0,P|63:176|83:104,1,120.000000596046,2|0,0:0|0:0,0:0:0:0:
155,38,79527,2,0,P|189:95|169:167,1,120.000000596046,2|0,0:0|0:0,0:0:0:0:
182,265,80670,5,2,0:0:0:0:
420,244,81812,2,0,P|442:173|408:126,1,120.000000596046,2|0,0:0|0:0,0:0:0:0:
307,101,82955,2,0,B|252:151|252:151|252:246|252:246|313:297,1,240.000001192092,2|0,0:0|0:0,0:0:0:0:
376,192,84670,2,0,L|456:192,2,60.000000298023,0|0|4,0:0|0:0|0:0,0:0:0:0:
332,80,85812,5,2,0:0:0:0:
240,156,86384,1,2,0:0:0:0:
172,60,86955,2,0,B|108:35|56:48|56:48|32:112|68:172,1,240.000001192092,0|2,0:0|0:0,0:0:0:0:
56,284,88670,1,2,0:0:0:0:
164,335,89241,1,0,0:0:0:0:
240,244,89812,6,0,B|312:248|352:324,2,120.000000596046,2|0|2,0:0|0:0|0:0,0:0:0:0:
132,192,91527,1,0,0:0:0:0:
240,140,92098,2,0,B|312:136|352:60,2,120.000000596046
132,192,93812,1,0,0:0:0:0:
256,192,94384,12,2,98669,0:0:0:0:
