osu file format v13

[General]
AudioFilename: 1.mp3
AudioLeadIn: 0
PreviewTime: 56714
Countdown: 1
SampleSet: Normal
StackLeniency: 0.7
Mode: 0
LetterboxInBreaks: 1
WidescreenStoryboard: 0

[Editor]
DistanceSpacing: 1
BeatDivisor: 2
GridSize: 4
TimelineZoom: 1

[Metadata]
Title:Stardust Melodia
TitleUnicode:Stardust Melodia
Artist:Ceui
ArtistUnicode:Ceui
Creator:Sonnyc
Version:Natsu's Normal
Source:境界線上のホライゾン
Tags:Asgard Natsu Kyoukai Senjou no Horizon In the middle of nowhere Ending Odaka Kotaro セイ Labyrinthus
BeatmapID:387847
BeatmapSetID:157360

[Difficulty]
HPDrainRate:3
CircleSize:3
OverallDifficulty:3
ApproachRate:4
SliderMultiplier:1
SliderTickRate:1

[Events]
//Background and Video events
0,0,"3.jpg",0,0
//Break Periods
2,84521,89993
2,150381,166974
2,186608,204899
//Storyboard Layer 0 (Background)
//Storyboard Layer 1 (Fail)
//Storyboard Layer 2 (Pass)
//Storyboard Layer 3 (Foreground)
//Storyboard Sound Samples
//Background Colour Transformations
3,100,163,162,255

[TimingPoints]
5276,566.037735849057,4,2,0,100,1,0
21125,-100,4,2,99,60,0,0
35276,-100,4,2,98,50,0,0
35417,-100,4,2,99,60,0,0
36408,-100,4,2,98,50,0,0
36549,-100,4,2,99,60,0,0
39238,-100,4,1,99,60,0,0
46596,-100,4,1,98,50,0,0
46738,-100,4,1,99,60,0,0
57351,-100,4,1,99,60,0,1
61596,-100,4,1,99,60,0,0
66408,-100,4,1,99,60,0,1
74332,-100,4,1,99,60,0,0
75464,-100,4,2,99,60,0,0
75606,-100,4,2,99,40,0,0
91313,-100,4,2,99,50,0,0
104332,-100,4,2,98,40,0,0
104474,-100,4,2,99,50,0,0
109426,-100,4,1,99,60,0,0
114521,-100,4,1,98,50,0,0
114662,-100,4,1,99,60,0,0
116785,-100,4,1,98,50,0,0
116926,-100,4,1,99,60,0,0
119049,-100,4,1,98,50,0,0
119191,-100,4,1,99,60,0,0
123577,-100,4,1,98,50,0,0
123719,-100,4,1,99,60,0,0
127540,-100,4,1,99,60,0,1
129238,-100,4,1,98,50,0,1
129379,-100,4,1,99,60,0,1
131785,-100,4,1,99,60,0,0
136596,-100,4,1,99,60,0,1
138294,-100,4,1,98,50,0,1
138436,-100,4,1,99,60,0,1
140559,-100,4,1,98,50,0,1
140700,-100,4,1,99,60,0,1
142823,-100,4,1,98,50,0,1
142964,-100,4,1,99,60,0,1
143955,-100,4,1,98,50,0,1
144096,-100,4,1,99,60,0,1
144521,-100,4,1,99,60,0,0
145087,-100,4,1,98,50,0,0
145228,-100,4,1,99,60,0,0
145653,-100,4,2,99,40,0,0
150181,-100,4,2,99,70,0,0
168294,-100,4,2,99,60,0,0
169992,-100,4,2,98,50,0,0
170134,-100,4,2,99,60,0,0
172257,-100,4,2,98,50,0,0
172398,-100,4,2,99,60,0,0
179049,-100,4,2,98,50,0,0
179191,-100,4,2,99,60,0,0
181313,-100,4,2,98,50,0,0
181455,-100,4,2,99,60,0,0
183577,-100,4,2,98,50,0,0
183719,-100,4,2,99,60,0,0
186409,-100,4,2,99,80,0,0
206219,-100,4,2,99,50,0,0
210323,-100,4,2,99,25,0,0
213011,-100,4,2,99,50,0,0
213577,-100,4,1,99,60,0,0
215842,-100,4,1,99,60,0,1
217823,-100,4,1,99,60,0,0
219804,-100,4,1,98,50,0,0
219945,-100,4,1,99,60,0,0
222634,-100,4,1,99,60,0,1
224332,-100,4,1,98,50,0,1
224474,-100,4,1,99,60,0,1
228860,-100,4,1,98,50,0,1
229002,-100,4,1,99,60,0,1
230559,-100,4,1,99,60,0,0
231691,-100,4,1,99,60,0,1
240181,-100,4,1,99,60,0,0
240747,-100,4,1,99,60,0,1
249804,-100,4,2,99,40,0,0
249945,-100,4,2,99,30,0,0
254332,-100,4,2,99,40,0,0

[Colours]
Combo1 : 255,255,215
Combo2 : 200,255,200
Combo3 : 170,170,255
Combo4 : 255,172,255

[HitObjects]
112,144,21125,6,0,P|160:148|212:120,1,100,4|0,0:0|0:0,0:0:0:0:
304,124,22257,2,0,P|348:145|397:141,1,100,2|0,0:0|0:0,0:0:0:0:
368,48,23389,1,2,0:0:0:0:
268,32,23955,1,0,0:0:0:0:
188,92,24521,2,0,P|170:49|171:18,2,75,2|0|0,0:0|0:0|0:0,0:0:0:0:
228,124,25653,6,0,P|264:160|272:224,2,100,2|0|2,0:0|0:0|0:0,0:0:0:0:
176,208,27351,1,0,0:0:0:0:
88,256,27917,2,0,P|76:216|88:168,2,75,2|0|0,0:0|0:0|0:0,0:0:0:0:
116,296,29049,1,2,0:0:0:0:
256,356,29899,5,0,0:0:0:0:
256,356,30181,2,0,P|300:340|328:292,1,100,2|0,2:0|0:0,0:0:0:0:
424,276,31313,2,0,P|408:232|360:204,1,100,2|8,0:0|0:0,0:0:0:0:
266,203,32445,1,2,0:0:0:0:
116,208,33294,1,0,0:0:0:0:
116,208,33577,2,0,P|120:156|152:112,1,100,2|8,0:0|0:0,0:0:0:0:
228,60,34709,6,0,B|256:96|240:152|240:152|293:157,1,150,2|0,0:0|0:0,0:0:0:0:
344,160,35842,2,0,L|440:164,2,75,2|0|0,0:0|0:0|0:0,0:0:0:0:
293,158,36974,1,2,0:0:0:0:
192,160,37540,1,8,0:0:0:0:
160,256,38106,1,2,0:0:0:0:
244,312,38672,1,8,0:0:0:0:
328,256,39238,6,0,P|376:248|412:208,1,100,4|8,0:0|0:0,0:0:0:0:
512,212,40370,2,0,P|504:164|464:128,1,100,2|8,2:0|0:0,0:0:0:0:
468,28,41502,2,0,P|420:36|384:76,1,100,2|8,2:0|0:0,0:0:0:0:
284,76,42634,2,0,P|292:124|332:160,1,100,2|8,2:0|0:0,0:0:0:0:
428,152,43766,6,0,P|424:200|384:240,1,100,4|8,0:0|0:0,0:0:0:0:
292,244,44898,2,0,L|180:248,1,100,2|8,2:0|0:0,0:0:0:0:
136,164,46030,2,0,L|40:168,2,75,2|0|0,2:0|0:0|0:0,0:0:0:0:
188,164,47163,1,0,0:0:0:0:
256,296,48011,5,0,0:0:0:0:
256,296,48294,2,0,B|368:296,2,100,4|8|2,0:0|0:0|2:0,0:0:0:0:
160,320,49992,1,8,0:0:0:0:
80,260,50559,2,0,P|96:208|144:172,1,100,2|8,2:0|0:0,0:0:0:0:
224,204,51691,2,0,P|259:169|273:122,1,100,2|8,2:0|0:0,0:0:0:0:
256,24,52823,5,4,0:0:0:0:
340,76,53389,1,8,0:0:0:0:
380,168,53955,1,4,0:0:0:0:
352,264,54521,1,8,0:0:0:0:
280,332,55087,2,0,P|236:352|176:344,2,100,4|8|2,2:0|0:0|2:0,0:0:0:0:
352,264,56785,1,8,0:0:0:0:
332,164,57351,5,4,0:0:0:0:
256,232,57917,1,8,0:0:0:0:
352,264,58483,2,0,P|400:240|428:192,1,100,2|8,2:0|0:0,0:0:0:0:
428,104,59615,2,0,P|404:56|356:28,1,100,2|8,2:0|0:0,0:0:0:0:
316,28,60464,2,0,L|252:28,1,50,0|2,0:0|2:0,0:0:0:0:
116,28,61596,5,2,2:0:0:0:
116,28,61879,2,0,P|80:64|68:116,1,100,4|8,0:0|0:0,0:0:0:0:
76,212,63012,1,2,2:0:0:0:
160,264,63578,1,8,0:0:0:0:
260,256,64143,2,0,P|298:225|317:179,2,100,2|8|2,2:0|0:0|2:0,0:0:0:0:
160,264,65842,1,8,0:0:0:0:
120,236,66125,1,2,2:0:0:0:
96,192,66408,6,0,P|80:136|96:92,1,100,4|8,0:0|0:0,0:0:0:0:
192,100,67540,2,0,B|244:108|244:108|292:88,1,100,2|8,2:0|0:0,0:0:0:0:
376,44,68672,2,0,P|424:36|480:60,2,100,2|8|2,2:0|0:0|2:0,0:0:0:0:
288,92,70370,1,8,0:0:0:0:
252,128,70653,1,2,2:0:0:0:
232,176,70936,6,0,P|220:224|240:280,1,100,4|8,0:0|0:0,0:0:0:0:
312,332,72068,1,2,2:0:0:0:
220,368,72634,1,8,0:0:0:0:
120,372,73200,2,0,P|72:356|44:308,1,100,2|8,2:0|0:0,0:0:0:0:
52,216,74332,1,2,2:0:0:0:
144,180,74898,1,8,0:0:0:0:
200,264,75464,6,0,B|188:316|240:348|328:328|312:297|312:241|312:53|312:53|368:108|390:75|456:130|412:208,2,600,4|2|2,0:0|0:0|0:0,0:0:0:0:
80,152,91313,6,0,B|112:172|144:148|196:160,1,100,4|8,0:0|0:0,0:0:0:0:
272,188,92445,1,2,0:0:0:0:
316,276,93011,1,8,0:0:0:0:
256,356,93577,2,0,B|221:365|189:341|157:361,1,100,2|8,0:0|0:0,0:0:0:0:
60,376,94709,1,2,0:0:0:0:
96,284,95276,1,8,0:0:0:0:
128,188,95842,6,0,L|176:100,1,100,2|8,0:0|0:0,0:0:0:0:
216,192,96974,2,0,L|285:119,1,100,2|8,0:0|0:0,0:0:0:0:
300,220,98106,2,0,L|385:167,1,100,2|8,0:0|0:0,0:0:0:0:
376,268,99238,2,0,L|472:239,1,100,2|8,0:0|0:0,0:0:0:0:
440,336,100370,6,0,L|343:364,1,100,2|8,0:0|0:0,0:0:0:0:
244,372,101502,1,2,0:0:0:0:
168,308,102068,1,8,0:0:0:0:
128,216,102634,2,0,P|124:168|148:120,1,100,2|8,0:0|0:0,0:0:0:0:
224,60,103766,2,0,P|188:32|144:24,2,75,2|0|0,0:0|0:0|0:0,0:0:0:0:
252,100,104898,6,0,P|296:120|356:112,1,100,2|8,0:0|0:0,0:0:0:0:
428,60,106030,2,0,L|432:164,1,100,2|8,0:0|0:0,0:0:0:0:
436,260,107163,1,2,0:0:0:0:
376,340,107728,2,0,P|428:360|488:344,2,100,8|10|8,0:0|0:0|0:0,0:0:0:0:
344,300,109143,1,2,0:0:0:0:
324,255,109426,6,0,P|301:211|258:188,1,100,4|8,0:0|0:0,0:0:0:0:
324,121,110559,2,0,P|281:144|258:188,1,100,2|8,2:0|0:0,0:0:0:0:
191,120,111691,2,0,P|215:163|258:188,1,100,2|8,2:0|0:0,0:0:0:0:
189,254,112823,2,0,P|233:230|258:187,1,100,2|8,2:0|0:0,0:0:0:0:
208,100,113955,6,0,P|252:84|284:88,2,75,2|0|0,2:0|0:0|0:0,0:0:0:0:
168,128,115087,2,0,P|116:132|68:104,1,100,2|8,2:0|0:0,0:0:0:0:
132,28,116219,2,0,P|96:12|44:12,2,75,2|0|0,2:0|0:0|0:0,0:0:0:0:
176,52,117351,2,0,P|228:60|280:52,1,100,2|8,2:0|0:0,0:0:0:0:
368,88,118483,6,0,P|372:48|364:8,2,75,2|0|0,2:0|0:0|0:0,0:0:0:0:
348,136,119615,1,2,2:0:0:0:
256,180,120181,1,8,0:0:0:0:
156,192,120747,2,0,P|176:240|216:272,1,100,2|8,2:0|0:0,0:0:0:0:
312,264,121879,2,0,P|342:225|352:176,1,100,2|8,2:0|0:0,0:0:0:0:
340,128,122728,1,0,0:0:0:0:
292,116,123011,6,0,L|204:104,2,75,4|0|0,0:0|0:0|0:0,0:0:0:0:
340,128,124144,1,2,2:0:0:0:
440,140,124709,1,8,0:0:0:0:
492,224,125276,2,0,B|504:272|504:272|472:324,1,100,2|8,2:0|0:0,0:0:0:0:
376,324,126408,2,0,B|340:312|308:340|276:320,1,100,2|8,2:0|0:0,0:0:0:0:
196,268,127540,5,4,0:0:0:0:
148,180,128106,1,8,0:0:0:0:
248,180,128672,2,0,P|284:176|324:152,2,75,2|0|0,2:0|0:0|0:0,0:0:0:0:
200,184,129804,2,0,P|144:180|100:148,1,100,2|8,2:0|0:0,0:0:0:0:
132,60,130936,2,0,P|188:64|232:96,1,100,2|8,2:0|0:0,0:0:0:0:
260,124,131785,1,2,2:0:0:0:
284,168,132068,6,0,P|304:212|352:240,1,100,4|8,0:0|0:0,0:0:0:0:
380,144,133201,1,2,2:0:0:0:
312,72,133767,1,8,0:0:0:0:
216,100,134332,2,0,P|188:140|196:208,1,100,2|8,2:0|0:0,0:0:0:0:
264,252,135464,1,2,2:0:0:0:
172,288,136030,1,8,0:0:0:0:
128,196,136596,5,4,0:0:0:0:
220,160,137162,1,8,0:0:0:0:
304,108,137728,2,0,P|316:142|316:188,2,75,2|0|0,2:0|0:0|0:0,0:0:0:0:
264,80,138860,2,0,P|212:68|156:92,1,100,2|8,2:0|0:0,0:0:0:0:
140,180,139992,2,0,P|100:160|80:132,2,75,2|0|0,2:0|0:0|0:0,0:0:0:0:
192,184,141125,6,0,L|304:184,1,100,4|8,0:0|0:0,0:0:0:0:
360,256,142257,2,0,P|388:216|388:168,2,75,2|0|0,2:0|0:0|0:0,0:0:0:0:
316,280,143389,2,0,B|248:312|188:252|116:284,1,200,2|0,2:0|0:0,0:0:0:0:
72,300,144804,2,0,P|24:280|12:228,1,100,2|0,2:0|0:0,0:0:0:0:
256,192,145653,12,4,150181,0:0:0:0:
208,236,168294,6,0,B|256:240|256:240|304:220,1,100,4|8,0:0|0:0,0:0:0:0:
376,152,169426,2,0,P|412:132|452:128,2,75,2|0|0,0:0|0:0|0:0,0:0:0:0:
368,200,170559,2,0,L|368:304,1,100,2|8,0:0|0:0,0:0:0:0:
280,344,171691,2,0,P|244:364|204:368,2,75,2|0|0,0:0|0:0|0:0,0:0:0:0:
280,292,172824,6,0,L|284:184,1,100,4|8,0:0|0:0,0:0:0:0:
284,144,173672,1,0,0:0:0:0:
284,96,173955,2,0,P|240:68|188:64,1,100,2|8,0:0|0:0,0:0:0:0:
112,124,175087,2,0,P|156:152|208:156,1,100,2|8,0:0|0:0,0:0:0:0:
284,96,176219,1,2,0:0:0:0:
420,32,177068,5,0,0:0:0:0:
420,32,177351,2,0,L|428:140,1,100,4|8,0:0|0:0,0:0:0:0:
368,212,178483,2,0,P|404:228|448:232,2,75,2|0|0,0:0|0:0|0:0,0:0:0:0:
328,180,179615,2,0,P|276:164|224:172,1,100,2|8,0:0|0:0,0:0:0:0:
156,232,180747,2,0,P|136:192|132:156,2,75,2|0|0,0:0|0:0|0:0,0:0:0:0:
188,272,181879,6,0,P|232:292|292:288,1,100,4|8,0:0|0:0,0:0:0:0:
364,232,183011,2,0,P|380:268|380:316,2,75,2|0|0,0:0|0:0|0:0,0:0:0:0:
326,199,184143,2,0,P|302:155|306:107,1,100,2|8,0:0|0:0,0:0:0:0:
205,107,185276,2,0,P|208:156|185:199,1,100,2|8,0:0|0:0,0:0:0:0:
256,268,186408,5,4,0:0:0:0:
227,242,206219,5,2,0:0:0:0:
227,142,206785,1,2,0:0:0:0:
313,192,207351,1,2,0:0:0:0:
227,242,207917,2,0,P|188:236|156:212,2,75,2|0|0,0:0|0:0|0:0,0:0:0:0:
276,260,209049,6,0,P|320:280|344:336,1,100,2|2,0:0|0:0,0:0:0:0:
244,348,210181,2,0,P|192:292|336:184,1,300,2|0,0:0|0:0,0:0:0:0:
488,284,213011,1,0,0:0:0:0:
412,348,213577,6,0,P|372:364|332:360,2,75,4|8|2,0:0|0:0|2:0,0:0:0:0:
410,298,214709,2,0,P|370:282|330:286,2,75,4|8|2,0:0|0:0|2:0,0:0:0:0:
456,315,215842,2,0,P|492:275|492:219,1,100,4|8,0:0|0:0,0:0:0:0:
456,140,216974,1,2,2:0:0:0:
316,84,217822,5,0,0:0:0:0:
316,84,218106,2,0,L|212:76,1,100,4|8,0:0|0:0,0:0:0:0:
124,112,219238,2,0,P|116:64|128:32,2,75,2|0|0,2:0|0:0|0:0,0:0:0:0:
152,152,220370,2,0,P|160:204|136:260,1,100,2|8,2:0|0:0,0:0:0:0:
68,312,221501,1,2,2:0:0:0:
164,344,222067,1,8,0:0:0:0:
264,332,222634,5,4,0:0:0:0:
324,252,223200,1,8,0:0:0:0:
332,152,223766,2,0,P|372:160|404:192,2,75,2|0|0,2:0|0:0|0:0,0:0:0:0:
284,152,224898,2,0,P|232:148|188:104,1,100,2|8,2:0|0:0,0:0:0:0:
268,52,226030,1,2,2:0:0:0:
360,88,226596,1,8,0:0:0:0:
284,152,227162,6,0,L|208:216,1,100,2|8,2:0|0:0,0:0:0:0:
156,128,228294,2,0,L|92:176,2,75,2|0|0,2:0|0:0|0:0,0:0:0:0:
196,96,229426,2,0,P|236:60|292:48,1,100,2|8,2:0|0:0,0:0:0:0:
376,68,230559,2,0,P|409:104|422:152,1,100,2|12,2:0|0:0,0:0:0:0:
320,144,231691,5,4,0:0:0:0:
228,103,232257,1,8,0:0:0:0:
161,177,232823,1,2,2:0:0:0:
211,264,233389,1,8,0:0:0:0:
309,243,233955,2,0,P|352:220|376:164,1,100,2|8,2:0|0:0,0:0:0:0:
423,87,235087,2,0,P|374:79|325:88,1,100,2|8,2:0|0:0,0:0:0:0:
288,180,236219,6,0,B|248:156|183:183|188:261|216:322|272:312|324:375|324:375|374:312|430:322|456:261|464:183|399:156|353:186,1,600,4|2,0:0|2:0,0:0:0:0:
326,88,240180,1,8,0:0:0:0:
232,128,240747,5,4,0:0:0:0:
174,209,241313,1,8,0:0:0:0:
256,267,241879,1,2,2:0:0:0:
313,185,242445,1,8,0:0:0:0:
404,144,243011,5,2,2:0:0:0:
462,63,243577,1,8,0:0:0:0:
380,5,244143,1,2,2:0:0:0:
323,87,244709,1,8,0:0:0:0:
404,144,245276,6,0,P|432:188|428:240,1,100,2|8,2:0|0:0,0:0:0:0:
352,296,246408,2,0,B|316:308|284:288|240:304,1,100,2|8,2:0|0:0,0:0:0:0:
156,320,247540,2,0,P|154:270|182:229,1,100,2|8,2:0|0:0,0:0:0:0:
256,164,248672,2,0,L|256:56,1,100,2|8,2:0|0:0,0:0:0:0:
157,69,249804,6,0,B|145:170|255:206|255:206|360:250|360:360|255:423|150:360|150:250|255:206|255:206|365:170|348:64,1,800,2|4,0:0|2:0,0:0:0:0:
