osu file format v13

[General]
AudioFilename: 1.mp3
AudioLeadIn: 0
PreviewTime: 56714
Countdown: 1
SampleSet: Normal
StackLeniency: 0.7
Mode: 0
LetterboxInBreaks: 1
WidescreenStoryboard: 0

[Editor]
Bookmarks: 21125,78860,91313,109426,150181,168294,186408,206219,215842,254332
DistanceSpacing: 1
BeatDivisor: 4
GridSize: 4
TimelineZoom: 1

[Metadata]
Title:Stardust Melodia
TitleUnicode:Stardust Melodia
Artist:Ceui
ArtistUnicode:Ceui
Creator:Sonnyc
Version:Insane
Source:境界線上のホライゾン
Tags:Asgard Natsu Kyoukai Senjou no Horizon In the middle of nowhere Ending Odaka Kotaro セイ Labyrinthus
BeatmapID:386464
BeatmapSetID:157360

[Difficulty]
HPDrainRate:7
CircleSize:4
OverallDifficulty:7
ApproachRate:8
SliderMultiplier:1.8
SliderTickRate:2

[Events]
//Background and Video events
0,0,"3.jpg",0,0
//Break Periods
2,79060,90563
2,150381,167544
//Storyboard Layer 0 (Background)
//Storyboard Layer 1 (Fail)
//Storyboard Layer 2 (Pass)
//Storyboard Layer 3 (Foreground)
//Storyboard Sound Samples
//Background Colour Transformations
3,100,163,162,255

[TimingPoints]
5276,566.037735849057,4,2,1,50,1,0
29332,-100,4,2,1,40,0,0
29615,-100,4,2,1,20,0,0
29898,-100,4,2,1,40,0,0
30181,-83.3333333333333,4,2,1,60,0,0
38530,-83.3333333333333,4,1,1,60,0,0
57351,-71.4285714285714,4,1,1,65,0,1
61596,-83.3333333333333,4,1,1,65,0,0
66408,-71.4285714285714,4,1,1,65,0,1
74332,-83.3333333333333,4,1,1,60,0,0
77728,-83.3333333333333,4,2,1,40,0,0
91313,-100,4,2,1,50,0,0
99521,-100,4,2,1,40,0,0
100087,-83.3333333333333,4,2,1,50,0,0
100370,-83.3333333333333,4,2,1,60,0,0
109143,-83.3333333333333,4,1,1,60,0,0
127540,-71.4285714285714,4,1,1,65,0,1
131785,-83.3333333333333,4,1,1,65,0,0
136596,-71.4285714285714,4,1,1,65,0,1
144521,-83.3333333333333,4,1,1,60,0,0
168294,-100,4,2,1,60,0,0
177351,-83.3333333333333,4,2,1,60,0,0
184143,-100,4,2,1,60,0,0
185276,-125,4,2,1,60,0,0
186408,-100,4,2,1,60,0,0
206219,-100,4,2,1,50,0,0
210747,-100,4,2,1,40,0,0
211313,-100,4,2,1,30,0,0
211879,-100,4,2,1,20,0,0
213011,-83.3333333333333,4,2,1,60,0,0
213577,-83.3333333333333,4,1,1,60,0,0
215842,-71.4285714285714,4,1,1,65,0,1
217823,-83.3333333333333,4,1,1,65,0,0
222634,-71.4285714285714,4,1,1,65,0,1
230559,-83.3333333333333,4,1,1,65,0,0
231691,-71.4285714285714,4,1,1,65,0,1
240181,-71.4285714285714,4,1,1,65,0,0
240747,-71.4285714285714,4,1,1,65,0,1
249804,-71.4285714285714,4,2,1,40,0,0

[Colours]
Combo1 : 255,255,215
Combo2 : 200,255,200
Combo3 : 170,170,255
Combo4 : 255,172,255

[HitObjects]
116,144,21125,6,0,P|96:184|148:304,1,180,4|2,0:0|0:0,0:0:0:0:
228,324,21974,1,0,0:0:0:0:
316,340,22257,2,0,B|380:352|384:304|448:316,2,135,0|2|2,0:0|0:0|0:0,0:0:0:0:
340,252,23389,2,0,B|376:224|448:224|448:224|444:184|472:156,1,180,2|0,0:0|0:0,0:0:0:0:
352,28,24238,5,2,0:0:0:0:
288,88,24521,2,0,P|228:88|244:28,2,135,0|2|2,0:0|0:0|0:0,0:0:0:0:
244,176,25653,2,0,B|184:168|156:116|156:116|76:160,1,180,2|0,0:0|0:0,0:0:0:0:
16,188,26502,1,0,0:0:0:0:
16,188,26785,2,0,P|44:256|152:316,1,180
256,320,27634,5,2,0:0:0:0:
256,320,27776,1,0,0:0:0:0:
256,320,27917,2,0,B|324:320|324:320|388:288,2,135,0|2|2,0:0|0:0|0:0,0:0:0:0:
324,220,29049,2,0,P|360:204|444:220,1,90,2|8,0:0|0:0,0:0:0:0:
284,136,29615,2,0,P|248:168|232:224,1,90,8|2,0:0|0:0,0:0:0:0:
368,96,30181,6,0,P|332:56|192:120,1,215.999993408203,0|8,1:0|0:1,0:0:0:0:
284,136,31030,1,2,0:0:0:0:
208,192,31313,2,0,B|148:200|112:140|112:140|68:124,2,161.999995056153,0|2|2,1:0|0:0|0:0,0:0:0:0:
232,224,32304,1,0,0:0:0:0:
256,256,32445,2,0,B|284:296|280:356|280:356|340:352|384:320,1,215.999993408203,0|8,1:0|0:1,0:0:0:0:
484,216,33294,5,2,0:0:0:0:
484,216,33436,1,0,0:0:0:0:
484,216,33577,2,0,P|484:208|416:72,2,161.999995056153,0|2|2,1:0|0:0|0:0,0:0:0:0:
376,160,34709,2,0,B|331:115|277:140|277:140|219:165|179:120,1,215.999993408203,2|8,1:2|0:1,0:0:0:0:
316,208,35559,1,2,0:0:0:0:
240,68,35842,2,0,P|180:40|100:108,2,161.999995056153,0|2|2,1:0|0:0|0:0,0:0:0:0:
188,168,36974,5,2,1:2:0:0:
172,200,37115,1,0,0:0:0:0:
156,232,37257,1,0,0:0:0:0:
140,264,37398,1,0,0:0:0:0:
124,296,37540,1,8,0:1:0:0:
256,344,37823,1,2,0:0:0:0:
388,296,38106,1,0,1:0:0:0:
356,76,38530,2,0,L|384:56,2,26.9999991760254,0|0|0,3:0|3:0|3:0,0:0:0:0:
256,144,38955,5,8,1:3:0:0:
256,144,39096,1,4,0:3:0:0:
256,144,39238,2,0,P|188:168|60:88,1,215.999993408203,4|2,0:0|0:2,0:0:0:0:
176,48,40087,1,0,0:0:0:0:
153,165,40370,2,0,B|140:228|88:252|88:252|120:292|128:348,1,215.999993408203,2|8,0:0|0:3,0:0:0:0:
240,276,41219,5,2,0:0:0:0:
240,276,41502,2,0,B|300:232|372:256|372:256|428:192,1,215.999993408203,2|2,0:0|0:2,0:0:0:0:
468,32,42351,2,0,L|390:120,1,107.999996704102,0|4,0:0|0:3,0:0:0:0:
280,96,42917,1,4,0:3:0:0:
164,76,43200,1,8,0:2:0:0:
24,128,43483,5,2,0:2:0:0:
24,128,43625,1,0,0:0:0:0:
24,128,43766,2,0,P|-4:184|24:276,2,161.999995056153,2|2|2,0:0|0:2|0:2,0:0:0:0:
144,128,44898,2,0,P|172:184|144:276,2,161.999995056153,2|2|2,0:0|0:2|0:2,0:0:0:0:
196,36,46030,2,0,B|236:52|256:88|256:88|276:52|316:36,1,161.999995056153,2|2,0:0|0:2,0:0:0:0:
315,36,46596,2,0,P|376:40|424:100,1,107.999996704102,4|8,0:3|0:3,0:0:0:0:
353,227,47162,6,0,P|328:180|336:128,1,107.999996704102,4|8,0:3|0:2,0:0:0:0:
416,164,47728,2,0,P|441:210|433:263,1,107.999996704102,8|4,0:2|0:3,0:0:0:0:
412,296,48153,1,4,0:3:0:0:
392,328,48294,6,0,P|320:356|208:320,1,161.999995056153,4|2,0:0|0:2,0:0:0:0:
239,341,48860,2,0,P|173:329|129:341,1,107.999996704102,4|2,0:3|0:2,0:0:0:0:
100,232,49426,1,4,0:3:0:0:
88,196,49568,1,2,0:2:0:0:
76,160,49709,1,2,0:2:0:0:
64,124,49851,1,0,0:2:0:0:
52,88,49992,1,4,0:3:0:0:
220,92,50559,6,0,B|276:96|324:68|324:68|380:88|412:128,1,215.999993408203,2|2,0:0|0:2,0:0:0:0:
412,256,51408,1,2,0:0:0:0:
412,256,51549,1,0,0:0:0:0:
412,256,51691,2,0,B|380:296|324:316|324:316|276:288|220:292,1,215.999993408203,4|2,0:3|0:2,0:0:0:0:
100,192,52540,5,4,0:3:0:0:
100,192,52681,1,8,0:3:0:0:
100,192,52823,2,0,L|264:192,2,161.999995056153,4|4|2,0:0|0:3|0:2,0:0:0:0:
24,96,53955,2,0,P|-8:140|24:288,1,215.999993408203,4|4,0:2|0:3,0:0:0:0:
144,308,54804,1,4,0:3:0:0:
180,312,54945,1,4,0:3:0:0:
216,316,55087,1,4,0:3:0:0:
376,332,55370,5,8,0:3:0:0:
472,192,55653,1,4,0:3:0:0:
376,52,55936,1,8,0:3:0:0:
216,68,56219,5,8,0:3:0:0:
180,72,56360,1,4,0:3:0:0:
144,76,56502,1,4,0:3:0:0:
108,80,56643,1,4,0:3:0:0:
72,84,56785,1,8,0:3:0:0:
68,120,56926,1,4,0:3:0:0:
64,156,57068,1,8,0:3:0:0:
60,192,57209,1,8,0:3:0:0:
56,228,57351,6,0,P|56:264|100:344,1,125.999996154785,4|2,0:0|0:0,0:0:0:0:
414,341,57917,2,0,P|449:290|456:228,1,125.999996154785,8|2,0:0|0:0,0:0:0:0:
336,60,58483,2,0,B|284:64|256:104|256:104|228:64|176:60,1,188.999994232178,4|2,0:3|0:0,0:0:0:0:
200,156,59049,2,0,P|256:180|312:156,1,125.999996154785,8|2,0:0|0:0,0:0:0:0:
143,209,59615,6,2,P|256:257|369:209,1,251.999992309571,2|8,0:0|0:0,0:0:0:0:
380,84,60464,1,2,0:0:0:0:
256,100,60747,2,2,L|256:352,1,251.999992309571,2|8,0:0|0:0,0:0:0:0:
132,328,61596,5,2,0:0:0:0:
132,328,61738,1,0,0:0:0:0:
132,328,61879,2,0,P|76:288|56:224,1,107.999996704102,4|8,0:3|0:2,0:0:0:0:
132,55,62445,2,0,P|108:100|59:130,1,107.999996704102,8|2,0:2|0:2,0:0:0:0:
176,184,63011,1,4,0:3:0:0:
212,196,63153,1,2,0:2:0:0:
256,204,63294,1,2,0:2:0:0:
300,196,63436,1,0,0:0:0:0:
336,184,63577,1,8,0:0:0:0:
360,328,64143,6,0,P|312:348|152:328,1,215.999993408203,4|8,0:3|0:3,0:0:0:0:
176,184,64992,1,2,0:0:0:0:
208,40,65276,1,8,0:3:0:0:
256,28,65417,1,8,0:3:0:0:
304,40,65559,1,4,0:3:0:0:
448,104,65842,6,0,P|464:116|484:148,1,53.9999983520508,8|8,0:3|0:3,0:0:0:0:
412,168,66125,2,0,P|425:191|446:208,1,53.9999983520508,4|8,0:3|0:3,0:0:0:0:
336,184,66408,6,0,P|368:237|416:277,1,125.999996154785,4|2,0:0|0:0,0:0:0:0:
176,184,66974,2,0,P|143:237|95:277,1,125.999996154785,8|2,0:0|0:0,0:0:0:0:
184,332,67540,2,0,P|224:288|328:332,1,188.999994232178,4|2,0:3|0:0,0:0:0:0:
256,360,68106,2,0,L|256:228,1,125.999996154785,8|2,0:0|0:0,0:0:0:0:
256,24,68672,6,0,B|256:72|256:72|192:152,1,125.999996154785,4|2,0:3|0:0,0:0:0:0:
256,280,69238,2,0,B|256:232|256:232|320:152,1,125.999996154785,8|2,0:0|0:0,0:0:0:0:
392,64,69804,2,0,P|456:72|456:180,1,188.999994232178,4|2,0:3|0:0,0:0:0:0:
459,177,70370,2,0,P|444:252|480:292,1,125.999996154785,8|2,0:0|0:0,0:0:0:0:
367,161,70936,6,0,P|355:222|368:284,1,125.999996154785,4|8,0:2|0:2,0:0:0:0:
144,161,71502,2,0,P|156:222|144:284,1,125.999996154785,8|2,0:2|0:2,0:0:0:0:
176,304,71926,1,0,0:0:0:0:
208,324,72068,2,0,B|256:344|304:324|304:324|256:248,1,188.999994232178,4|2,0:3|0:2,0:0:0:0:
256,248,72634,2,0,L|257:117,1,125.999996154785,8|0,0:0|0:0,0:0:0:0:
128,32,73200,6,0,P|29:102|31:224,1,251.999992309571,4|8,0:3|0:3,0:0:0:0:
120,308,74049,1,8,0:3:0:0:
180,204,74332,6,0,B|256:176|256:176|332:204,1,161.999995056153,2|2,0:0|0:0,0:0:0:0:
368,220,74898,1,8,3:0:0:0:
404,236,75040,1,4,3:0:0:0:
440,248,75181,1,8,3:0:0:0:
476,264,75323,1,4,3:0:0:0:
256,192,75464,12,2,78860,0:0:0:0:
396,240,91313,6,0,P|416:200|364:80,1,180,4|2,1:2|0:0,0:0:0:0:
284,60,92162,1,0,0:0:0:0:
196,44,92445,2,0,B|132:32|128:80|64:68,2,135,0|2|2,1:0|0:0|0:0,0:0:0:0:
172,132,93577,2,0,B|136:160|64:160|64:160|68:200|40:228,1,180,0|2,1:0|0:0,0:0:0:0:
160,356,94426,5,2,0:0:0:0:
224,296,94709,2,0,P|284:296|268:356,2,135,0|2|2,1:0|0:0|0:0,0:0:0:0:
268,208,95842,2,0,B|328:216|356:268|356:268|436:224,1,180,0|2,1:0|0:0,0:0:0:0:
496,196,96691,1,0,0:0:0:0:
496,196,96974,2,0,P|468:128|360:68,1,180,0|2,1:0|0:0,0:0:0:0:
256,64,97823,5,2,0:0:0:0:
256,64,98106,2,0,B|188:64|188:64|124:96,2,135,0|2|2,1:0|0:0|0:0,0:0:0:0:
188,164,99238,2,0,P|152:180|68:164,1,90,2|8,0:0|0:0,0:0:0:0:
228,248,99804,2,0,P|264:216|280:160,1,90,8|2,0:0|0:0,0:0:0:0:
144,288,100370,6,0,P|180:328|320:264,1,215.999993408203,0|8,1:0|0:1,0:0:0:0:
228,248,101219,1,2,0:0:0:0:
304,192,101502,2,0,B|364:184|400:244|400:244|444:260,2,161.999995056153,0|2|2,1:0|0:0|0:0,0:0:0:0:
240,132,102634,2,0,B|212:92|216:32|216:32|156:36|112:68,1,215.999993408203,0|8,0:0|0:1,0:0:0:0:
28,168,103483,5,2,0:0:0:0:
28,168,103766,2,0,P|28:176|96:312,2,161.999995056153,0|2|2,1:0|0:0|0:0,0:0:0:0:
136,224,104898,2,0,B|181:269|235:244|235:244|293:219|333:264,1,215.999993408203,2|8,0:0|0:1,0:0:0:0:
196,176,105747,1,2,0:0:0:0:
272,316,106030,2,0,P|332:344|412:276,2,161.999995056153,0|2|2,1:0|0:0|0:0,0:0:0:0:
324,216,107162,5,2,1:2:0:0:
340,184,107304,1,0,0:0:0:0:
356,152,107445,1,0,0:0:0:0:
372,120,107587,1,0,0:0:0:0:
388,88,107728,1,2,0:0:0:0:
256,40,108011,1,0,1:0:0:0:
124,88,108294,1,8,1:0:0:0:
124,88,108436,1,4,0:3:0:0:
124,220,108719,1,4,0:3:0:0:
124,220,108860,1,8,0:1:0:0:
256,240,109143,5,8,1:0:0:0:
256,240,109285,1,4,0:3:0:0:
256,240,109426,2,0,P|324:216|452:296,1,215.999993408203,4|2,0:0|0:2,0:0:0:0:
336,336,110276,1,0,0:0:0:0:
359,219,110559,2,0,B|372:156|424:132|424:132|392:92|384:36,1,215.999993408203,2|8,0:0|0:3,0:0:0:0:
272,108,111408,5,2,0:0:0:0:
272,108,111691,2,0,B|212:152|140:128|140:128|84:192,1,215.999993408203,2|2,0:0|0:2,0:0:0:0:
44,352,112540,2,0,L|122:264,1,107.999996704102,2|4,0:0|0:3,0:0:0:0:
232,288,113106,1,4,0:3:0:0:
348,308,113389,1,8,0:2:0:0:
488,256,113672,5,2,0:2:0:0:
488,256,113813,1,0,0:0:0:0:
488,256,113955,2,0,P|516:200|488:108,2,161.999995056153,2|2|2,0:0|0:2|0:2,0:0:0:0:
368,256,115087,2,0,P|340:200|368:108,2,161.999995056153,2|2|2,0:0|0:2|0:2,0:0:0:0:
316,348,116219,2,0,B|276:332|256:296|256:296|236:332|196:348,1,161.999995056153,2|2,0:0|0:2,0:0:0:0:
197,348,116785,2,0,P|136:344|88:284,1,107.999996704102,4|8,0:3|0:3,0:0:0:0:
159,157,117351,6,0,P|184:204|176:256,1,107.999996704102,4|8,0:3|0:2,0:0:0:0:
96,220,117917,2,0,P|71:174|79:121,1,107.999996704102,8|4,0:2|0:3,0:0:0:0:
100,88,118342,1,4,0:3:0:0:
120,56,118483,6,0,P|192:28|304:64,1,161.999995056153,4|2,0:0|0:2,0:0:0:0:
273,43,119049,2,0,P|339:55|383:43,1,107.999996704102,4|2,0:3|0:2,0:0:0:0:
412,152,119615,1,4,0:3:0:0:
424,188,119757,1,2,0:2:0:0:
436,224,119898,1,2,0:2:0:0:
448,260,120040,1,0,0:2:0:0:
460,296,120181,1,4,0:3:0:0:
292,292,120747,6,0,B|236:288|188:316|188:316|132:296|100:256,1,215.999993408203,2|2,0:0|0:2,0:0:0:0:
100,128,121596,1,2,0:0:0:0:
100,128,121738,1,0,0:0:0:0:
100,128,121879,2,0,B|132:88|188:68|188:68|236:96|292:92,1,215.999993408203,4|2,0:0|0:2,0:0:0:0:
412,192,122728,5,4,0:3:0:0:
412,192,122870,1,8,0:3:0:0:
412,192,123011,2,0,L|248:192,2,161.999995056153,4|4|2,0:0|0:3|0:2,0:0:0:0:
488,288,124143,2,0,P|520:244|488:96,1,215.999993408203,4|4,0:2|0:3,0:0:0:0:
368,76,124992,1,4,0:3:0:0:
332,72,125134,1,4,0:3:0:0:
296,68,125276,1,4,0:3:0:0:
136,52,125559,5,8,0:3:0:0:
40,192,125842,1,4,0:3:0:0:
136,332,126125,1,8,0:3:0:0:
296,316,126408,5,8,0:3:0:0:
332,312,126549,1,4,0:3:0:0:
368,308,126691,1,4,0:3:0:0:
404,304,126832,1,4,0:3:0:0:
440,300,126974,1,8,0:3:0:0:
444,264,127115,1,4,0:3:0:0:
448,228,127257,1,8,0:3:0:0:
452,192,127398,1,8,0:3:0:0:
456,156,127540,6,0,P|456:120|412:40,1,125.999996154785,4|2,0:0|0:0,0:0:0:0:
97,42,128106,2,0,P|62:93|56:156,1,125.999996154785,8|2,0:0|0:0,0:0:0:0:
176,324,128672,2,0,B|228:320|256:280|256:280|284:320|336:324,1,188.999994232178,4|2,0:3|0:0,0:0:0:0:
312,228,129238,2,0,P|256:204|200:228,1,125.999996154785,8|2,0:0|0:0,0:0:0:0:
156,48,129804,6,2,P|212:104|356:48,1,251.999992309571,2|8,0:0|0:0,0:0:0:0:
432,176,130653,1,2,0:0:0:0:
380,312,130936,2,2,P|252:292|132:312,1,251.999992309571,2|8,0:0|0:0,0:0:0:0:
80,176,131785,5,2,0:0:0:0:
80,176,131926,1,0,0:0:0:0:
80,176,132068,2,0,P|80:116|100:68,1,107.999996704102,4|8,0:3|0:2,0:0:0:0:
414,72,132634,2,0,P|433:122|432:176,1,107.999996704102,8|2,0:2|0:2,0:0:0:0:
340,296,133200,1,4,0:3:0:0:
300,276,133342,1,2,0:2:0:0:
256,268,133483,1,2,0:2:0:0:
212,276,133625,1,0,0:0:0:0:
172,296,133767,1,8,0:0:0:0:
344,56,134332,6,0,P|288:104|168:56,1,215.999993408203,4|8,0:3|0:3,0:0:0:0:
356,196,135181,1,2,0:0:0:0:
232,336,135464,1,8,0:3:0:0:
220,296,135606,1,8,0:3:0:0:
208,256,135747,1,4,0:3:0:0:
28,140,136030,6,0,L|20:196,1,53.9999983520508,8|8,0:3|0:3,0:0:0:0:
108,120,136313,2,0,L|100:176,1,53.9999983520508,8|8,0:3|0:3,0:0:0:0:
188,104,136596,6,0,L|165:262,1,125.999996154785,4|2,0:0|0:0,0:0:0:0:
324,104,137162,2,0,L|346:262,1,125.999996154785,8|2,0:0|0:0,0:0:0:0:
492,156,137728,2,0,P|512:228|504:280,1,125.999996154785,4|2,0:3|0:0,0:0:0:0:
492,312,138153,1,0,0:0:0:0:
476,344,138294,1,8,0:0:0:0:
256,152,138577,1,2,0:0:0:0:
148,280,138860,6,0,P|256:336|364:280,1,251.999992309571,4|8,0:3|0:0,0:0:0:0:
392,76,139709,1,2,0:0:0:0:
120,76,139992,2,0,P|60:120|32:232,1,188.999994232178,4|0,0:3|0:0,0:0:0:0:
48,300,140559,1,8,0:0:0:0:
256,152,140842,1,2,0:0:0:0:
470,287,141125,2,0,P|476:165|392:76,1,251.999992309571,4|8,0:2|0:2,0:0:0:0:
188,280,141974,5,2,0:2:0:0:
392,268,142257,1,4,0:3:0:0:
412,232,142398,1,0,0:0:0:0:
416,192,142540,1,2,0:2:0:0:
412,152,142681,1,0,0:0:0:0:
392,116,142822,1,8,0:0:0:0:
188,104,143106,1,2,0:0:0:0:
45,199,143389,2,0,P|77:308|187:280,2,251.999992309571,4|8|4,0:3|0:3|0:3,0:0:0:0:
188,104,144804,6,0,B|240:92|240:92|296:96,1,107.999996704102,4|8,0:3|0:3,0:0:0:0:
332,99,145229,1,4,0:3:0:0:
369,103,145370,1,8,0:3:0:0:
407,106,145512,1,4,0:3:0:0:
445,110,145653,1,4,0:0:0:0:
256,192,145794,12,4,150181,0:0:0:0:
180,92,168294,6,0,P|224:56|332:92,1,180,4|2,0:0|0:0,0:0:0:0:
256,140,169143,1,0,0:0:0:0:
194,206,169426,2,0,P|272:226|318:205,2,135,2|0|2,0:0|0:0|0:0,0:0:0:0:
120,156,170559,6,0,P|48:184|32:292,1,180,4|2,0:0|0:0,0:0:0:0:
112,248,171408,1,0,0:0:0:0:
194,206,171691,2,0,P|276:184|318:205,2,135,2|0|2,0:0|0:0|0:0,0:0:0:0:
392,156,172823,6,0,P|464:184|480:292,1,180,2|2,0:0|0:0,0:0:0:0:
400,248,173672,1,0,0:0:0:0:
344,316,173955,1,2,0:0:0:0:
256,176,174379,1,2,0:0:0:0:
168,316,174804,1,0,0:0:0:0:
112,248,175087,6,0,P|80:212|0:184,1,135,2|2,0:0|0:0,0:0:0:0:
0,184,175653,2,0,P|20:133|20:93,1,90,0|2,0:0|0:0,0:0:0:0:
184,52,176219,1,8,3:0:0:0:
220,44,176360,1,4,3:0:0:0:
256,32,176502,1,4,3:0:0:0:
292,44,176643,1,4,3:0:0:0:
328,52,176785,1,8,3:0:0:0:
491,98,177068,1,2,0:0:0:0:
392,196,177351,6,0,B|344:232|344:292|344:292|296:328,1,161.999995056153,4|2,0:0|0:0,0:0:0:0:
256,348,177917,1,4,0:3:0:0:
256,192,178200,1,2,0:0:0:0:
120,196,178483,2,0,B|168:232|168:292|168:292|216:328,2,161.999995056153,2|2|2,0:0|0:0|0:0,0:0:0:0:
60,288,179615,2,0,P|12:216|64:100,1,215.999993408203,2|2,0:0|0:0,0:0:0:0:
160,64,180464,1,0,0:0:0:0:
248,132,180747,2,0,P|304:156|404:112,2,161.999995056153,2|2|2,0:0|0:0|0:0,0:0:0:0:
316,48,181879,6,0,P|408:16|496:88,1,215.999993408203,2|2,0:0|0:0,0:0:0:0:
504,192,182728,1,2,0:0:0:0:
436,280,183011,1,2,0:0:0:0:
412,304,183153,1,8,0:3:0:0:
380,320,183294,1,4,0:3:0:0:
344,320,183436,1,4,0:3:0:0:
312,308,183577,1,8,0:3:0:0:
256,192,183860,1,2,0:0:0:0:
200,308,184143,2,0,P|132:320|76:276,2,135,4|2|2,0:0|0:0|0:0,0:0:0:0:
336,208,185276,2,0,P|272:112|176:208,1,288,8|4,0:3|0:0,0:0:0:0:
324,28,186974,5,8,0:3:0:0:
324,28,187257,2,0,P|384:68|432:168,1,180,2|4,0:0|0:3,0:0:0:0:
424,272,188106,1,8,0:3:0:0:
336,208,188389,2,0,B|308:168|256:192|256:192|204:216|176:176,1,180,2|2,0:0|0:0,0:0:0:0:
88,112,189238,1,2,0:0:0:0:
80,221,189521,1,4,0:3:0:0:
80,221,189804,2,0,P|116:302|168:348,2,135,2|4|8,0:0|0:3|0:3,0:0:0:0:
256,360,190936,6,0,P|364:332|432:220,1,180,2|8,0:0|0:3,0:0:0:0:
328,212,191785,2,0,P|272:256|184:212,1,180,2|4,0:0|0:3,0:0:0:0:
256,156,192634,1,8,0:3:0:0:
108,132,192917,2,0,P|92:192|148:308,1,180,2|4,0:0|0:3,0:0:0:0:
376,297,193766,2,0,P|408:252|420:184,1,90,8|0,0:3|0:0,0:0:0:0:
424,44,194332,5,2,0:0:0:0:
380,34,194473,1,4,0:3:0:0:
340,52,194615,1,0,0:0:0:0:
320,91,194756,1,4,0:3:0:0:
327,135,194898,1,8,0:3:0:0:
256,32,195181,1,0,0:0:0:0:
88,44,195464,6,0,P|160:44|184:136,1,180,4|2,0:0|0:0,0:0:0:0:
49,255,196313,2,0,B|96:244|120:204|120:204|156:236|204:228,1,180,2|4,0:0|0:3,0:0:0:0:
256,320,197162,1,8,0:3:0:0:
308,228,197445,2,0,B|356:236|392:204|392:204|416:244|462:255,1,180,2|2,0:0|0:0,0:0:0:0:
484,152,198294,2,0,P|424:44|352:44,1,180,8|2,0:3|0:0,0:0:0:0:
348,45,199001,1,4,0:3:0:0:
321,62,199143,1,0,0:0:0:0:
302,86,199284,1,4,0:3:0:0:
292,116,199426,1,8,0:3:0:0:
308,212,199709,5,2,0:0:0:0:
308,212,199851,1,0,0:0:0:0:
308,212,199992,2,0,P|256:272|204:212,1,180,4|2,0:3|0:0,0:0:0:0:
164,87,200842,1,2,0:0:0:0:
164,87,201125,2,0,P|112:159|108:248,1,180,4|8,0:3|0:3,0:0:0:0:
172,328,201974,5,2,0:0:0:0:
172,328,202257,2,0,P|256:356|340:328,1,180,4|2,0:3|0:0,0:0:0:0:
403,248,203106,1,2,0:0:0:0:
403,248,203389,2,0,P|399:159|347:87,2,180,2|2|0,0:0|0:0|0:0,0:0:0:0:
216,160,206219,5,2,0:0:0:0:
303,173,206502,1,0,0:0:0:0:
248,242,206785,1,2,0:0:0:0:
248,242,207351,1,2,0:0:0:0:
160,229,207917,5,2,0:0:0:0:
271,90,208342,1,0,0:0:0:0:
336,256,208766,1,2,0:0:0:0:
351,154,209049,5,2,0:0:0:0:
240,293,209474,1,2,0:0:0:0:
176,127,209898,1,2,0:0:0:0:
256,192,210181,1,0,0:0:0:0:
256,192,210323,12,0,211879,0:0:0:0:
256,292,213011,5,2,0:0:0:0:
256,292,213294,1,0,0:0:0:0:
188,225,213577,2,0,B|212:192|256:182|256:182|299:192|323:225,2,161.999995056153,4|4|2,0:0|0:3|0:2,0:0:0:0:
136,304,214709,1,4,0:0:0:0:
136,304,214851,1,0,0:0:0:0:
44,192,215134,2,0,L|8:192,2,26.9999991760254,8|0|8,0:3|0:0|0:3,0:0:0:0:
100,60,215559,1,8,0:3:0:0:
132,52,215700,1,4,0:3:0:0:
168,44,215842,6,0,P|224:44|296:76,1,125.999996154785,4|2,0:0|0:0,0:0:0:0:
320,192,216408,2,0,B|260:208|252:176|192:192,1,125.999996154785,8|2,0:0|0:0,0:0:0:0:
223,313,216974,2,0,P|281:338|344:340,1,125.999996154785,4|2,0:3|0:0,0:0:0:0:
444,248,217540,1,8,0:0:0:0:
432,112,217823,5,2,0:0:0:0:
432,112,217964,1,0,0:0:0:0:
432,112,218106,2,0,P|412:64|312:36,1,161.999995056153,4|2,0:3|0:0,0:0:0:0:
313,36,218672,2,0,P|264:73|248:129,1,107.999996704102,8|2,0:0|0:0,0:0:0:0:
240,248,219238,5,4,0:3:0:0:
236,284,219379,1,8,0:3:0:0:
216,316,219521,1,8,0:3:0:0:
184,336,219662,1,8,0:3:0:0:
148,340,219804,1,8,0:0:0:0:
104,252,220087,1,2,0:0:0:0:
160,172,220370,2,0,P|192:148|344:208,1,215.999993408203,4|8,0:3|0:0,0:0:0:0:
340,200,221219,1,2,0:0:0:0:
356,340,221502,1,8,0:3:0:0:
356,340,221643,1,4,0:3:0:0:
356,340,221785,1,4,0:3:0:0:
460,200,222068,6,0,L|488:152,1,53.9999983520508,8|4,0:3|0:3,0:0:0:0:
424,108,222351,2,0,L|408:56,1,53.9999983520508,4|4,0:3|0:3,0:0:0:0:
332,84,222634,6,0,P|256:84|196:120,1,125.999996154785,4|2,0:0|0:0,0:0:0:0:
332,300,223200,2,0,P|256:300|196:264,1,125.999996154785,8|2,0:0|0:0,0:0:0:0:
414,192,223766,2,0,L|288:192,1,125.999996154785,4|2,0:3|0:0,0:0:0:0:
288,192,224191,2,0,B|244:164|200:192|200:192|156:220|108:192,1,188.999994232178,0|2,0:0|0:0,0:0:0:0:
148,72,224898,5,4,0:3:0:0:
256,264,225181,1,8,0:3:0:0:
256,264,225323,1,4,0:3:0:0:
256,264,225464,1,4,0:3:0:0:
364,72,225747,1,8,0:3:0:0:
336,312,226030,5,8,0:3:0:0:
304,340,226172,1,4,0:3:0:0:
256,352,226313,1,4,0:3:0:0:
208,340,226455,1,4,0:3:0:0:
176,312,226596,1,8,0:0:0:0:
256,120,226879,1,2,0:0:0:0:
372,223,227162,6,0,B|328:223|328:223|288:179|224:179|184:223|184:223|140:223,1,251.999992309571,4|8,0:3|0:0,0:0:0:0:
132,92,228011,1,2,0:0:0:0:
24,160,228294,2,0,P|4:232|60:332,1,188.999994232178,4|2,0:3|0:0,0:0:0:0:
55,328,228860,2,0,P|124:340|172:312,1,125.999996154785,8|2,0:0|0:0,0:0:0:0:
341,313,229426,2,0,P|456:328|488:208,1,251.999992309571,4|8,0:3|0:0,0:0:0:0:
412,68,230276,1,2,0:0:0:0:
328,160,230559,6,0,P|256:192|184:160,1,161.999995056153,4|2,0:3|0:0,0:0:0:0:
207,88,231125,2,0,P|256:67|304:88,1,107.999996704102,0|2,0:3|0:0,0:0:0:0:
402,236,231691,6,0,P|376:299|316:333,1,125.999996154785,4|2,0:0|0:0,0:0:0:0:
211,338,232257,2,0,P|148:312|114:252,1,125.999996154785,8|2,0:0|0:0,0:0:0:0:
109,147,232823,2,0,P|135:84|195:50,1,125.999996154785,4|2,0:3|0:0,0:0:0:0:
300,45,233389,2,0,P|363:71|397:131,1,125.999996154785,8|0,0:0|0:0,0:0:0:0:
298,226,233955,6,2,P|204:196|292:152,1,251.999992309571,2|8,0:0|0:0,0:0:0:0:
388,232,234804,1,0,0:0:0:0:
268,336,235087,2,2,P|180:320|112:184,1,251.999992309571,2|8,0:0|0:0,0:0:0:0:
136,40,235936,5,2,0:0:0:0:
136,40,236077,1,0,0:0:0:0:
136,40,236219,2,2,P|52:88|20:240,1,251.999992309571,2|8,0:0|0:0,0:0:0:0:
92,336,237068,1,2,0:0:0:0:
196,260,237351,2,2,B|224:224|216:180|216:180|256:192|296:180|296:180|288:224|316:260,1,251.999992309571,2|8,0:0|0:0,0:0:0:0:
376,40,238483,2,2,P|460:88|492:240,1,251.999992309571,2|8,0:0|0:0,0:0:0:0:
420,336,239332,1,2,0:0:0:0:
292,360,239615,5,8,3:0:0:0:
256,364,239757,1,4,3:0:0:0:
220,360,239898,1,4,3:0:0:0:
256,192,240181,1,4,0:3:0:0:
292,24,240464,1,8,3:0:0:0:
256,20,240606,1,4,3:0:0:0:
220,24,240747,6,0,B|168:32|168:32|96:68,1,125.999996154785,4|2,0:0|0:0,0:0:0:0:
196,144,241313,2,0,B|176:193|176:193|172:273,1,125.999996154785,8|2,0:0|0:0,0:0:0:0:
316,144,241879,2,0,B|335:193|335:193|339:273,1,125.999996154785,4|2,0:3|0:0,0:0:0:0:
292,24,242445,2,0,B|344:32|344:32|416:68,1,125.999996154785,8|2,0:0|0:0,0:0:0:0:
436,236,243011,6,0,P|436:288|388:352,1,125.999996154785,4|0,0:3|0:0,0:0:0:0:
116,347,243577,2,0,P|79:297|76:236,1,125.999996154785,2|0,0:0|0:0,0:0:0:0:
136,84,244143,2,0,B|176:44|256:88|176:44|256:144|340:44|256:88|340:44|376:84,1,251.999992309571,2|8,0:0|0:0,0:0:0:0:
352,248,245276,5,2,0:0:0:0:
256,312,245559,1,0,0:0:0:0:
256,312,245700,1,0,0:0:0:0:
256,312,245842,1,8,0:0:0:0:
160,248,246125,1,0,0:0:0:0:
256,184,246408,2,0,P|304:144|420:160,1,125.999996154785,2|0,0:0|0:0,0:0:0:0:
365,136,246832,2,0,P|440:88|384:32,1,188.999994232178,2|2,0:0|0:0,0:0:0:0:
232,36,247540,6,0,B|113:56|125:123|3:145,1,251.999992309571,2|8,0:0|0:0,0:0:0:0:
128,220,248389,1,2,0:0:0:0:
252,292,248672,2,0,B|296:316|316:356|316:356|368:348|396:304,2,188.999994232178,2|2|8,0:0|0:0|0:0,0:0:0:0:
256,192,249804,12,4,254332,2:0:0:0:
