osu file format v14

[General]
AudioFilename: optc.mp3
AudioLeadIn: 0
PreviewTime: 256028
Countdown: 0
SampleSet: Soft
StackLeniency: 0.8
Mode: 0
LetterboxInBreaks: 0
EpilepsyWarning: 1
WidescreenStoryboard: 1

[Editor]
Bookmarks: 28028,70695,94695,116028,158695,180028,190695,201361,214695,236028,257361,278695,300028
DistanceSpacing: 1.7
BeatDivisor: 12
GridSize: 32
TimelineZoom: 1.9

[Metadata]
Title:Shinai Naru Sekai e
TitleUnicode:親愛なる世界へ
Artist:Ceui
ArtistUnicode:Ceui
Creator:Shad0w1and
Version:To My Beloved World
Source:穢翼のユースティア
Tags:Aiyoku no Eustia AUGUST
BeatmapID:899410
BeatmapSetID:408441

[Difficulty]
HPDrainRate:6
CircleSize:4
OverallDifficulty:8
ApproachRate:8.8
SliderMultiplier:3
SliderTickRate:1

[Events]
//Background and Video events
0,0,"BG.png",0,0
//Break Periods
//Storyboard Layer 0 (Background)
Sprite,Background,Centre,"BG.png",320,240 S,0,0,,0.6282739 F,1,0,1361,0,1 F,0,1361,28028,1 F,0,28028,28361,1,0.7 F,0,28361,70695,0.7 F,0,70695,71028,0.7,1 F,0,71028,116028,1 F,0,116028,116361,1,0.7 F,0,116361,158695,0.7 F,0,158695,159028,0.7,1 F,0,159028,214695,1 F,0,214695,215028,1,0.7 F,0,215028,257361,0.7 F,0,257361,257695,0.7,1 F,0,257695,300028,1 F,0,300028,305361,1,0.7 F,0,305361,313361,0.7,0.5 F,0,313361,318970,0.5,0
//Storyboard Layer 1 (Fail)
//Storyboard Layer 2 (Pass)
//Storyboard Layer 3 (Foreground)
Sprite,Foreground,Centre,"SB\BGBlur.jpg",320,240 F,0,1361,1695,0.7,0 S,0,1361,1695,0.6282739,0.7 F,0,70695,71028,0.7,0 S,0,70695,71028,0.6282739,0.7 F,0,158695,159028,0.7,0 S,0,158695,159028,0.6282739,0.7 F,0,180028,180361,0.7,0 S,0,180028,180361,0.6282739,0.7 F,0,190695,191028,0.7,0 S,0,190695,191028,0.6282739,0.7 F,0,201361,201695,0.7,0 S,0,201361,201695,0.6282739,0.7 F,0,257361,257695,0.7,0 S,0,257361,257695,0.6282739,0.7
Sprite,Foreground,Centre,"SB\Light.png",320,240 S,0,0,,0.37 MX,0,0,,-90 F,0,468,10468,1,0 MY,0,468,14168,520,-40
Sprite,Foreground,Centre,"SB\Light.png",320,240 S,0,0,,0.23 MX,0,0,,315 F,0,425,10425,1,0 MY,0,425,12725,520,-40
Sprite,Foreground,Centre,"SB\Light.png",320,240 S,0,0,,0.58 MX,0,0,,726 F,0,845,10845,1,0 MY,0,845,16645,520,-40
Sprite,Foreground,Centre,"SB\Light.png",320,240 S,0,0,,0.44 MX,0,0,,29 F,0,1024,11024,1,0 MY,0,1024,15424,520,-40
Sprite,Foreground,Centre,"SB\Light.png",320,240 S,0,0,,0.26 MX,0,0,,-42 F,0,1625,11625,1,0 MY,0,1625,14225,520,-40
Sprite,Foreground,Centre,"SB\Light.png",320,240 S,0,0,,0.26 MX,0,0,,-23 F,0,1282,11282,1,0 MY,0,1282,13882,520,-40
Sprite,Foreground,Centre,"SB\Light.png",320,240 S,0,0,,0.79 MX,0,0,,59 F,0,2156,12156,1,0 MY,0,2156,20056,520,-40
Sprite,Foreground,Centre,"SB\Light.png",320,240 S,0,0,,0.33 MX,0,0,,396 F,0,1968,11968,1,0 MY,0,1968,15268,520,-40
Sprite,Foreground,Centre,"SB\Light.png",320,240 S,0,0,,0.53 MX,0,0,,379 F,0,2709,12709,1,0 MY,0,2709,18009,520,-40
Sprite,Foreground,Centre,"SB\Light.png",320,240 S,0,0,,0.62 MX,0,0,,400 F,0,2533,12533,1,0 MY,0,2533,18733,520,-40
Sprite,Foreground,Centre,"SB\Light.png",320,240 S,0,0,,0.2 MX,0,0,,725 F,0,2892,12892,1,0 MY,0,2892,14892,520,-40
Sprite,Foreground,Centre,"SB\Light.png",320,240 S,0,0,,0.58 MX,0,0,,630 F,0,3182,13182,1,0 MY,0,3182,18982,520,-40
Sprite,Foreground,Centre,"SB\Light.png",320,240 S,0,0,,0.37 MX,0,0,,196 F,0,3538,13538,1,0 MY,0,3538,17238,520,-40
Sprite,Foreground,Centre,"SB\Light.png",320,240 S,0,0,,0.22 MX,0,0,,534 F,0,3250,13250,1,0 MY,0,3250,15450,520,-40
Sprite,Foreground,Centre,"SB\Light.png",320,240 S,0,0,,0.8 MX,0,0,,-40 F,0,3999,13999,1,0 MY,0,3999,21999,520,-40
Sprite,Foreground,Centre,"SB\Light.png",320,240 S,0,0,,0.71 MX,0,0,,500 F,0,4114,14114,1,0 MY,0,4114,21214,520,-40
Sprite,Foreground,Centre,"SB\Light.png",320,240 S,0,0,,0.33 MX,0,0,,42 F,0,4280,14280,1,0 MY,0,4280,17580,520,-40
Sprite,Foreground,Centre,"SB\Light.png",320,240 S,0,0,,0.5 MX,0,0,,233 F,0,4733,14733,1,0 MY,0,4733,19733,520,-40
Sprite,Foreground,Centre,"SB\Light.png",320,240 S,0,0,,0.46 MX,0,0,,750 F,0,4892,14892,1,0 MY,0,4892,19492,520,-40
Sprite,Foreground,Centre,"SB\Light.png",320,240 S,0,0,,0.76 MX,0,0,,262 F,0,4782,14782,1,0 MY,0,4782,22382,520,-40
Sprite,Foreground,Centre,"SB\Light.png",320,240 S,0,0,,0.43 MX,0,0,,427 F,0,5508,15508,1,0 MY,0,5508,19808,520,-40
Sprite,Foreground,Centre,"SB\Light.png",320,240 S,0,0,,0.31 MX,0,0,,116 F,0,5716,15716,1,0 MY,0,5716,18816,520,-40
Sprite,Foreground,Centre,"SB\Light.png",320,240 S,0,0,,0.33 MX,0,0,,653 F,0,5948,15948,1,0 MY,0,5948,19248,520,-40
Sprite,Foreground,Centre,"SB\Light.png",320,240 S,0,0,,0.65 MX,0,0,,310 F,0,5984,15984,1,0 MY,0,5984,22484,520,-40
Sprite,Foreground,Centre,"SB\Light.png",320,240 S,0,0,,0.47 MX,0,0,,587 F,0,6657,16657,1,0 MY,0,6657,21357,520,-40
Sprite,Foreground,Centre,"SB\Light.png",320,240 S,0,0,,0.5 MX,0,0,,697 F,0,6725,16725,1,0 MY,0,6725,21725,520,-40
Sprite,Foreground,Centre,"SB\Light.png",320,240 S,0,0,,0.72 MX,0,0,,53 F,0,6867,16867,1,0 MY,0,6867,24067,520,-40
Sprite,Foreground,Centre,"SB\Light.png",320,240 S,0,0,,0.45 MX,0,0,,323 F,0,7102,17102,1,0 MY,0,7102,21602,520,-40
Sprite,Foreground,Centre,"SB\Light.png",320,240 S,0,0,,0.54 MX,0,0,,164 F,0,7487,17487,1,0 MY,0,7487,22887,520,-40
Sprite,Foreground,Centre,"SB\Light.png",320,240 S,0,0,,0.72 MX,0,0,,388 F,0,7505,17505,1,0 MY,0,7505,24705,520,-40
Sprite,Foreground,Centre,"SB\Light.png",320,240 S,0,0,,0.76 MX,0,0,,330 F,0,7849,17849,1,0 MY,0,7849,25449,520,-40
Sprite,Foreground,Centre,"SB\Light.png",320,240 S,0,0,,0.27 MX,0,0,,307 F,0,7933,17933,1,0 MY,0,7933,20633,520,-40
Sprite,Foreground,Centre,"SB\Light.png",320,240 S,0,0,,0.69 MX,0,0,,379 F,0,8577,18577,1,0 MY,0,8577,25477,520,-40
Sprite,Foreground,Centre,"SB\Light.png",320,240 S,0,0,,0.7 MX,0,0,,174 F,0,8651,18651,1,0 MY,0,8651,25651,520,-40
Sprite,Foreground,Centre,"SB\Light.png",320,240 S,0,0,,0.62 MX,0,0,,400 F,0,9063,19063,1,0 MY,0,9063,25263,520,-40
Sprite,Foreground,Centre,"SB\Light.png",320,240 S,0,0,,0.55 MX,0,0,,19 F,0,8990,18990,1,0 MY,0,8990,24490,520,-40
Sprite,Foreground,Centre,"SB\Light.png",320,240 S,0,0,,0.23 MX,0,0,,177 F,0,9273,19273,1,0 MY,0,9273,21573,520,-40
Sprite,Foreground,Centre,"SB\Light.png",320,240 S,0,0,,0.34 MX,0,0,,603 F,0,9715,19715,1,0 MY,0,9715,23115,520,-40
Sprite,Foreground,Centre,"SB\Light.png",320,240 S,0,0,,0.27 MX,0,0,,589 F,0,9783,19783,1,0 MY,0,9783,22483,520,-40
Sprite,Foreground,Centre,"SB\Light.png",320,240 S,0,0,,0.77 MX,0,0,,283 F,0,10232,20232,1,0 MY,0,10232,27932,520,-40
Sprite,Foreground,Centre,"SB\Light.png",320,240 S,0,0,,0.38 MX,0,0,,653 F,0,10560,20560,1,0 MY,0,10560,24360,520,-40
Sprite,Foreground,Centre,"SB\Light.png",320,240 S,0,0,,0.79 MX,0,0,,122 F,0,10429,20429,1,0 MY,0,10429,28329,520,-40
Sprite,Foreground,Centre,"SB\Light.png",320,240 S,0,0,,0.39 MX,0,0,,276 F,0,11161,21161,1,0 MY,0,11161,25061,520,-40
Sprite,Foreground,Centre,"SB\Light.png",320,240 S,0,0,,0.42 MX,0,0,,144 F,0,10913,20913,1,0 MY,0,10913,25113,520,-40
Sprite,Foreground,Centre,"SB\Light.png",320,240 S,0,0,,0.72 MX,0,0,,262 F,0,11593,21593,1,0 MY,0,11593,28793,520,-40
Sprite,Foreground,Centre,"SB\Light.png",320,240 S,0,0,,0.75 MX,0,0,,-43 F,0,11268,21268,1,0 MY,0,11268,28768,520,-40
Sprite,Foreground,Centre,"SB\Light.png",320,240 S,0,0,,0.3 MX,0,0,,745 F,0,12113,22113,1,0 MY,0,12113,25113,520,-40
Sprite,Foreground,Centre,"SB\Light.png",320,240 S,0,0,,0.34 MX,0,0,,288 F,0,12242,22242,1,0 MY,0,12242,25642,520,-40
Sprite,Foreground,Centre,"SB\Light.png",320,240 S,0,0,,0.61 MX,0,0,,120 F,0,12650,22650,1,0 MY,0,12650,28750,520,-40
Sprite,Foreground,Centre,"SB\Light.png",320,240 S,0,0,,0.61 MX,0,0,,147 F,0,12591,22591,1,0 MY,0,12591,28691,520,-40
Sprite,Foreground,Centre,"SB\Light.png",320,240 S,0,0,,0.26 MX,0,0,,484 F,0,12751,22751,1,0 MY,0,12751,25351,520,-40
Sprite,Foreground,Centre,"SB\Light.png",320,240 S,0,0,,0.47 MX,0,0,,46 F,0,13188,23188,1,0 MY,0,13188,27888,520,-40
Sprite,Foreground,Centre,"SB\Light.png",320,240 S,0,0,,0.39 MX,0,0,,119 F,0,13507,23507,1,0 MY,0,13507,27407,520,-40
Sprite,Foreground,Centre,"SB\Light.png",320,240 S,0,0,,0.62 MX,0,0,,457 F,0,13607,23607,1,0 MY,0,13607,29807,520,-40
Sprite,Foreground,Centre,"SB\Light.png",320,240 S,0,0,,0.22 MX,0,0,,511 F,0,13882,23882,1,0 MY,0,13882,26082,520,-40
Sprite,Foreground,Centre,"SB\Light.png",320,240 S,0,0,,0.44 MX,0,0,,99 F,0,14096,24096,1,0 MY,0,14096,28496,520,-40
Sprite,Foreground,Centre,"SB\Light.png",320,240 S,0,0,,0.64 MX,0,0,,-86 F,0,14442,24442,1,0 MY,0,14442,30842,520,-40
Sprite,Foreground,Centre,"SB\Light.png",320,240 S,0,0,,0.48 MX,0,0,,94 F,0,14355,24355,1,0 MY,0,14355,29155,520,-40
Sprite,Foreground,Centre,"SB\Light.png",320,240 S,0,0,,0.45 MX,0,0,,439 F,0,15138,25138,1,0 MY,0,15138,29638,520,-40
Sprite,Foreground,Centre,"SB\Light.png",320,240 S,0,0,,0.2 MX,0,0,,371 F,0,14781,24781,1,0 MY,0,14781,26781,520,-40
Sprite,Foreground,Centre,"SB\Light.png",320,240 S,0,0,,0.29 MX,0,0,,10 F,0,15396,25396,1,0 MY,0,15396,28296,520,-40
Sprite,Foreground,Centre,"SB\Light.png",320,240 S,0,0,,0.56 MX,0,0,,167 F,0,15576,25576,1,0 MY,0,15576,31176,520,-40
Sprite,Foreground,Centre,"SB\Light.png",320,240 S,0,0,,0.35 MX,0,0,,588 F,0,15879,25879,1,0 MY,0,15879,29379,520,-40
Sprite,Foreground,Centre,"SB\Light.png",320,240 S,0,0,,0.69 MX,0,0,,340 F,0,15957,25957,1,0 MY,0,15957,32857,520,-40
Sprite,Foreground,Centre,"SB\Light.png",320,240 S,0,0,,0.4 MX,0,0,,-99 F,0,16544,26544,1,0 MY,0,16544,30544,520,-40
Sprite,Foreground,Centre,"SB\Light.png",320,240 S,0,0,,0.65 MX,0,0,,508 F,0,16483,26483,1,0 MY,0,16483,32983,520,-40
Sprite,Foreground,Centre,"SB\Light.png",320,240 S,0,0,,0.21 MX,0,0,,-18 F,0,16853,26853,1,0 MY,0,16853,28953,520,-40
Sprite,Foreground,Centre,"SB\Light.png",320,240 S,0,0,,0.36 MX,0,0,,146 F,0,16893,26893,1,0 MY,0,16893,30493,520,-40
Sprite,Foreground,Centre,"SB\Light.png",320,240 S,0,0,,0.47 MX,0,0,,571 F,0,17720,27720,1,0 MY,0,17720,32420,520,-40
Sprite,Foreground,Centre,"SB\Light.png",320,240 S,0,0,,0.53 MX,0,0,,-25 F,0,17573,27573,1,0 MY,0,17573,32873,520,-40
Sprite,Foreground,Centre,"SB\Light.png",320,240 S,0,0,,0.63 MX,0,0,,278 F,0,17760,27760,1,0 MY,0,17760,34060,520,-40
Sprite,Foreground,Centre,"SB\Light.png",320,240 S,0,0,,0.51 MX,0,0,,251 F,0,17910,27910,1,0 MY,0,17910,33010,520,-40
Sprite,Foreground,Centre,"SB\Light.png",320,240 S,0,0,,0.44 MX,0,0,,416 F,0,18527,28527,1,0 MY,0,18527,32927,520,-40
Sprite,Foreground,Centre,"SB\Light.png",320,240 S,0,0,,0.46 MX,0,0,,262 F,0,18467,28467,1,0 MY,0,18467,33067,520,-40
Sprite,Foreground,Centre,"SB\Light.png",320,240 S,0,0,,0.5 MX,0,0,,723 F,0,18822,28822,1,0 MY,0,18822,33822,520,-40
Sprite,Foreground,Centre,"SB\Light.png",320,240 S,0,0,,0.33 MX,0,0,,427 F,0,19211,29211,1,0 MY,0,19211,32511,520,-40
Sprite,Foreground,Centre,"SB\Light.png",320,240 S,0,0,,0.76 MX,0,0,,156 F,0,19315,29315,1,0 MY,0,19315,36915,520,-40
Sprite,Foreground,Centre,"SB\Light.png",320,240 S,0,0,,0.47 MX,0,0,,627 F,0,19591,29591,1,0 MY,0,19591,34291,520,-40
Sprite,Foreground,Centre,"SB\Light.png",320,240 S,0,0,,0.71 MX,0,0,,-105 F,0,20239,30239,1,0 MY,0,20239,37339,520,-40
Sprite,Foreground,Centre,"SB\Light.png",320,240 S,0,0,,0.52 MX,0,0,,503 F,0,20189,30189,1,0 MY,0,20189,35389,520,-40
Sprite,Foreground,Centre,"SB\Light.png",320,240 S,0,0,,0.63 MX,0,0,,417 F,0,20325,30325,1,0 MY,0,20325,36625,520,-40
Sprite,Foreground,Centre,"SB\Light.png",320,240 S,0,0,,0.24 MX,0,0,,229 F,0,20603,30603,1,0 MY,0,20603,33003,520,-40
Sprite,Foreground,Centre,"SB\Light.png",320,240 S,0,0,,0.56 MX,0,0,,119 F,0,20802,30802,1,0 MY,0,20802,36402,520,-40
Sprite,Foreground,Centre,"SB\Light.png",320,240 S,0,0,,0.26 MX,0,0,,676 F,0,21158,31158,1,0 MY,0,21158,33758,520,-40
Sprite,Foreground,Centre,"SB\Light.png",320,240 S,0,0,,0.61 MX,0,0,,553 F,0,21421,31421,1,0 MY,0,21421,37521,520,-40
Sprite,Foreground,Centre,"SB\Light.png",320,240 S,0,0,,0.4 MX,0,0,,12 F,0,21546,31546,1,0 MY,0,21546,35546,520,-40
Sprite,Foreground,Centre,"SB\Light.png",320,240 S,0,0,,0.3 MX,0,0,,-94 F,0,22133,32133,1,0 MY,0,22133,35133,520,-40
Sprite,Foreground,Centre,"SB\Light.png",320,240 S,0,0,,0.68 MX,0,0,,334 F,0,21865,31865,1,0 MY,0,21865,38665,520,-40
Sprite,Foreground,Centre,"SB\Light.png",320,240 S,0,0,,0.56 MX,0,0,,181 F,0,22563,32563,1,0 MY,0,22563,38163,520,-40
Sprite,Foreground,Centre,"SB\Light.png",320,240 S,0,0,,0.45 MX,0,0,,185 F,0,22378,32378,1,0 MY,0,22378,36878,520,-40
Sprite,Foreground,Centre,"SB\Light.png",320,240 S,0,0,,0.74 MX,0,0,,471 F,0,23088,33088,1,0 MY,0,23088,40488,520,-40
Sprite,Foreground,Centre,"SB\Light.png",320,240 S,0,0,,0.7 MX,0,0,,134 F,0,23184,33184,1,0 MY,0,23184,40184,520,-40
Sprite,Foreground,Centre,"SB\Light.png",320,240 S,0,0,,0.55 MX,0,0,,268 F,0,23610,33610,1,0 MY,0,23610,39110,520,-40
Sprite,Foreground,Centre,"SB\Light.png",320,240 S,0,0,,0.41 MX,0,0,,592 F,0,23467,33467,1,0 MY,0,23467,37567,520,-40
Sprite,Foreground,Centre,"SB\Light.png",320,240 S,0,0,,0.44 MX,0,0,,160 F,0,24065,34065,1,0 MY,0,24065,38465,520,-40
Sprite,Foreground,Centre,"SB\Light.png",320,240 S,0,0,,0.25 MX,0,0,,182 F,0,24156,34156,1,0 MY,0,24156,36656,520,-40
Sprite,Foreground,Centre,"SB\Light.png",320,240 S,0,0,,0.72 MX,0,0,,222 F,0,24639,34639,1,0 MY,0,24639,41839,520,-40
Sprite,Foreground,Centre,"SB\Light.png",320,240 S,0,0,,0.62 MX,0,0,,-14 F,0,24507,34507,1,0 MY,0,24507,40707,520,-40
Sprite,Foreground,Centre,"SB\Light.png",320,240 S,0,0,,0.25 MX,0,0,,682 F,0,24932,34932,1,0 MY,0,24932,37432,520,-40
Sprite,Foreground,Centre,"SB\Light.png",320,240 S,0,0,,0.23 MX,0,0,,-41 F,0,25211,35211,1,0 MY,0,25211,37511,520,-40
Sprite,Foreground,Centre,"SB\Light.png",320,240 S,0,0,,0.76 MX,0,0,,620 F,0,25489,35489,1,0 MY,0,25489,43089,520,-40
Sprite,Foreground,Centre,"SB\Light.png",320,240 S,0,0,,0.34 MX,0,0,,10 F,0,25340,35340,1,0 MY,0,25340,38740,520,-40
Sprite,Foreground,Centre,"SB\Light.png",320,240 S,0,0,,0.49 MX,0,0,,298 F,0,25854,35854,1,0 MY,0,25854,40754,520,-40
Sprite,Foreground,Centre,"SB\Light.png",320,240 S,0,0,,0.62 MX,0,0,,640 F,0,26178,36178,1,0 MY,0,26178,42378,520,-40
Sprite,Foreground,Centre,"SB\Light.png",320,240 S,0,0,,0.32 MX,0,0,,175 F,0,26627,36627,1,0 MY,0,26627,39827,520,-40
Sprite,Foreground,Centre,"SB\Light.png",320,240 S,0,0,,0.32 MX,0,0,,406 F,0,26655,36655,1,0 MY,0,26655,39855,520,-40
Sprite,Foreground,Centre,"SB\Light.png",320,240 S,0,0,,0.8 MX,0,0,,591 F,0,26947,36947,1,0 MY,0,26947,44947,520,-40
Sprite,Foreground,Centre,"SB\Light.png",320,240 S,0,0,,0.78 MX,0,0,,302 F,0,27004,37004,1,0 MY,0,27004,44804,520,-40
Sprite,Foreground,Centre,"SB\Light.png",320,240 S,0,0,,0.54 MX,0,0,,29 F,0,27525,37525,1,0 MY,0,27525,42925,520,-40
Sprite,Foreground,Centre,"SB\Light.png",320,240 S,0,0,,0.42 MX,0,0,,324 F,0,27353,37353,1,0 MY,0,27353,41553,520,-40
Sprite,Foreground,Centre,"SB\Light.png",320,240 S,0,0,,0.41 MX,0,0,,578 F,0,28113,38113,1,0 MY,0,28113,42213,520,-40
Sprite,Foreground,Centre,"SB\Light.png",320,240 S,0,0,,0.78 MX,0,0,,713 F,0,28010,38010,1,0 MY,0,28010,45810,520,-40
Sprite,Foreground,Centre,"SB\Light.png",320,240 S,0,0,,0.3 MX,0,0,,277 F,0,28467,38467,1,0 MY,0,28467,41467,520,-40
Sprite,Foreground,Centre,"SB\Light.png",320,240 S,0,0,,0.72 MX,0,0,,408 F,0,28329,38329,1,0 MY,0,28329,45529,520,-40
Sprite,Foreground,Centre,"SB\Light.png",320,240 S,0,0,,0.51 MX,0,0,,683 F,0,29049,39049,1,0 MY,0,29049,44149,520,-40
Sprite,Foreground,Centre,"SB\Light.png",320,240 S,0,0,,0.67 MX,0,0,,544 F,0,28830,38830,1,0 MY,0,28830,45530,520,-40
Sprite,Foreground,Centre,"SB\Light.png",320,240 S,0,0,,0.39 MX,0,0,,366 F,0,29495,39495,1,0 MY,0,29495,43395,520,-40
Sprite,Foreground,Centre,"SB\Light.png",320,240 S,0,0,,0.36 MX,0,0,,342 F,0,29697,39697,1,0 MY,0,29697,43297,520,-40
Sprite,Foreground,Centre,"SB\Light.png",320,240 S,0,0,,0.42 MX,0,0,,724 F,0,29777,39777,1,0 MY,0,29777,43977,520,-40
Sprite,Foreground,Centre,"SB\Light.png",320,240 S,0,0,,0.79 MX,0,0,,432 F,0,30234,40234,1,0 MY,0,30234,48134,520,-40
Sprite,Foreground,Centre,"SB\Light.png",320,240 S,0,0,,0.79 MX,0,0,,-108 F,0,30588,40588,1,0 MY,0,30588,48488,520,-40
Sprite,Foreground,Centre,"SB\Light.png",320,240 S,0,0,,0.24 MX,0,0,,2 F,0,30312,40312,1,0 MY,0,30312,42712,520,-40
Sprite,Foreground,Centre,"SB\Light.png",320,240 S,0,0,,0.42 MX,0,0,,91 F,0,30922,40922,1,0 MY,0,30922,45122,520,-40
Sprite,Foreground,Centre,"SB\Light.png",320,240 S,0,0,,0.29 MX,0,0,,213 F,0,30868,40868,1,0 MY,0,30868,43768,520,-40
Sprite,Foreground,Centre,"SB\Light.png",320,240 S,0,0,,0.32 MX,0,0,,93 F,0,31264,41264,1,0 MY,0,31264,44464,520,-40
Sprite,Foreground,Centre,"SB\Light.png",320,240 S,0,0,,0.53 MX,0,0,,673 F,0,31316,41316,1,0 MY,0,31316,46616,520,-40
Sprite,Foreground,Centre,"SB\Light.png",320,240 S,0,0,,0.44 MX,0,0,,224 F,0,31972,41972,1,0 MY,0,31972,46372,520,-40
Sprite,Foreground,Centre,"SB\Light.png",320,240 S,0,0,,0.77 MX,0,0,,506 F,0,32141,42141,1,0 MY,0,32141,49841,520,-40
Sprite,Foreground,Centre,"SB\Light.png",320,240 S,0,0,,0.36 MX,0,0,,606 F,0,32271,42271,1,0 MY,0,32271,45871,520,-40
Sprite,Foreground,Centre,"SB\Light.png",320,240 S,0,0,,0.8 MX,0,0,,290 F,0,32296,42296,1,0 MY,0,32296,50296,520,-40
Sprite,Foreground,Centre,"SB\Light.png",320,240 S,0,0,,0.7 MX,0,0,,292 F,0,33049,43049,1,0 MY,0,33049,50049,520,-40
Sprite,Foreground,Centre,"SB\Light.png",320,240 S,0,0,,0.56 MX,0,0,,305 F,0,32848,42848,1,0 MY,0,32848,48448,520,-40
Sprite,Foreground,Centre,"SB\Light.png",320,240 S,0,0,,0.68 MX,0,0,,298 F,0,33698,43698,1,0 MY,0,33698,50498,520,-40
Sprite,Foreground,Centre,"SB\Light.png",320,240 S,0,0,,0.52 MX,0,0,,593 F,0,33470,43470,1,0 MY,0,33470,48670,520,-40
Sprite,Foreground,Centre,"SB\Light.png",320,240 S,0,0,,0.3 MX,0,0,,108 F,0,33952,43952,1,0 MY,0,33952,46952,520,-40
Sprite,Foreground,Centre,"SB\Light.png",320,240 S,0,0,,0.37 MX,0,0,,634 F,0,33835,43835,1,0 MY,0,33835,47535,520,-40
Sprite,Foreground,Centre,"SB\Light.png",320,240 S,0,0,,0.23 MX,0,0,,683 F,0,34277,44277,1,0 MY,0,34277,46577,520,-40
Sprite,Foreground,Centre,"SB\Light.png",320,240 S,0,0,,0.34 MX,0,0,,340 F,0,34657,44657,1,0 MY,0,34657,48057,520,-40
Sprite,Foreground,Centre,"SB\Light.png",320,240 S,0,0,,0.37 MX,0,0,,659 F,0,35038,45038,1,0 MY,0,35038,48738,520,-40
Sprite,Foreground,Centre,"SB\Light.png",320,240 S,0,0,,0.38 MX,0,0,,-40 F,0,34759,44759,1,0 MY,0,34759,48559,520,-40
Sprite,Foreground,Centre,"SB\Light.png",320,240 S,0,0,,0.66 MX,0,0,,106 F,0,35650,45650,1,0 MY,0,35650,52250,520,-40
Sprite,Foreground,Centre,"SB\Light.png",320,240 S,0,0,,0.75 MX,0,0,,440 F,0,35444,45444,1,0 MY,0,35444,52944,520,-40
Sprite,Foreground,Centre,"SB\Light.png",320,240 S,0,0,,0.66 MX,0,0,,606 F,0,35915,45915,1,0 MY,0,35915,52515,520,-40
Sprite,Foreground,Centre,"SB\Light.png",320,240 S,0,0,,0.46 MX,0,0,,94 F,0,36056,46056,1,0 MY,0,36056,50656,520,-40
Sprite,Foreground,Centre,"SB\Light.png",320,240 S,0,0,,0.54 MX,0,0,,-108 F,0,36633,46633,1,0 MY,0,36633,52033,520,-40
Sprite,Foreground,Centre,"SB\Light.png",320,240 S,0,0,,0.48 MX,0,0,,214 F,0,36689,46689,1,0 MY,0,36689,51489,520,-40
Sprite,Foreground,Centre,"SB\Light.png",320,240 S,0,0,,0.79 MX,0,0,,640 F,0,37136,47136,1,0 MY,0,37136,55036,520,-40
Sprite,Foreground,Centre,"SB\Light.png",320,240 S,0,0,,0.53 MX,0,0,,-77 F,0,37243,47243,1,0 MY,0,37243,52543,520,-40
Sprite,Foreground,Centre,"SB\Light.png",320,240 S,0,0,,0.77 MX,0,0,,565 F,0,37715,47715,1,0 MY,0,37715,55415,520,-40
Sprite,Foreground,Centre,"SB\Light.png",320,240 S,0,0,,0.55 MX,0,0,,424 F,0,37539,47539,1,0 MY,0,37539,53039,520,-40
Sprite,Foreground,Centre,"SB\Light.png",320,240 S,0,0,,0.43 MX,0,0,,644 F,0,37906,47906,1,0 MY,0,37906,52206,520,-40
Sprite,Foreground,Centre,"SB\Light.png",320,240 S,0,0,,0.54 MX,0,0,,442 F,0,37997,47997,1,0 MY,0,37997,53397,520,-40
Sprite,Foreground,Centre,"SB\Light.png",320,240 S,0,0,,0.57 MX,0,0,,-96 F,0,38629,48629,1,0 MY,0,38629,54329,520,-40
Sprite,Foreground,Centre,"SB\Light.png",320,240 S,0,0,,0.21 MX,0,0,,613 F,0,38385,48385,1,0 MY,0,38385,50485,520,-40
Sprite,Foreground,Centre,"SB\Light.png",320,240 S,0,0,,0.61 MX,0,0,,269 F,0,39017,49017,1,0 MY,0,39017,55117,520,-40
Sprite,Foreground,Centre,"SB\Light.png",320,240 S,0,0,,0.51 MX,0,0,,-70 F,0,39061,49061,1,0 MY,0,39061,54161,520,-40
Sprite,Foreground,Centre,"SB\Light.png",320,240 S,0,0,,0.51 MX,0,0,,491 F,0,39586,49586,1,0 MY,0,39586,54686,520,-40
Sprite,Foreground,Centre,"SB\Light.png",320,240 S,0,0,,0.32 MX,0,0,,102 F,0,39663,49663,1,0 MY,0,39663,52863,520,-40
Sprite,Foreground,Centre,"SB\Light.png",320,240 S,0,0,,0.32 MX,0,0,,591 F,0,39915,49915,1,0 MY,0,39915,53115,520,-40
Sprite,Foreground,Centre,"SB\Light.png",320,240 S,0,0,,0.72 MX,0,0,,285 F,0,39863,49863,1,0 MY,0,39863,57063,520,-40
Sprite,Foreground,Centre,"SB\Light.png",320,240 S,0,0,,0.32 MX,0,0,,536 F,0,40732,50732,1,0 MY,0,40732,53932,520,-40
Sprite,Foreground,Centre,"SB\Light.png",320,240 S,0,0,,0.42 MX,0,0,,148 F,0,40332,50332,1,0 MY,0,40332,54532,520,-40
Sprite,Foreground,Centre,"SB\Light.png",320,240 S,0,0,,0.42 MX,0,0,,124 F,0,40772,50772,1,0 MY,0,40772,54972,520,-40
Sprite,Foreground,Centre,"SB\Light.png",320,240 S,0,0,,0.41 MX,0,0,,-7 F,0,40752,50752,1,0 MY,0,40752,54852,520,-40
Sprite,Foreground,Centre,"SB\Light.png",320,240 S,0,0,,0.21 MX,0,0,,322 F,0,41674,51674,1,0 MY,0,41674,53774,520,-40
Sprite,Foreground,Centre,"SB\Light.png",320,240 S,0,0,,0.56 MX,0,0,,276 F,0,41718,51718,1,0 MY,0,41718,57318,520,-40
Sprite,Foreground,Centre,"SB\Light.png",320,240 S,0,0,,0.65 MX,0,0,,153 F,0,42179,52179,1,0 MY,0,42179,58679,520,-40
Sprite,Foreground,Centre,"SB\Light.png",320,240 S,0,0,,0.76 MX,0,0,,671 F,0,41962,51962,1,0 MY,0,41962,59562,520,-40
Sprite,Foreground,Centre,"SB\Light.png",320,240 S,0,0,,0.58 MX,0,0,,309 F,0,42285,52285,1,0 MY,0,42285,58085,520,-40
Sprite,Foreground,Centre,"SB\Light.png",320,240 S,0,0,,0.7 MX,0,0,,29 F,0,42341,52341,1,0 MY,0,42341,59341,520,-40
Sprite,Foreground,Centre,"SB\Light.png",320,240 S,0,0,,0.53 MX,0,0,,346 F,0,42927,52927,1,0 MY,0,42927,58227,520,-40
Sprite,Foreground,Centre,"SB\Light.png",320,240 S,0,0,,0.25 MX,0,0,,154 F,0,43131,53131,1,0 MY,0,43131,55631,520,-40
Sprite,Foreground,Centre,"SB\Light.png",320,240 S,0,0,,0.28 MX,0,0,,207 F,0,43661,53661,1,0 MY,0,43661,56461,520,-40
Sprite,Foreground,Centre,"SB\Light.png",320,240 S,0,0,,0.67 MX,0,0,,388 F,0,43411,53411,1,0 MY,0,43411,60111,520,-40
Sprite,Foreground,Centre,"SB\Light.png",320,240 S,0,0,,0.55 MX,0,0,,463 F,0,43829,53829,1,0 MY,0,43829,59329,520,-40
Sprite,Foreground,Centre,"SB\Light.png",320,240 S,0,0,,0.65 MX,0,0,,731 F,0,43828,53828,1,0 MY,0,43828,60328,520,-40
Sprite,Foreground,Centre,"SB\Light.png",320,240 S,0,0,,0.42 MX,0,0,,230 F,0,44339,54339,1,0 MY,0,44339,58539,520,-40
Sprite,Foreground,Centre,"SB\Light.png",320,240 S,0,0,,0.29 MX,0,0,,207 F,0,44557,54557,1,0 MY,0,44557,57457,520,-40
Sprite,Foreground,Centre,"SB\Light.png",320,240 S,0,0,,0.71 MX,0,0,,353 F,0,44808,54808,1,0 MY,0,44808,61908,520,-40
Sprite,Foreground,Centre,"SB\Light.png",320,240 S,0,0,,0.69 MX,0,0,,-30 F,0,44895,54895,1,0 MY,0,44895,61795,520,-40
Sprite,Foreground,Centre,"SB\Light.png",320,240 S,0,0,,0.26 MX,0,0,,632 F,0,45616,55616,1,0 MY,0,45616,58216,520,-40
Sprite,Foreground,Centre,"SB\Light.png",320,240 S,0,0,,0.56 MX,0,0,,449 F,0,45518,55518,1,0 MY,0,45518,61118,520,-40
Sprite,Foreground,Centre,"SB\Light.png",320,240 S,0,0,,0.31 MX,0,0,,-36 F,0,46152,56152,1,0 MY,0,46152,59252,520,-40
Sprite,Foreground,Centre,"SB\Light.png",320,240 S,0,0,,0.24 MX,0,0,,-12 F,0,46221,56221,1,0 MY,0,46221,58621,520,-40
Sprite,Foreground,Centre,"SB\Light.png",320,240 S,0,0,,0.64 MX,0,0,,350 F,0,46478,56478,1,0 MY,0,46478,62878,520,-40
Sprite,Foreground,Centre,"SB\Light.png",320,240 S,0,0,,0.34 MX,0,0,,118 F,0,46732,56732,1,0 MY,0,46732,60132,520,-40
Sprite,Foreground,Centre,"SB\Light.png",320,240 S,0,0,,0.51 MX,0,0,,677 F,0,46921,56921,1,0 MY,0,46921,62021,520,-40
Sprite,Foreground,Centre,"SB\Light.png",320,240 S,0,0,,0.66 MX,0,0,,-108 F,0,47193,57193,1,0 MY,0,47193,63793,520,-40
Sprite,Foreground,Centre,"SB\Light.png",320,240 S,0,0,,0.29 MX,0,0,,527 F,0,47480,57480,1,0 MY,0,47480,60380,520,-40
Sprite,Foreground,Centre,"SB\Light.png",320,240 S,0,0,,0.66 MX,0,0,,444 F,0,47452,57452,1,0 MY,0,47452,64052,520,-40
Sprite,Foreground,Centre,"SB\Light.png",320,240 S,0,0,,0.36 MX,0,0,,346 F,0,47873,57873,1,0 MY,0,47873,61473,520,-40
Sprite,Foreground,Centre,"SB\Light.png",320,240 S,0,0,,0.63 MX,0,0,,399 F,0,47914,57914,1,0 MY,0,47914,64214,520,-40
Sprite,Foreground,Centre,"SB\Light.png",320,240 S,0,0,,0.21 MX,0,0,,427 F,0,48583,58583,1,0 MY,0,48583,60683,520,-40
Sprite,Foreground,Centre,"SB\Light.png",320,240 S,0,0,,0.74 MX,0,0,,195 F,0,48745,58745,1,0 MY,0,48745,66145,520,-40
Sprite,Foreground,Centre,"SB\Light.png",320,240 S,0,0,,0.37 MX,0,0,,94 F,0,49025,59025,1,0 MY,0,49025,62725,520,-40
Sprite,Foreground,Centre,"SB\Light.png",320,240 S,0,0,,0.7 MX,0,0,,25 F,0,48893,58893,1,0 MY,0,48893,65893,520,-40
Sprite,Foreground,Centre,"SB\Light.png",320,240 S,0,0,,0.36 MX,0,0,,22 F,0,49463,59463,1,0 MY,0,49463,63063,520,-40
Sprite,Foreground,Centre,"SB\Light.png",320,240 S,0,0,,0.3 MX,0,0,,705 F,0,49551,59551,1,0 MY,0,49551,62551,520,-40
Sprite,Foreground,Centre,"SB\Light.png",320,240 S,0,0,,0.72 MX,0,0,,619 F,0,49902,59902,1,0 MY,0,49902,67102,520,-40
Sprite,Foreground,Centre,"SB\Light.png",320,240 S,0,0,,0.75 MX,0,0,,-46 F,0,49921,59921,1,0 MY,0,49921,67421,520,-40
Sprite,Foreground,Centre,"SB\Light.png",320,240 S,0,0,,0.47 MX,0,0,,233 F,0,50465,60465,1,0 MY,0,50465,65165,520,-40
Sprite,Foreground,Centre,"SB\Light.png",320,240 S,0,0,,0.55 MX,0,0,,488 F,0,50462,60462,1,0 MY,0,50462,65962,520,-40
Sprite,Foreground,Centre,"SB\Light.png",320,240 S,0,0,,0.77 MX,0,0,,1 F,0,51153,61153,1,0 MY,0,51153,68853,520,-40
Sprite,Foreground,Centre,"SB\Light.png",320,240 S,0,0,,0.59 MX,0,0,,146 F,0,50755,60755,1,0 MY,0,50755,66655,520,-40
Sprite,Foreground,Centre,"SB\Light.png",320,240 S,0,0,,0.54 MX,0,0,,194 F,0,51362,61362,1,0 MY,0,51362,66762,520,-40
Sprite,Foreground,Centre,"SB\Light.png",320,240 S,0,0,,0.66 MX,0,0,,177 F,0,51560,61560,1,0 MY,0,51560,68160,520,-40
Sprite,Foreground,Centre,"SB\Light.png",320,240 S,0,0,,0.55 MX,0,0,,39 F,0,51993,61993,1,0 MY,0,51993,67493,520,-40
Sprite,Foreground,Centre,"SB\Light.png",320,240 S,0,0,,0.49 MX,0,0,,731 F,0,51913,61913,1,0 MY,0,51913,66813,520,-40
Sprite,Foreground,Centre,"SB\Light.png",320,240 S,0,0,,0.55 MX,0,0,,445 F,0,52499,62499,1,0 MY,0,52499,67999,520,-40
Sprite,Foreground,Centre,"SB\Light.png",320,240 S,0,0,,0.65 MX,0,0,,-90 F,0,52298,62298,1,0 MY,0,52298,68798,520,-40
Sprite,Foreground,Centre,"SB\Light.png",320,240 S,0,0,,0.53 MX,0,0,,167 F,0,53178,63178,1,0 MY,0,53178,68478,520,-40
Sprite,Foreground,Centre,"SB\Light.png",320,240 S,0,0,,0.78 MX,0,0,,371 F,0,52803,62803,1,0 MY,0,52803,70603,520,-40
Sprite,Foreground,Centre,"SB\Light.png",320,240 S,0,0,,0.53 MX,0,0,,-2 F,0,53474,63474,1,0 MY,0,53474,68774,520,-40
Sprite,Foreground,Centre,"SB\Light.png",320,240 S,0,0,,0.21 MX,0,0,,304 F,0,53598,63598,1,0 MY,0,53598,65698,520,-40
Sprite,Foreground,Centre,"SB\Light.png",320,240 S,0,0,,0.72 MX,0,0,,247 F,0,54196,64196,1,0 MY,0,54196,71396,520,-40
Sprite,Foreground,Centre,"SB\Light.png",320,240 S,0,0,,0.56 MX,0,0,,213 F,0,54065,64065,1,0 MY,0,54065,69665,520,-40
Sprite,Foreground,Centre,"SB\Light.png",320,240 S,0,0,,0.51 MX,0,0,,479 F,0,54559,64559,1,0 MY,0,54559,69659,520,-40
Sprite,Foreground,Centre,"SB\Light.png",320,240 S,0,0,,0.74 MX,0,0,,627 F,0,54297,64297,1,0 MY,0,54297,71697,520,-40
Sprite,Foreground,Centre,"SB\Light.png",320,240 S,0,0,,0.45 MX,0,0,,-23 F,0,54914,64914,1,0 MY,0,54914,69414,520,-40
Sprite,Foreground,Centre,"SB\Light.png",320,240 S,0,0,,0.23 MX,0,0,,688 F,0,55226,65226,1,0 MY,0,55226,67526,520,-40
Sprite,Foreground,Centre,"SB\Light.png",320,240 S,0,0,,0.26 MX,0,0,,500 F,0,55250,65250,1,0 MY,0,55250,67850,520,-40
Sprite,Foreground,Centre,"SB\Light.png",320,240 S,0,0,,0.79 MX,0,0,,23 F,0,55349,65349,1,0 MY,0,55349,73249,520,-40
Sprite,Foreground,Centre,"SB\Light.png",320,240 S,0,0,,0.68 MX,0,0,,-9 F,0,55796,65796,1,0 MY,0,55796,72596,520,-40
Sprite,Foreground,Centre,"SB\Light.png",320,240 S,0,0,,0.32 MX,0,0,,37 F,0,56053,66053,1,0 MY,0,56053,69253,520,-40
Sprite,Foreground,Centre,"SB\Light.png",320,240 S,0,0,,0.62 MX,0,0,,570 F,0,56361,66361,1,0 MY,0,56361,72561,520,-40
Sprite,Foreground,Centre,"SB\Light.png",320,240 S,0,0,,0.54 MX,0,0,,266 F,0,56527,66527,1,0 MY,0,56527,71927,520,-40
Sprite,Foreground,Centre,"SB\Light.png",320,240 S,0,0,,0.36 MX,0,0,,636 F,0,57068,67068,1,0 MY,0,57068,70668,520,-40
Sprite,Foreground,Centre,"SB\Light.png",320,240 S,0,0,,0.4 MX,0,0,,301 F,0,57246,67246,1,0 MY,0,57246,71246,520,-40
Sprite,Foreground,Centre,"SB\Light.png",320,240 S,0,0,,0.48 MX,0,0,,545 F,0,57365,67365,1,0 MY,0,57365,72165,520,-40
Sprite,Foreground,Centre,"SB\Light.png",320,240 S,0,0,,0.47 MX,0,0,,561 F,0,57574,67574,1,0 MY,0,57574,72274,520,-40
Sprite,Foreground,Centre,"SB\Light.png",320,240 S,0,0,,0.32 MX,0,0,,317 F,0,58017,68017,1,0 MY,0,58017,71217,520,-40
Sprite,Foreground,Centre,"SB\Light.png",320,240 S,0,0,,0.67 MX,0,0,,488 F,0,57997,67997,1,0 MY,0,57997,74697,520,-40
Sprite,Foreground,Centre,"SB\Light.png",320,240 S,0,0,,0.35 MX,0,0,,484 F,0,58712,68712,1,0 MY,0,58712,72212,520,-40
Sprite,Foreground,Centre,"SB\Light.png",320,240 S,0,0,,0.35 MX,0,0,,352 F,0,58690,68690,1,0 MY,0,58690,72190,520,-40
Sprite,Foreground,Centre,"SB\Light.png",320,240 S,0,0,,0.51 MX,0,0,,-99 F,0,59150,69150,1,0 MY,0,59150,74250,520,-40
Sprite,Foreground,Centre,"SB\Light.png",320,240 S,0,0,,0.24 MX,0,0,,640 F,0,58903,68903,1,0 MY,0,58903,71303,520,-40
Sprite,Foreground,Centre,"SB\Light.png",320,240 S,0,0,,0.6 MX,0,0,,555 F,0,59354,69354,1,0 MY,0,59354,75354,520,-40
Sprite,Foreground,Centre,"SB\Light.png",320,240 S,0,0,,0.23 MX,0,0,,162 F,0,59680,69680,1,0 MY,0,59680,71980,520,-40
Sprite,Foreground,Centre,"SB\Light.png",320,240 S,0,0,,0.34 MX,0,0,,-102 F,0,60140,70140,1,0 MY,0,60140,73540,520,-40
Sprite,Foreground,Centre,"SB\Light.png",320,240 S,0,0,,0.44 MX,0,0,,724 F,0,60134,70134,1,0 MY,0,60134,74534,520,-40
Sprite,Foreground,Centre,"SB\Light.png",320,240 S,0,0,,0.4 MX,0,0,,272 F,0,60505,70505,1,0 MY,0,60505,74505,520,-40
Sprite,Foreground,Centre,"SB\Light.png",320,240 S,0,0,,0.61 MX,0,0,,-49 F,0,60418,70418,1,0 MY,0,60418,76518,520,-40
Sprite,Foreground,Centre,"SB\Light.png",320,240 S,0,0,,0.25 MX,0,0,,517 F,0,60754,70754,1,0 MY,0,60754,73254,520,-40
Sprite,Foreground,Centre,"SB\Light.png",320,240 S,0,0,,0.65 MX,0,0,,433 F,0,61210,71210,1,0 MY,0,61210,77710,520,-40
Sprite,Foreground,Centre,"SB\Light.png",320,240 S,0,0,,0.4 MX,0,0,,541 F,0,61402,71402,1,0 MY,0,61402,75402,520,-40
Sprite,Foreground,Centre,"SB\Light.png",320,240 S,0,0,,0.48 MX,0,0,,55 F,0,61255,71255,1,0 MY,0,61255,76055,520,-40
Sprite,Foreground,Centre,"SB\Light.png",320,240 S,0,0,,0.74 MX,0,0,,686 F,0,62163,72163,1,0 MY,0,62163,79563,520,-40
Sprite,Foreground,Centre,"SB\Light.png",320,240 S,0,0,,0.2 MX,0,0,,269 F,0,61949,71949,1,0 MY,0,61949,73949,520,-40
Sprite,Foreground,Centre,"SB\Light.png",320,240 S,0,0,,0.3 MX,0,0,,471 F,0,62646,72646,1,0 MY,0,62646,75646,520,-40
Sprite,Foreground,Centre,"SB\Light.png",320,240 S,0,0,,0.61 MX,0,0,,504 F,0,62319,72319,1,0 MY,0,62319,78419,520,-40
Sprite,Foreground,Centre,"SB\Light.png",320,240 S,0,0,,0.64 MX,0,0,,23 F,0,63021,73021,1,0 MY,0,63021,79421,520,-40
Sprite,Foreground,Centre,"SB\Light.png",320,240 S,0,0,,0.25 MX,0,0,,206 F,0,63183,73183,1,0 MY,0,63183,75683,520,-40
Sprite,Foreground,Centre,"SB\Light.png",320,240 S,0,0,,0.77 MX,0,0,,287 F,0,63710,73710,1,0 MY,0,63710,81410,520,-40
Sprite,Foreground,Centre,"SB\Light.png",320,240 S,0,0,,0.28 MX,0,0,,145 F,0,63670,73670,1,0 MY,0,63670,76470,520,-40
Sprite,Foreground,Centre,"SB\Light.png",320,240 S,0,0,,0.28 MX,0,0,,137 F,0,64236,74236,1,0 MY,0,64236,77036,520,-40
Sprite,Foreground,Centre,"SB\Light.png",320,240 S,0,0,,0.54 MX,0,0,,368 F,0,64210,74210,1,0 MY,0,64210,79610,520,-40
Sprite,Foreground,Centre,"SB\Light.png",320,240 S,0,0,,0.69 MX,0,0,,551 F,0,64615,74615,1,0 MY,0,64615,81515,520,-40
Sprite,Foreground,Centre,"SB\Light.png",320,240 S,0,0,,0.22 MX,0,0,,701 F,0,64634,74634,1,0 MY,0,64634,76834,520,-40
Sprite,Foreground,Centre,"SB\Light.png",320,240 S,0,0,,0.2 MX,0,0,,-14 F,0,65002,75002,1,0 MY,0,65002,77002,520,-40
Sprite,Foreground,Centre,"SB\Light.png",320,240 S,0,0,,0.44 MX,0,0,,359 F,0,64916,74916,1,0 MY,0,64916,79316,520,-40
Sprite,Foreground,Centre,"SB\Light.png",320,240 S,0,0,,0.2 MX,0,0,,639 F,0,65497,75497,1,0 MY,0,65497,77497,520,-40
Sprite,Foreground,Centre,"SB\Light.png",320,240 S,0,0,,0.49 MX,0,0,,215 F,0,65455,75455,1,0 MY,0,65455,80355,520,-40
Sprite,Foreground,Centre,"SB\Light.png",320,240 S,0,0,,0.43 MX,0,0,,267 F,0,65761,75761,1,0 MY,0,65761,80061,520,-40
Sprite,Foreground,Centre,"SB\Light.png",320,240 S,0,0,,0.64 MX,0,0,,-31 F,0,65868,75868,1,0 MY,0,65868,82268,520,-40
Sprite,Foreground,Centre,"SB\Light.png",320,240 S,0,0,,0.58 MX,0,0,,737 F,0,66511,76511,1,0 MY,0,66511,82311,520,-40
Sprite,Foreground,Centre,"SB\Light.png",320,240 S,0,0,,0.29 MX,0,0,,257 F,0,66623,76623,1,0 MY,0,66623,79523,520,-40
Sprite,Foreground,Centre,"SB\Light.png",320,240 S,0,0,,0.27 MX,0,0,,641 F,0,67183,77183,1,0 MY,0,67183,79883,520,-40
Sprite,Foreground,Centre,"SB\Light.png",320,240 S,0,0,,0.77 MX,0,0,,242 F,0,67060,77060,1,0 MY,0,67060,84760,520,-40
Sprite,Foreground,Centre,"SB\Light.png",320,240 S,0,0,,0.32 MX,0,0,,556 F,0,67684,77684,1,0 MY,0,67684,80884,520,-40
Sprite,Foreground,Centre,"SB\Light.png",320,240 S,0,0,,0.35 MX,0,0,,200 F,0,67589,77589,1,0 MY,0,67589,81089,520,-40
Sprite,Foreground,Centre,"SB\Light.png",320,240 S,0,0,,0.75 MX,0,0,,395 F,0,67794,77794,1,0 MY,0,67794,85294,520,-40
Sprite,Foreground,Centre,"SB\Light.png",320,240 S,0,0,,0.45 MX,0,0,,187 F,0,68023,78023,1,0 MY,0,68023,82523,520,-40
Sprite,Foreground,Centre,"SB\Light.png",320,240 S,0,0,,0.75 MX,0,0,,374 F,0,68313,78313,1,0 MY,0,68313,85813,520,-40
Sprite,Foreground,Centre,"SB\Light.png",320,240 S,0,0,,0.27 MX,0,0,,661 F,0,68583,78583,1,0 MY,0,68583,81283,520,-40
Sprite,Foreground,Centre,"SB\Light.png",320,240 S,0,0,,0.61 MX,0,0,,314 F,0,68835,78835,1,0 MY,0,68835,84935,520,-40
Sprite,Foreground,Centre,"SB\Light.png",320,240 S,0,0,,0.78 MX,0,0,,101 F,0,68793,78793,1,0 MY,0,68793,86593,520,-40
Sprite,Foreground,Centre,"SB\Light.png",320,240 S,0,0,,0.61 MX,0,0,,542 F,0,69457,79457,1,0 MY,0,69457,85557,520,-40
Sprite,Foreground,Centre,"SB\Light.png",320,240 S,0,0,,0.6 MX,0,0,,293 F,0,69676,79676,1,0 MY,0,69676,85676,520,-40
Sprite,Foreground,Centre,"SB\Light.png",320,240 S,0,0,,0.48 MX,0,0,,642 F,0,69888,79888,1,0 MY,0,69888,84688,520,-40
Sprite,Foreground,Centre,"SB\Light.png",320,240 S,0,0,,0.56 MX,0,0,,357 F,0,69785,79785,1,0 MY,0,69785,85385,520,-40
Sprite,Foreground,Centre,"SB\Light.png",320,240 S,0,0,,0.24 MX,0,0,,187 F,0,70382,80382,1,0 MY,0,70382,82782,520,-40
Sprite,Foreground,Centre,"SB\Light.png",320,240 S,0,0,,0.5 MX,0,0,,17 F,0,70316,80316,1,0 MY,0,70316,85316,520,-40
Sprite,Foreground,Centre,"SB\Light.png",320,240 S,0,0,,0.59 MX,0,0,,729 F,0,71158,81158,1,0 MY,0,71158,87058,520,-40
Sprite,Foreground,Centre,"SB\Light.png",320,240 S,0,0,,0.72 MX,0,0,,422 F,0,70851,80851,1,0 MY,0,70851,88051,520,-40
Sprite,Foreground,Centre,"SB\Light.png",320,240 S,0,0,,0.79 MX,0,0,,61 F,0,71371,81371,1,0 MY,0,71371,89271,520,-40
Sprite,Foreground,Centre,"SB\Light.png",320,240 S,0,0,,0.75 MX,0,0,,277 F,0,71251,81251,1,0 MY,0,71251,88751,520,-40
Sprite,Foreground,Centre,"SB\Light.png",320,240 S,0,0,,0.52 MX,0,0,,560 F,0,71884,81884,1,0 MY,0,71884,87084,520,-40
Sprite,Foreground,Centre,"SB\Light.png",320,240 S,0,0,,0.56 MX,0,0,,117 F,0,71877,81877,1,0 MY,0,71877,87477,520,-40
Sprite,Foreground,Centre,"SB\Light.png",320,240 S,0,0,,0.27 MX,0,0,,94 F,0,72535,82535,1,0 MY,0,72535,85235,520,-40
Sprite,Foreground,Centre,"SB\Light.png",320,240 S,0,0,,0.48 MX,0,0,,123 F,0,72372,82372,1,0 MY,0,72372,87172,520,-40
Sprite,Foreground,Centre,"SB\Light.png",320,240 S,0,0,,0.21 MX,0,0,,-61 F,0,73233,83233,1,0 MY,0,73233,85333,520,-40
Sprite,Foreground,Centre,"SB\Light.png",320,240 S,0,0,,0.53 MX,0,0,,236 F,0,72902,82902,1,0 MY,0,72902,88202,520,-40
Sprite,Foreground,Centre,"SB\Light.png",320,240 S,0,0,,0.41 MX,0,0,,-78 F,0,73270,83270,1,0 MY,0,73270,87370,520,-40
Sprite,Foreground,Centre,"SB\Light.png",320,240 S,0,0,,0.36 MX,0,0,,124 F,0,73335,83335,1,0 MY,0,73335,86935,520,-40
Sprite,Foreground,Centre,"SB\Light.png",320,240 S,0,0,,0.28 MX,0,0,,72 F,0,73909,83909,1,0 MY,0,73909,86709,520,-40
Sprite,Foreground,Centre,"SB\Light.png",320,240 S,0,0,,0.36 MX,0,0,,413 F,0,74161,84161,1,0 MY,0,74161,87761,520,-40
Sprite,Foreground,Centre,"SB\Light.png",320,240 S,0,0,,0.45 MX,0,0,,124 F,0,74598,84598,1,0 MY,0,74598,89098,520,-40
Sprite,Foreground,Centre,"SB\Light.png",320,240 S,0,0,,0.66 MX,0,0,,579 F,0,74522,84522,1,0 MY,0,74522,91122,520,-40
Sprite,Foreground,Centre,"SB\Light.png",320,240 S,0,0,,0.24 MX,0,0,,-103 F,0,74787,84787,1,0 MY,0,74787,87187,520,-40
Sprite,Foreground,Centre,"SB\Light.png",320,240 S,0,0,,0.75 MX,0,0,,373 F,0,74987,84987,1,0 MY,0,74987,92487,520,-40
Sprite,Foreground,Centre,"SB\Light.png",320,240 S,0,0,,0.62 MX,0,0,,381 F,0,75443,85443,1,0 MY,0,75443,91643,520,-40
Sprite,Foreground,Centre,"SB\Light.png",320,240 S,0,0,,0.54 MX,0,0,,94 F,0,75334,85334,1,0 MY,0,75334,90734,520,-40
Sprite,Foreground,Centre,"SB\Light.png",320,240 S,0,0,,0.68 MX,0,0,,697 F,0,76173,86173,1,0 MY,0,76173,92973,520,-40
Sprite,Foreground,Centre,"SB\Light.png",320,240 S,0,0,,0.45 MX,0,0,,719 F,0,75963,85963,1,0 MY,0,75963,90463,520,-40
Sprite,Foreground,Centre,"SB\Light.png",320,240 S,0,0,,0.5 MX,0,0,,-26 F,0,76536,86536,1,0 MY,0,76536,91536,520,-40
Sprite,Foreground,Centre,"SB\Light.png",320,240 S,0,0,,0.23 MX,0,0,,696 F,0,76378,86378,1,0 MY,0,76378,88678,520,-40
Sprite,Foreground,Centre,"SB\Light.png",320,240 S,0,0,,0.58 MX,0,0,,535 F,0,76981,86981,1,0 MY,0,76981,92781,520,-40
Sprite,Foreground,Centre,"SB\Light.png",320,240 S,0,0,,0.8 MX,0,0,,363 F,0,77175,87175,1,0 MY,0,77175,95175,520,-40
Sprite,Foreground,Centre,"SB\Light.png",320,240 S,0,0,,0.35 MX,0,0,,252 F,0,77273,87273,1,0 MY,0,77273,90773,520,-40
Sprite,Foreground,Centre,"SB\Light.png",320,240 S,0,0,,0.43 MX,0,0,,87 F,0,77378,87378,1,0 MY,0,77378,91678,520,-40
Sprite,Foreground,Centre,"SB\Light.png",320,240 S,0,0,,0.49 MX,0,0,,376 F,0,77985,87985,1,0 MY,0,77985,92885,520,-40
Sprite,Foreground,Centre,"SB\Light.png",320,240 S,0,0,,0.62 MX,0,0,,565 F,0,77967,87967,1,0 MY,0,77967,94167,520,-40
Sprite,Foreground,Centre,"SB\Light.png",320,240 S,0,0,,0.79 MX,0,0,,19 F,0,78534,88534,1,0 MY,0,78534,96434,520,-40
Sprite,Foreground,Centre,"SB\Light.png",320,240 S,0,0,,0.6 MX,0,0,,730 F,0,78539,88539,1,0 MY,0,78539,94539,520,-40
Sprite,Foreground,Centre,"SB\Light.png",320,240 S,0,0,,0.38 MX,0,0,,121 F,0,78986,88986,1,0 MY,0,78986,92786,520,-40
Sprite,Foreground,Centre,"SB\Light.png",320,240 S,0,0,,0.62 MX,0,0,,727 F,0,78756,88756,1,0 MY,0,78756,94956,520,-40
Sprite,Foreground,Centre,"SB\Light.png",320,240 S,0,0,,0.24 MX,0,0,,594 F,0,79378,89378,1,0 MY,0,79378,91778,520,-40
Sprite,Foreground,Centre,"SB\Light.png",320,240 S,0,0,,0.69 MX,0,0,,-100 F,0,79264,89264,1,0 MY,0,79264,96164,520,-40
Sprite,Foreground,Centre,"SB\Light.png",320,240 S,0,0,,0.21 MX,0,0,,352 F,0,79890,89890,1,0 MY,0,79890,91990,520,-40
Sprite,Foreground,Centre,"SB\Light.png",320,240 S,0,0,,0.69 MX,0,0,,-6 F,0,80103,90103,1,0 MY,0,80103,97003,520,-40
Sprite,Foreground,Centre,"SB\Light.png",320,240 S,0,0,,0.63 MX,0,0,,397 F,0,80403,90403,1,0 MY,0,80403,96703,520,-40
Sprite,Foreground,Centre,"SB\Light.png",320,240 S,0,0,,0.44 MX,0,0,,713 F,0,80452,90452,1,0 MY,0,80452,94852,520,-40
Sprite,Foreground,Centre,"SB\Light.png",320,240 S,0,0,,0.39 MX,0,0,,8 F,0,81218,91218,1,0 MY,0,81218,95118,520,-40
Sprite,Foreground,Centre,"SB\Light.png",320,240 S,0,0,,0.67 MX,0,0,,483 F,0,81152,91152,1,0 MY,0,81152,97852,520,-40
Sprite,Foreground,Centre,"SB\Light.png",320,240 S,0,0,,0.67 MX,0,0,,652 F,0,81288,91288,1,0 MY,0,81288,97988,520,-40
Sprite,Foreground,Centre,"SB\Light.png",320,240 S,0,0,,0.37 MX,0,0,,214 F,0,81730,91730,1,0 MY,0,81730,95430,520,-40
Sprite,Foreground,Centre,"SB\Light.png",320,240 S,0,0,,0.47 MX,0,0,,-81 F,0,82095,92095,1,0 MY,0,82095,96795,520,-40
Sprite,Foreground,Centre,"SB\Light.png",320,240 S,0,0,,0.45 MX,0,0,,749 F,0,82026,92026,1,0 MY,0,82026,96526,520,-40
Sprite,Foreground,Centre,"SB\Light.png",320,240 S,0,0,,0.53 MX,0,0,,268 F,0,82410,92410,1,0 MY,0,82410,97710,520,-40
Sprite,Foreground,Centre,"SB\Light.png",320,240 S,0,0,,0.35 MX,0,0,,22 F,0,82582,92582,1,0 MY,0,82582,96082,520,-40
Sprite,Foreground,Centre,"SB\Light.png",320,240 S,0,0,,0.21 MX,0,0,,632 F,0,83091,93091,1,0 MY,0,83091,95191,520,-40
Sprite,Foreground,Centre,"SB\Light.png",320,240 S,0,0,,0.43 MX,0,0,,124 F,0,82829,92829,1,0 MY,0,82829,97129,520,-40
Sprite,Foreground,Centre,"SB\Light.png",320,240 S,0,0,,0.38 MX,0,0,,-52 F,0,83731,93731,1,0 MY,0,83731,97531,520,-40
Sprite,Foreground,Centre,"SB\Light.png",320,240 S,0,0,,0.7 MX,0,0,,-44 F,0,83706,93706,1,0 MY,0,83706,100706,520,-40
Sprite,Foreground,Centre,"SB\Light.png",320,240 S,0,0,,0.27 MX,0,0,,280 F,0,83945,93945,1,0 MY,0,83945,96645,520,-40
Sprite,Foreground,Centre,"SB\Light.png",320,240 S,0,0,,0.27 MX,0,0,,710 F,0,83893,93893,1,0 MY,0,83893,96593,520,-40
Sprite,Foreground,Centre,"SB\Light.png",320,240 S,0,0,,0.29 MX,0,0,,166 F,0,84268,94268,1,0 MY,0,84268,97168,520,-40
Sprite,Foreground,Centre,"SB\Light.png",320,240 S,0,0,,0.25 MX,0,0,,-96 F,0,84620,94620,1,0 MY,0,84620,97120,520,-40
Sprite,Foreground,Centre,"SB\Light.png",320,240 S,0,0,,0.56 MX,0,0,,538 F,0,84933,94933,1,0 MY,0,84933,100533,520,-40
Sprite,Foreground,Centre,"SB\Light.png",320,240 S,0,0,,0.51 MX,0,0,,-38 F,0,84899,94899,1,0 MY,0,84899,99999,520,-40
Sprite,Foreground,Centre,"SB\Light.png",320,240 S,0,0,,0.8 MX,0,0,,124 F,0,85673,95673,1,0 MY,0,85673,103673,520,-40
Sprite,Foreground,Centre,"SB\Light.png",320,240 S,0,0,,0.7 MX,0,0,,-6 F,0,85283,95283,1,0 MY,0,85283,102283,520,-40
Sprite,Foreground,Centre,"SB\Light.png",320,240 S,0,0,,0.57 MX,0,0,,680 F,0,86129,96129,1,0 MY,0,86129,101829,520,-40
Sprite,Foreground,Centre,"SB\Light.png",320,240 S,0,0,,0.38 MX,0,0,,749 F,0,85944,95944,1,0 MY,0,85944,99744,520,-40
Sprite,Foreground,Centre,"SB\Light.png",320,240 S,0,0,,0.78 MX,0,0,,559 F,0,86735,96735,1,0 MY,0,86735,104535,520,-40
Sprite,Foreground,Centre,"SB\Light.png",320,240 S,0,0,,0.53 MX,0,0,,30 F,0,86557,96557,1,0 MY,0,86557,101857,520,-40
Sprite,Foreground,Centre,"SB\Light.png",320,240 S,0,0,,0.49 MX,0,0,,-82 F,0,86891,96891,1,0 MY,0,86891,101791,520,-40
Sprite,Foreground,Centre,"SB\Light.png",320,240 S,0,0,,0.7 MX,0,0,,428 F,0,86963,96963,1,0 MY,0,86963,103963,520,-40
Sprite,Foreground,Centre,"SB\Light.png",320,240 S,0,0,,0.71 MX,0,0,,701 F,0,87293,97293,1,0 MY,0,87293,104393,520,-40
Sprite,Foreground,Centre,"SB\Light.png",320,240 S,0,0,,0.51 MX,0,0,,571 F,0,87721,97721,1,0 MY,0,87721,102821,520,-40
Sprite,Foreground,Centre,"SB\Light.png",320,240 S,0,0,,0.8 MX,0,0,,461 F,0,88148,98148,1,0 MY,0,88148,106148,520,-40
Sprite,Foreground,Centre,"SB\Light.png",320,240 S,0,0,,0.69 MX,0,0,,-53 F,0,88147,98147,1,0 MY,0,88147,105047,520,-40
Sprite,Foreground,Centre,"SB\Light.png",320,240 S,0,0,,0.4 MX,0,0,,167 F,0,88676,98676,1,0 MY,0,88676,102676,520,-40
Sprite,Foreground,Centre,"SB\Light.png",320,240 S,0,0,,0.22 MX,0,0,,346 F,0,88400,98400,1,0 MY,0,88400,100600,520,-40
Sprite,Foreground,Centre,"SB\Light.png",320,240 S,0,0,,0.39 MX,0,0,,449 F,0,89007,99007,1,0 MY,0,89007,102907,520,-40
Sprite,Foreground,Centre,"SB\Light.png",320,240 S,0,0,,0.34 MX,0,0,,552 F,0,89176,99176,1,0 MY,0,89176,102576,520,-40
Sprite,Foreground,Centre,"SB\Light.png",320,240 S,0,0,,0.55 MX,0,0,,538 F,0,89315,99315,1,0 MY,0,89315,104815,520,-40
Sprite,Foreground,Centre,"SB\Light.png",320,240 S,0,0,,0.23 MX,0,0,,-98 F,0,89273,99273,1,0 MY,0,89273,101573,520,-40
Sprite,Foreground,Centre,"SB\Light.png",320,240 S,0,0,,0.59 MX,0,0,,250 F,0,89765,99765,1,0 MY,0,89765,105665,520,-40
Sprite,Foreground,Centre,"SB\Light.png",320,240 S,0,0,,0.3 MX,0,0,,734 F,0,89825,99825,1,0 MY,0,89825,102825,520,-40
Sprite,Foreground,Centre,"SB\Light.png",320,240 S,0,0,,0.27 MX,0,0,,591 F,0,90741,100741,1,0 MY,0,90741,103441,520,-40
Sprite,Foreground,Centre,"SB\Light.png",320,240 S,0,0,,0.4 MX,0,0,,399 F,0,90297,100297,1,0 MY,0,90297,104297,520,-40
Sprite,Foreground,Centre,"SB\Light.png",320,240 S,0,0,,0.63 MX,0,0,,41 F,0,90912,100912,1,0 MY,0,90912,107212,520,-40
Sprite,Foreground,Centre,"SB\Light.png",320,240 S,0,0,,0.71 MX,0,0,,546 F,0,90825,100825,1,0 MY,0,90825,107925,520,-40
Sprite,Foreground,Centre,"SB\Light.png",320,240 S,0,0,,0.5 MX,0,0,,735 F,0,91356,101356,1,0 MY,0,91356,106356,520,-40
Sprite,Foreground,Centre,"SB\Light.png",320,240 S,0,0,,0.79 MX,0,0,,675 F,0,91475,101475,1,0 MY,0,91475,109375,520,-40
Sprite,Foreground,Centre,"SB\Light.png",320,240 S,0,0,,0.3 MX,0,0,,92 F,0,92005,102005,1,0 MY,0,92005,105005,520,-40
Sprite,Foreground,Centre,"SB\Light.png",320,240 S,0,0,,0.22 MX,0,0,,588 F,0,92053,102053,1,0 MY,0,92053,104253,520,-40
Sprite,Foreground,Centre,"SB\Light.png",320,240 S,0,0,,0.59 MX,0,0,,535 F,0,92715,102715,1,0 MY,0,92715,108615,520,-40
Sprite,Foreground,Centre,"SB\Light.png",320,240 S,0,0,,0.59 MX,0,0,,546 F,0,92717,102717,1,0 MY,0,92717,108617,520,-40
Sprite,Foreground,Centre,"SB\Light.png",320,240 S,0,0,,0.4 MX,0,0,,492 F,0,92829,102829,1,0 MY,0,92829,106829,520,-40
Sprite,Foreground,Centre,"SB\Light.png",320,240 S,0,0,,0.63 MX,0,0,,164 F,0,92826,102826,1,0 MY,0,92826,109126,520,-40
Sprite,Foreground,Centre,"SB\Light.png",320,240 S,0,0,,0.23 MX,0,0,,251 F,0,93705,103705,1,0 MY,0,93705,106005,520,-40
Sprite,Foreground,Centre,"SB\Light.png",320,240 S,0,0,,0.56 MX,0,0,,343 F,0,93745,103745,1,0 MY,0,93745,109345,520,-40
Sprite,Foreground,Centre,"SB\Light.png",320,240 S,0,0,,0.8 MX,0,0,,732 F,0,94015,104015,1,0 MY,0,94015,112015,520,-40
Sprite,Foreground,Centre,"SB\Light.png",320,240 S,0,0,,0.22 MX,0,0,,607 F,0,94125,104125,1,0 MY,0,94125,106325,520,-40
Sprite,Foreground,Centre,"SB\Light.png",320,240 S,0,0,,0.5 MX,0,0,,390 F,0,94524,104524,1,0 MY,0,94524,109524,520,-40
Sprite,Foreground,Centre,"SB\Light.png",320,240 S,0,0,,0.65 MX,0,0,,442 F,0,94585,104585,1,0 MY,0,94585,111085,520,-40
Sprite,Foreground,Centre,"SB\Light.png",320,240 S,0,0,,0.2 MX,0,0,,213 F,0,94753,104753,1,0 MY,0,94753,106753,520,-40
Sprite,Foreground,Centre,"SB\Light.png",320,240 S,0,0,,0.71 MX,0,0,,32 F,0,94793,104793,1,0 MY,0,94793,111893,520,-40
Sprite,Foreground,Centre,"SB\Light.png",320,240 S,0,0,,0.45 MX,0,0,,226 F,0,95592,105592,1,0 MY,0,95592,110092,520,-40
Sprite,Foreground,Centre,"SB\Light.png",320,240 S,0,0,,0.23 MX,0,0,,744 F,0,95281,105281,1,0 MY,0,95281,107581,520,-40
Sprite,Foreground,Centre,"SB\Light.png",320,240 S,0,0,,0.6 MX,0,0,,-58 F,0,95999,105999,1,0 MY,0,95999,111999,520,-40
Sprite,Foreground,Centre,"SB\Light.png",320,240 S,0,0,,0.5 MX,0,0,,355 F,0,96144,106144,1,0 MY,0,96144,111144,520,-40
Sprite,Foreground,Centre,"SB\Light.png",320,240 S,0,0,,0.63 MX,0,0,,337 F,0,96709,106709,1,0 MY,0,96709,113009,520,-40
Sprite,Foreground,Centre,"SB\Light.png",320,240 S,0,0,,0.7 MX,0,0,,-44 F,0,96539,106539,1,0 MY,0,96539,113539,520,-40
Sprite,Foreground,Centre,"SB\Light.png",320,240 S,0,0,,0.75 MX,0,0,,44 F,0,96774,106774,1,0 MY,0,96774,114274,520,-40
Sprite,Foreground,Centre,"SB\Light.png",320,240 S,0,0,,0.31 MX,0,0,,222 F,0,97058,107058,1,0 MY,0,97058,110158,520,-40
Sprite,Foreground,Centre,"SB\Light.png",320,240 S,0,0,,0.23 MX,0,0,,311 F,0,97320,107320,1,0 MY,0,97320,109620,520,-40
Sprite,Foreground,Centre,"SB\Light.png",320,240 S,0,0,,0.77 MX,0,0,,14 F,0,97548,107548,1,0 MY,0,97548,115248,520,-40
Sprite,Foreground,Centre,"SB\Light.png",320,240 S,0,0,,0.35 MX,0,0,,598 F,0,98106,108106,1,0 MY,0,98106,111606,520,-40
Sprite,Foreground,Centre,"SB\Light.png",320,240 S,0,0,,0.28 MX,0,0,,152 F,0,97857,107857,1,0 MY,0,97857,110657,520,-40
Sprite,Foreground,Centre,"SB\Light.png",320,240 S,0,0,,0.8 MX,0,0,,291 F,0,98340,108340,1,0 MY,0,98340,116340,520,-40
Sprite,Foreground,Centre,"SB\Light.png",320,240 S,0,0,,0.67 MX,0,0,,106 F,0,98714,108714,1,0 MY,0,98714,115414,520,-40
Sprite,Foreground,Centre,"SB\Light.png",320,240 S,0,0,,0.22 MX,0,0,,543 F,0,98936,108936,1,0 MY,0,98936,111136,520,-40
Sprite,Foreground,Centre,"SB\Light.png",320,240 S,0,0,,0.27 MX,0,0,,537 F,0,98757,108757,1,0 MY,0,98757,111457,520,-40
Sprite,Foreground,Centre,"SB\Light.png",320,240 S,0,0,,0.38 MX,0,0,,259 F,0,99268,109268,1,0 MY,0,99268,113068,520,-40
Sprite,Foreground,Centre,"SB\Light.png",320,240 S,0,0,,0.8 MX,0,0,,-76 F,0,99335,109335,1,0 MY,0,99335,117335,520,-40
Sprite,Foreground,Centre,"SB\Light.png",320,240 S,0,0,,0.2 MX,0,0,,-51 F,0,100214,110214,1,0 MY,0,100214,112214,520,-40
Sprite,Foreground,Centre,"SB\Light.png",320,240 S,0,0,,0.5 MX,0,0,,683 F,0,99865,109865,1,0 MY,0,99865,114865,520,-40
Sprite,Foreground,Centre,"SB\Light.png",320,240 S,0,0,,0.75 MX,0,0,,666 F,0,100252,110252,1,0 MY,0,100252,117752,520,-40
Sprite,Foreground,Centre,"SB\Light.png",320,240 S,0,0,,0.63 MX,0,0,,-44 F,0,100610,110610,1,0 MY,0,100610,116910,520,-40
Sprite,Foreground,Centre,"SB\Light.png",320,240 S,0,0,,0.33 MX,0,0,,494 F,0,100868,110868,1,0 MY,0,100868,114168,520,-40
Sprite,Foreground,Centre,"SB\Light.png",320,240 S,0,0,,0.57 MX,0,0,,231 F,0,101036,111036,1,0 MY,0,101036,116736,520,-40
Sprite,Foreground,Centre,"SB\Light.png",320,240 S,0,0,,0.76 MX,0,0,,-7 F,0,101674,111674,1,0 MY,0,101674,119274,520,-40
Sprite,Foreground,Centre,"SB\Light.png",320,240 S,0,0,,0.58 MX,0,0,,100 F,0,101322,111322,1,0 MY,0,101322,117122,520,-40
Sprite,Foreground,Centre,"SB\Light.png",320,240 S,0,0,,0.64 MX,0,0,,-2 F,0,101820,111820,1,0 MY,0,101820,118220,520,-40
Sprite,Foreground,Centre,"SB\Light.png",320,240 S,0,0,,0.63 MX,0,0,,370 F,0,102219,112219,1,0 MY,0,102219,118519,520,-40
Sprite,Foreground,Centre,"SB\Light.png",320,240 S,0,0,,0.67 MX,0,0,,355 F,0,102573,112573,1,0 MY,0,102573,119273,520,-40
Sprite,Foreground,Centre,"SB\Light.png",320,240 S,0,0,,0.34 MX,0,0,,138 F,0,102384,112384,1,0 MY,0,102384,115784,520,-40
Sprite,Foreground,Centre,"SB\Light.png",320,240 S,0,0,,0.53 MX,0,0,,707 F,0,102815,112815,1,0 MY,0,102815,118115,520,-40
Sprite,Foreground,Centre,"SB\Light.png",320,240 S,0,0,,0.41 MX,0,0,,684 F,0,102992,112992,1,0 MY,0,102992,117092,520,-40
Sprite,Foreground,Centre,"SB\Light.png",320,240 S,0,0,,0.61 MX,0,0,,451 F,0,103678,113678,1,0 MY,0,103678,119778,520,-40
Sprite,Foreground,Centre,"SB\Light.png",320,240 S,0,0,,0.23 MX,0,0,,559 F,0,103411,113411,1,0 MY,0,103411,115711,520,-40
Sprite,Foreground,Centre,"SB\Light.png",320,240 S,0,0,,0.21 MX,0,0,,291 F,0,104204,114204,1,0 MY,0,104204,116304,520,-40
Sprite,Foreground,Centre,"SB\Light.png",320,240 S,0,0,,0.76 MX,0,0,,168 F,0,104094,114094,1,0 MY,0,104094,121694,520,-40
Sprite,Foreground,Centre,"SB\Light.png",320,240 S,0,0,,0.7 MX,0,0,,563 F,0,104279,114279,1,0 MY,0,104279,121279,520,-40
Sprite,Foreground,Centre,"SB\Light.png",320,240 S,0,0,,0.68 MX,0,0,,-33 F,0,104439,114439,1,0 MY,0,104439,121239,520,-40
Sprite,Foreground,Centre,"SB\Light.png",320,240 S,0,0,,0.4 MX,0,0,,-52 F,0,105133,115133,1,0 MY,0,105133,119133,520,-40
Sprite,Foreground,Centre,"SB\Light.png",320,240 S,0,0,,0.52 MX,0,0,,-47 F,0,104851,114851,1,0 MY,0,104851,120051,520,-40
Sprite,Foreground,Centre,"SB\Light.png",320,240 S,0,0,,0.45 MX,0,0,,724 F,0,105718,115718,1,0 MY,0,105718,120218,520,-40
Sprite,Foreground,Centre,"SB\Light.png",320,240 S,0,0,,0.47 MX,0,0,,269 F,0,105740,115740,1,0 MY,0,105740,120440,520,-40
Sprite,Foreground,Centre,"SB\Light.png",320,240 S,0,0,,0.32 MX,0,0,,202 F,0,105782,115782,1,0 MY,0,105782,118982,520,-40
Sprite,Foreground,Centre,"SB\Light.png",320,240 S,0,0,,0.56 MX,0,0,,138 F,0,106039,116039,1,0 MY,0,106039,121639,520,-40
Sprite,Foreground,Centre,"SB\Light.png",320,240 S,0,0,,0.41 MX,0,0,,595 F,0,106723,116723,1,0 MY,0,106723,120823,520,-40
Sprite,Foreground,Centre,"SB\Light.png",320,240 S,0,0,,0.25 MX,0,0,,-86 F,0,106594,116594,1,0 MY,0,106594,119094,520,-40
Sprite,Foreground,Centre,"SB\Light.png",320,240 S,0,0,,0.33 MX,0,0,,713 F,0,107091,117091,1,0 MY,0,107091,120391,520,-40
Sprite,Foreground,Centre,"SB\Light.png",320,240 S,0,0,,0.5 MX,0,0,,70 F,0,107182,117182,1,0 MY,0,107182,122182,520,-40
Sprite,Foreground,Centre,"SB\Light.png",320,240 S,0,0,,0.72 MX,0,0,,539 F,0,107456,117456,1,0 MY,0,107456,124656,520,-40
Sprite,Foreground,Centre,"SB\Light.png",320,240 S,0,0,,0.72 MX,0,0,,508 F,0,107625,117625,1,0 MY,0,107625,124825,520,-40
Sprite,Foreground,Centre,"SB\Light.png",320,240 S,0,0,,0.55 MX,0,0,,452 F,0,107753,117753,1,0 MY,0,107753,123253,520,-40
Sprite,Foreground,Centre,"SB\Light.png",320,240 S,0,0,,0.69 MX,0,0,,223 F,0,107823,117823,1,0 MY,0,107823,124723,520,-40
Sprite,Foreground,Centre,"SB\Light.png",320,240 S,0,0,,0.21 MX,0,0,,689 F,0,108568,118568,1,0 MY,0,108568,120668,520,-40
Sprite,Foreground,Centre,"SB\Light.png",320,240 S,0,0,,0.78 MX,0,0,,426 F,0,108543,118543,1,0 MY,0,108543,126343,520,-40
Sprite,Foreground,Centre,"SB\Light.png",320,240 S,0,0,,0.5 MX,0,0,,304 F,0,109111,119111,1,0 MY,0,109111,124111,520,-40
Sprite,Foreground,Centre,"SB\Light.png",320,240 S,0,0,,0.36 MX,0,0,,262 F,0,108866,118866,1,0 MY,0,108866,122466,520,-40
Sprite,Foreground,Centre,"SB\Light.png",320,240 S,0,0,,0.22 MX,0,0,,-43 F,0,109473,119473,1,0 MY,0,109473,121673,520,-40
Sprite,Foreground,Centre,"SB\Light.png",320,240 S,0,0,,0.27 MX,0,0,,338 F,0,109375,119375,1,0 MY,0,109375,122075,520,-40
Sprite,Foreground,Centre,"SB\Light.png",320,240 S,0,0,,0.66 MX,0,0,,-49 F,0,109909,119909,1,0 MY,0,109909,126509,520,-40
Sprite,Foreground,Centre,"SB\Light.png",320,240 S,0,0,,0.61 MX,0,0,,378 F,0,110203,120203,1,0 MY,0,110203,126303,520,-40
Sprite,Foreground,Centre,"SB\Light.png",320,240 S,0,0,,0.59 MX,0,0,,161 F,0,110544,120544,1,0 MY,0,110544,126444,520,-40
Sprite,Foreground,Centre,"SB\Light.png",320,240 S,0,0,,0.58 MX,0,0,,381 F,0,110421,120421,1,0 MY,0,110421,126221,520,-40
Sprite,Foreground,Centre,"SB\Light.png",320,240 S,0,0,,0.46 MX,0,0,,577 F,0,110756,120756,1,0 MY,0,110756,125356,520,-40
Sprite,Foreground,Centre,"SB\Light.png",320,240 S,0,0,,0.26 MX,0,0,,-67 F,0,111020,121020,1,0 MY,0,111020,123620,520,-40
Sprite,Foreground,Centre,"SB\Light.png",320,240 S,0,0,,0.4 MX,0,0,,-27 F,0,111283,121283,1,0 MY,0,111283,125283,520,-40
Sprite,Foreground,Centre,"SB\Light.png",320,240 S,0,0,,0.64 MX,0,0,,11 F,0,111378,121378,1,0 MY,0,111378,127778,520,-40
Sprite,Foreground,Centre,"SB\Light.png",320,240 S,0,0,,0.39 MX,0,0,,44 F,0,111757,121757,1,0 MY,0,111757,125657,520,-40
Sprite,Foreground,Centre,"SB\Light.png",320,240 S,0,0,,0.59 MX,0,0,,150 F,0,112045,122045,1,0 MY,0,112045,127945,520,-40
Sprite,Foreground,Centre,"SB\Light.png",320,240 S,0,0,,0.28 MX,0,0,,541 F,0,112658,122658,1,0 MY,0,112658,125458,520,-40
Sprite,Foreground,Centre,"SB\Light.png",320,240 S,0,0,,0.39 MX,0,0,,602 F,0,112481,122481,1,0 MY,0,112481,126381,520,-40
Sprite,Foreground,Centre,"SB\Light.png",320,240 S,0,0,,0.42 MX,0,0,,518 F,0,112774,122774,1,0 MY,0,112774,126974,520,-40
Sprite,Foreground,Centre,"SB\Light.png",320,240 S,0,0,,0.38 MX,0,0,,749 F,0,112919,122919,1,0 MY,0,112919,126719,520,-40
Sprite,Foreground,Centre,"SB\Light.png",320,240 S,0,0,,0.75 MX,0,0,,217 F,0,113407,123407,1,0 MY,0,113407,130907,520,-40
Sprite,Foreground,Centre,"SB\Light.png",320,240 S,0,0,,0.58 MX,0,0,,79 F,0,113679,123679,1,0 MY,0,113679,129479,520,-40
Sprite,Foreground,Centre,"SB\Light.png",320,240 S,0,0,,0.21 MX,0,0,,670 F,0,114170,124170,1,0 MY,0,114170,126270,520,-40
Sprite,Foreground,Centre,"SB\Light.png",320,240 S,0,0,,0.45 MX,0,0,,47 F,0,114220,124220,1,0 MY,0,114220,128720,520,-40
Sprite,Foreground,Centre,"SB\Light.png",320,240 S,0,0,,0.76 MX,0,0,,-57 F,0,114642,124642,1,0 MY,0,114642,132242,520,-40
Sprite,Foreground,Centre,"SB\Light.png",320,240 S,0,0,,0.43 MX,0,0,,657 F,0,114265,124265,1,0 MY,0,114265,128565,520,-40
Sprite,Foreground,Centre,"SB\Light.png",320,240 S,0,0,,0.2 MX,0,0,,749 F,0,114933,124933,1,0 MY,0,114933,126933,520,-40
Sprite,Foreground,Centre,"SB\Light.png",320,240 S,0,0,,0.69 MX,0,0,,343 F,0,114752,124752,1,0 MY,0,114752,131652,520,-40
Sprite,Foreground,Centre,"SB\Light.png",320,240 S,0,0,,0.79 MX,0,0,,364 F,0,115502,125502,1,0 MY,0,115502,133402,520,-40
Sprite,Foreground,Centre,"SB\Light.png",320,240 S,0,0,,0.39 MX,0,0,,313 F,0,115308,125308,1,0 MY,0,115308,129208,520,-40
Sprite,Foreground,Centre,"SB\Light.png",320,240 S,0,0,,0.25 MX,0,0,,517 F,0,116119,126119,1,0 MY,0,116119,128619,520,-40
Sprite,Foreground,Centre,"SB\Light.png",320,240 S,0,0,,0.66 MX,0,0,,700 F,0,115763,125763,1,0 MY,0,115763,132363,520,-40
Sprite,Foreground,Centre,"SB\Light.png",320,240 S,0,0,,0.78 MX,0,0,,26 F,0,116659,126659,1,0 MY,0,116659,134459,520,-40
Sprite,Foreground,Centre,"SB\Light.png",320,240 S,0,0,,0.44 MX,0,0,,535 F,0,116593,126593,1,0 MY,0,116593,130993,520,-40
Sprite,Foreground,Centre,"SB\Light.png",320,240 S,0,0,,0.54 MX,0,0,,643 F,0,117056,127056,1,0 MY,0,117056,132456,520,-40
Sprite,Foreground,Centre,"SB\Light.png",320,240 S,0,0,,0.66 MX,0,0,,474 F,0,117104,127104,1,0 MY,0,117104,133704,520,-40
Sprite,Foreground,Centre,"SB\Light.png",320,240 S,0,0,,0.71 MX,0,0,,-95 F,0,117442,127442,1,0 MY,0,117442,134542,520,-40
Sprite,Foreground,Centre,"SB\Light.png",320,240 S,0,0,,0.2 MX,0,0,,727 F,0,117738,127738,1,0 MY,0,117738,129738,520,-40
Sprite,Foreground,Centre,"SB\Light.png",320,240 S,0,0,,0.72 MX,0,0,,156 F,0,117897,127897,1,0 MY,0,117897,135097,520,-40
Sprite,Foreground,Centre,"SB\Light.png",320,240 S,0,0,,0.6 MX,0,0,,193 F,0,117797,127797,1,0 MY,0,117797,133797,520,-40
Sprite,Foreground,Centre,"SB\Light.png",320,240 S,0,0,,0.45 MX,0,0,,512 F,0,118582,128582,1,0 MY,0,118582,133082,520,-40
Sprite,Foreground,Centre,"SB\Light.png",320,240 S,0,0,,0.47 MX,0,0,,64 F,0,118603,128603,1,0 MY,0,118603,133303,520,-40
Sprite,Foreground,Centre,"SB\Light.png",320,240 S,0,0,,0.27 MX,0,0,,541 F,0,118913,128913,1,0 MY,0,118913,131613,520,-40
Sprite,Foreground,Centre,"SB\Light.png",320,240 S,0,0,,0.64 MX,0,0,,73 F,0,118835,128835,1,0 MY,0,118835,135235,520,-40
Sprite,Foreground,Centre,"SB\Light.png",320,240 S,0,0,,0.35 MX,0,0,,474 F,0,119464,129464,1,0 MY,0,119464,132964,520,-40
Sprite,Foreground,Centre,"SB\Light.png",320,240 S,0,0,,0.59 MX,0,0,,228 F,0,119558,129558,1,0 MY,0,119558,135458,520,-40
Sprite,Foreground,Centre,"SB\Light.png",320,240 S,0,0,,0.73 MX,0,0,,574 F,0,119871,129871,1,0 MY,0,119871,137171,520,-40
Sprite,Foreground,Centre,"SB\Light.png",320,240 S,0,0,,0.48 MX,0,0,,519 F,0,119853,129853,1,0 MY,0,119853,134653,520,-40
Sprite,Foreground,Centre,"SB\Light.png",320,240 S,0,0,,0.66 MX,0,0,,547 F,0,120491,130491,1,0 MY,0,120491,137091,520,-40
Sprite,Foreground,Centre,"SB\Light.png",320,240 S,0,0,,0.58 MX,0,0,,520 F,0,120299,130299,1,0 MY,0,120299,136099,520,-40
Sprite,Foreground,Centre,"SB\Light.png",320,240 S,0,0,,0.69 MX,0,0,,512 F,0,121204,131204,1,0 MY,0,121204,138104,520,-40
Sprite,Foreground,Centre,"SB\Light.png",320,240 S,0,0,,0.21 MX,0,0,,-91 F,0,120895,130895,1,0 MY,0,120895,132995,520,-40
Sprite,Foreground,Centre,"SB\Light.png",320,240 S,0,0,,0.61 MX,0,0,,670 F,0,121742,131742,1,0 MY,0,121742,137842,520,-40
Sprite,Foreground,Centre,"SB\Light.png",320,240 S,0,0,,0.76 MX,0,0,,219 F,0,121309,131309,1,0 MY,0,121309,138909,520,-40
Sprite,Foreground,Centre,"SB\Light.png",320,240 S,0,0,,0.69 MX,0,0,,75 F,0,122072,132072,1,0 MY,0,122072,138972,520,-40
Sprite,Foreground,Centre,"SB\Light.png",320,240 S,0,0,,0.37 MX,0,0,,360 F,0,121803,131803,1,0 MY,0,121803,135503,520,-40
Sprite,Foreground,Centre,"SB\Light.png",320,240 S,0,0,,0.75 MX,0,0,,474 F,0,122626,132626,1,0 MY,0,122626,140126,520,-40
Sprite,Foreground,Centre,"SB\Light.png",320,240 S,0,0,,0.54 MX,0,0,,624 F,0,122351,132351,1,0 MY,0,122351,137751,520,-40
Sprite,Foreground,Centre,"SB\Light.png",320,240 S,0,0,,0.8 MX,0,0,,284 F,0,123148,133148,1,0 MY,0,123148,141148,520,-40
Sprite,Foreground,Centre,"SB\Light.png",320,240 S,0,0,,0.46 MX,0,0,,83 F,0,123221,133221,1,0 MY,0,123221,137821,520,-40
Sprite,Foreground,Centre,"SB\Light.png",320,240 S,0,0,,0.21 MX,0,0,,86 F,0,123599,133599,1,0 MY,0,123599,135699,520,-40
Sprite,Foreground,Centre,"SB\Light.png",320,240 S,0,0,,0.49 MX,0,0,,116 F,0,123495,133495,1,0 MY,0,123495,138395,520,-40
Sprite,Foreground,Centre,"SB\Light.png",320,240 S,0,0,,0.6 MX,0,0,,8 F,0,124215,134215,1,0 MY,0,124215,140215,520,-40
Sprite,Foreground,Centre,"SB\Light.png",320,240 S,0,0,,0.49 MX,0,0,,435 F,0,123861,133861,1,0 MY,0,123861,138761,520,-40
Sprite,Foreground,Centre,"SB\Light.png",320,240 S,0,0,,0.45 MX,0,0,,-5 F,0,124739,134739,1,0 MY,0,124739,139239,520,-40
Sprite,Foreground,Centre,"SB\Light.png",320,240 S,0,0,,0.51 MX,0,0,,373 F,0,124725,134725,1,0 MY,0,124725,139825,520,-40
Sprite,Foreground,Centre,"SB\Light.png",320,240 S,0,0,,0.33 MX,0,0,,213 F,0,125084,135084,1,0 MY,0,125084,138384,520,-40
Sprite,Foreground,Centre,"SB\Light.png",320,240 S,0,0,,0.23 MX,0,0,,187 F,0,124981,134981,1,0 MY,0,124981,137281,520,-40
Sprite,Foreground,Centre,"SB\Light.png",320,240 S,0,0,,0.73 MX,0,0,,495 F,0,125608,135608,1,0 MY,0,125608,142908,520,-40
Sprite,Foreground,Centre,"SB\Light.png",320,240 S,0,0,,0.54 MX,0,0,,316 F,0,125373,135373,1,0 MY,0,125373,140773,520,-40
Sprite,Foreground,Centre,"SB\Light.png",320,240 S,0,0,,0.61 MX,0,0,,-75 F,0,125767,135767,1,0 MY,0,125767,141867,520,-40
Sprite,Foreground,Centre,"SB\Light.png",320,240 S,0,0,,0.29 MX,0,0,,252 F,0,125867,135867,1,0 MY,0,125867,138767,520,-40
Sprite,Foreground,Centre,"SB\Light.png",320,240 S,0,0,,0.78 MX,0,0,,22 F,0,126699,136699,1,0 MY,0,126699,144499,520,-40
Sprite,Foreground,Centre,"SB\Light.png",320,240 S,0,0,,0.44 MX,0,0,,42 F,0,126408,136408,1,0 MY,0,126408,140808,520,-40
Sprite,Foreground,Centre,"SB\Light.png",320,240 S,0,0,,0.22 MX,0,0,,346 F,0,127068,137068,1,0 MY,0,127068,139268,520,-40
Sprite,Foreground,Centre,"SB\Light.png",320,240 S,0,0,,0.64 MX,0,0,,84 F,0,126965,136965,1,0 MY,0,126965,143365,520,-40
Sprite,Foreground,Centre,"SB\Light.png",320,240 S,0,0,,0.74 MX,0,0,,618 F,0,127322,137322,1,0 MY,0,127322,144722,520,-40
Sprite,Foreground,Centre,"SB\Light.png",320,240 S,0,0,,0.71 MX,0,0,,124 F,0,127488,137488,1,0 MY,0,127488,144588,520,-40
Sprite,Foreground,Centre,"SB\Light.png",320,240 S,0,0,,0.73 MX,0,0,,92 F,0,127861,137861,1,0 MY,0,127861,145161,520,-40
Sprite,Foreground,Centre,"SB\Light.png",320,240 S,0,0,,0.54 MX,0,0,,557 F,0,128236,138236,1,0 MY,0,128236,143636,520,-40
Sprite,Foreground,Centre,"SB\Light.png",320,240 S,0,0,,0.59 MX,0,0,,476 F,0,128560,138560,1,0 MY,0,128560,144460,520,-40
Sprite,Foreground,Centre,"SB\Light.png",320,240 S,0,0,,0.56 MX,0,0,,51 F,0,128296,138296,1,0 MY,0,128296,143896,520,-40
Sprite,Foreground,Centre,"SB\Light.png",320,240 S,0,0,,0.62 MX,0,0,,529 F,0,129153,139153,1,0 MY,0,129153,145353,520,-40
Sprite,Foreground,Centre,"SB\Light.png",320,240 S,0,0,,0.44 MX,0,0,,-66 F,0,128879,138879,1,0 MY,0,128879,143279,520,-40
Sprite,Foreground,Centre,"SB\Light.png",320,240 S,0,0,,0.32 MX,0,0,,193 F,0,129532,139532,1,0 MY,0,129532,142732,520,-40
Sprite,Foreground,Centre,"SB\Light.png",320,240 S,0,0,,0.69 MX,0,0,,600 F,0,129654,139654,1,0 MY,0,129654,146554,520,-40
Sprite,Foreground,Centre,"SB\Light.png",320,240 S,0,0,,0.49 MX,0,0,,134 F,0,129753,139753,1,0 MY,0,129753,144653,520,-40
Sprite,Foreground,Centre,"SB\Light.png",320,240 S,0,0,,0.59 MX,0,0,,-23 F,0,129819,139819,1,0 MY,0,129819,145719,520,-40
Sprite,Foreground,Centre,"SB\Light.png",320,240 S,0,0,,0.66 MX,0,0,,369 F,0,130584,140584,1,0 MY,0,130584,147184,520,-40
Sprite,Foreground,Centre,"SB\Light.png",320,240 S,0,0,,0.31 MX,0,0,,-100 F,0,130666,140666,1,0 MY,0,130666,143766,520,-40
Sprite,Foreground,Centre,"SB\Light.png",320,240 S,0,0,,0.43 MX,0,0,,687 F,0,130886,140886,1,0 MY,0,130886,145186,520,-40
Sprite,Foreground,Centre,"SB\Light.png",320,240 S,0,0,,0.5 MX,0,0,,489 F,0,130946,140946,1,0 MY,0,130946,145946,520,-40
Sprite,Foreground,Centre,"SB\Light.png",320,240 S,0,0,,0.4 MX,0,0,,358 F,0,131634,141634,1,0 MY,0,131634,145634,520,-40
Sprite,Foreground,Centre,"SB\Light.png",320,240 S,0,0,,0.49 MX,0,0,,428 F,0,131477,141477,1,0 MY,0,131477,146377,520,-40
Sprite,Foreground,Centre,"SB\Light.png",320,240 S,0,0,,0.68 MX,0,0,,654 F,0,131764,141764,1,0 MY,0,131764,148564,520,-40
Sprite,Foreground,Centre,"SB\Light.png",320,240 S,0,0,,0.76 MX,0,0,,676 F,0,131994,141994,1,0 MY,0,131994,149594,520,-40
Sprite,Foreground,Centre,"SB\Light.png",320,240 S,0,0,,0.45 MX,0,0,,246 F,0,132576,142576,1,0 MY,0,132576,147076,520,-40
Sprite,Foreground,Centre,"SB\Light.png",320,240 S,0,0,,0.49 MX,0,0,,721 F,0,132283,142283,1,0 MY,0,132283,147183,520,-40
Sprite,Foreground,Centre,"SB\Light.png",320,240 S,0,0,,0.55 MX,0,0,,303 F,0,132791,142791,1,0 MY,0,132791,148291,520,-40
Sprite,Foreground,Centre,"SB\Light.png",320,240 S,0,0,,0.58 MX,0,0,,255 F,0,133247,143247,1,0 MY,0,133247,149047,520,-40
Sprite,Foreground,Centre,"SB\Light.png",320,240 S,0,0,,0.64 MX,0,0,,727 F,0,133661,143661,1,0 MY,0,133661,150061,520,-40
Sprite,Foreground,Centre,"SB\Light.png",320,240 S,0,0,,0.27 MX,0,0,,738 F,0,133508,143508,1,0 MY,0,133508,146208,520,-40
Sprite,Foreground,Centre,"SB\Light.png",320,240 S,0,0,,0.6 MX,0,0,,37 F,0,133764,143764,1,0 MY,0,133764,149764,520,-40
Sprite,Foreground,Centre,"SB\Light.png",320,240 S,0,0,,0.37 MX,0,0,,-75 F,0,134101,144101,1,0 MY,0,134101,147801,520,-40
Sprite,Foreground,Centre,"SB\Light.png",320,240 S,0,0,,0.6 MX,0,0,,364 F,0,134487,144487,1,0 MY,0,134487,150487,520,-40
Sprite,Foreground,Centre,"SB\Light.png",320,240 S,0,0,,0.33 MX,0,0,,-16 F,0,134748,144748,1,0 MY,0,134748,148048,520,-40
Sprite,Foreground,Centre,"SB\Light.png",320,240 S,0,0,,0.59 MX,0,0,,45 F,0,135178,145178,1,0 MY,0,135178,151078,520,-40
Sprite,Foreground,Centre,"SB\Light.png",320,240 S,0,0,,0.56 MX,0,0,,45 F,0,135175,145175,1,0 MY,0,135175,150775,520,-40
Sprite,Foreground,Centre,"SB\Light.png",320,240 S,0,0,,0.78 MX,0,0,,67 F,0,135638,145638,1,0 MY,0,135638,153438,520,-40
Sprite,Foreground,Centre,"SB\Light.png",320,240 S,0,0,,0.33 MX,0,0,,156 F,0,135694,145694,1,0 MY,0,135694,148994,520,-40
Sprite,Foreground,Centre,"SB\Light.png",320,240 S,0,0,,0.27 MX,0,0,,556 F,0,136209,146209,1,0 MY,0,136209,148909,520,-40
Sprite,Foreground,Centre,"SB\Light.png",320,240 S,0,0,,0.59 MX,0,0,,434 F,0,136106,146106,1,0 MY,0,136106,152006,520,-40
Sprite,Foreground,Centre,"SB\Light.png",320,240 S,0,0,,0.75 MX,0,0,,332 F,0,136626,146626,1,0 MY,0,136626,154126,520,-40
Sprite,Foreground,Centre,"SB\Light.png",320,240 S,0,0,,0.65 MX,0,0,,285 F,0,136584,146584,1,0 MY,0,136584,153084,520,-40
Sprite,Foreground,Centre,"SB\Light.png",320,240 S,0,0,,0.42 MX,0,0,,707 F,0,136881,146881,1,0 MY,0,136881,151081,520,-40
Sprite,Foreground,Centre,"SB\Light.png",320,240 S,0,0,,0.45 MX,0,0,,400 F,0,136814,146814,1,0 MY,0,136814,151314,520,-40
Sprite,Foreground,Centre,"SB\Light.png",320,240 S,0,0,,0.42 MX,0,0,,-35 F,0,137666,147666,1,0 MY,0,137666,151866,520,-40
Sprite,Foreground,Centre,"SB\Light.png",320,240 S,0,0,,0.34 MX,0,0,,8 F,0,137433,147433,1,0 MY,0,137433,150833,520,-40
Sprite,Foreground,Centre,"SB\Light.png",320,240 S,0,0,,0.68 MX,0,0,,727 F,0,138244,148244,1,0 MY,0,138244,155044,520,-40
Sprite,Foreground,Centre,"SB\Light.png",320,240 S,0,0,,0.67 MX,0,0,,527 F,0,137816,147816,1,0 MY,0,137816,154516,520,-40
Sprite,Foreground,Centre,"SB\Light.png",320,240 S,0,0,,0.72 MX,0,0,,11 F,0,138332,148332,1,0 MY,0,138332,155532,520,-40
Sprite,Foreground,Centre,"SB\Light.png",320,240 S,0,0,,0.36 MX,0,0,,565 F,0,138470,148470,1,0 MY,0,138470,152070,520,-40
Sprite,Foreground,Centre,"SB\Light.png",320,240 S,0,0,,0.76 MX,0,0,,546 F,0,138830,148830,1,0 MY,0,138830,156430,520,-40
Sprite,Foreground,Centre,"SB\Light.png",320,240 S,0,0,,0.56 MX,0,0,,98 F,0,138753,148753,1,0 MY,0,138753,154353,520,-40
Sprite,Foreground,Centre,"SB\Light.png",320,240 S,0,0,,0.64 MX,0,0,,51 F,0,139405,149405,1,0 MY,0,139405,155805,520,-40
Sprite,Foreground,Centre,"SB\Light.png",320,240 S,0,0,,0.34 MX,0,0,,394 F,0,139701,149701,1,0 MY,0,139701,153101,520,-40
Sprite,Foreground,Centre,"SB\Light.png",320,240 S,0,0,,0.57 MX,0,0,,447 F,0,139862,149862,1,0 MY,0,139862,155562,520,-40
Sprite,Foreground,Centre,"SB\Light.png",320,240 S,0,0,,0.33 MX,0,0,,-62 F,0,140024,150024,1,0 MY,0,140024,153324,520,-40
Sprite,Foreground,Centre,"SB\Light.png",320,240 S,0,0,,0.58 MX,0,0,,363 F,0,140674,150674,1,0 MY,0,140674,156474,520,-40
Sprite,Foreground,Centre,"SB\Light.png",320,240 S,0,0,,0.6 MX,0,0,,513 F,0,140689,150689,1,0 MY,0,140689,156689,520,-40
Sprite,Foreground,Centre,"SB\Light.png",320,240 S,0,0,,0.67 MX,0,0,,422 F,0,141181,151181,1,0 MY,0,141181,157881,520,-40
Sprite,Foreground,Centre,"SB\Light.png",320,240 S,0,0,,0.39 MX,0,0,,323 F,0,140812,150812,1,0 MY,0,140812,154712,520,-40
Sprite,Foreground,Centre,"SB\Light.png",320,240 S,0,0,,0.3 MX,0,0,,599 F,0,141691,151691,1,0 MY,0,141691,154691,520,-40
Sprite,Foreground,Centre,"SB\Light.png",320,240 S,0,0,,0.7 MX,0,0,,722 F,0,141303,151303,1,0 MY,0,141303,158303,520,-40
Sprite,Foreground,Centre,"SB\Light.png",320,240 S,0,0,,0.71 MX,0,0,,600 F,0,141998,151998,1,0 MY,0,141998,159098,520,-40
Sprite,Foreground,Centre,"SB\Light.png",320,240 S,0,0,,0.77 MX,0,0,,-62 F,0,142137,152137,1,0 MY,0,142137,159837,520,-40
Sprite,Foreground,Centre,"SB\Light.png",320,240 S,0,0,,0.43 MX,0,0,,-35 F,0,142511,152511,1,0 MY,0,142511,156811,520,-40
Sprite,Foreground,Centre,"SB\Light.png",320,240 S,0,0,,0.25 MX,0,0,,672 F,0,142531,152531,1,0 MY,0,142531,155031,520,-40
Sprite,Foreground,Centre,"SB\Light.png",320,240 S,0,0,,0.25 MX,0,0,,421 F,0,142832,152832,1,0 MY,0,142832,155332,520,-40
Sprite,Foreground,Centre,"SB\Light.png",320,240 S,0,0,,0.34 MX,0,0,,400 F,0,143070,153070,1,0 MY,0,143070,156470,520,-40
Sprite,Foreground,Centre,"SB\Light.png",320,240 S,0,0,,0.22 MX,0,0,,134 F,0,143565,153565,1,0 MY,0,143565,155765,520,-40
Sprite,Foreground,Centre,"SB\Light.png",320,240 S,0,0,,0.58 MX,0,0,,16 F,0,143379,153379,1,0 MY,0,143379,159179,520,-40
Sprite,Foreground,Centre,"SB\Light.png",320,240 S,0,0,,0.61 MX,0,0,,50 F,0,144162,154162,1,0 MY,0,144162,160262,520,-40
Sprite,Foreground,Centre,"SB\Light.png",320,240 S,0,0,,0.66 MX,0,0,,-95 F,0,143952,153952,1,0 MY,0,143952,160552,520,-40
Sprite,Foreground,Centre,"SB\Light.png",320,240 S,0,0,,0.61 MX,0,0,,-9 F,0,144283,154283,1,0 MY,0,144283,160383,520,-40
Sprite,Foreground,Centre,"SB\Light.png",320,240 S,0,0,,0.34 MX,0,0,,-66 F,0,144642,154642,1,0 MY,0,144642,158042,520,-40
Sprite,Foreground,Centre,"SB\Light.png",320,240 S,0,0,,0.5 MX,0,0,,-47 F,0,144938,154938,1,0 MY,0,144938,159938,520,-40
Sprite,Foreground,Centre,"SB\Light.png",320,240 S,0,0,,0.58 MX,0,0,,195 F,0,145094,155094,1,0 MY,0,145094,160894,520,-40
Sprite,Foreground,Centre,"SB\Light.png",320,240 S,0,0,,0.63 MX,0,0,,147 F,0,145386,155386,1,0 MY,0,145386,161686,520,-40
Sprite,Foreground,Centre,"SB\Light.png",320,240 S,0,0,,0.74 MX,0,0,,717 F,0,145590,155590,1,0 MY,0,145590,162990,520,-40
Sprite,Foreground,Centre,"SB\Light.png",320,240 S,0,0,,0.34 MX,0,0,,99 F,0,145867,155867,1,0 MY,0,145867,159267,520,-40
Sprite,Foreground,Centre,"SB\Light.png",320,240 S,0,0,,0.61 MX,0,0,,301 F,0,146215,156215,1,0 MY,0,146215,162315,520,-40
Sprite,Foreground,Centre,"SB\Light.png",320,240 S,0,0,,0.61 MX,0,0,,93 F,0,146646,156646,1,0 MY,0,146646,162746,520,-40
Sprite,Foreground,Centre,"SB\Light.png",320,240 S,0,0,,0.73 MX,0,0,,707 F,0,146361,156361,1,0 MY,0,146361,163661,520,-40
Sprite,Foreground,Centre,"SB\Light.png",320,240 S,0,0,,0.24 MX,0,0,,-8 F,0,146883,156883,1,0 MY,0,146883,159283,520,-40
Sprite,Foreground,Centre,"SB\Light.png",320,240 S,0,0,,0.68 MX,0,0,,315 F,0,147062,157062,1,0 MY,0,147062,163862,520,-40
Sprite,Foreground,Centre,"SB\Light.png",320,240 S,0,0,,0.54 MX,0,0,,217 F,0,147456,157456,1,0 MY,0,147456,162856,520,-40
Sprite,Foreground,Centre,"SB\Light.png",320,240 S,0,0,,0.51 MX,0,0,,116 F,0,147677,157677,1,0 MY,0,147677,162777,520,-40
Sprite,Foreground,Centre,"SB\Light.png",320,240 S,0,0,,0.76 MX,0,0,,700 F,0,148121,158121,1,0 MY,0,148121,165721,520,-40
Sprite,Foreground,Centre,"SB\Light.png",320,240 S,0,0,,0.71 MX,0,0,,738 F,0,147951,157951,1,0 MY,0,147951,165051,520,-40
Sprite,Foreground,Centre,"SB\Light.png",320,240 S,0,0,,0.33 MX,0,0,,13 F,0,148707,158707,1,0 MY,0,148707,162007,520,-40
Sprite,Foreground,Centre,"SB\Light.png",320,240 S,0,0,,0.67 MX,0,0,,36 F,0,148649,158649,1,0 MY,0,148649,165349,520,-40
Sprite,Foreground,Centre,"SB\Light.png",320,240 S,0,0,,0.58 MX,0,0,,7 F,0,149016,159016,1,0 MY,0,149016,164816,520,-40
Sprite,Foreground,Centre,"SB\Light.png",320,240 S,0,0,,0.69 MX,0,0,,744 F,0,149249,159249,1,0 MY,0,149249,166149,520,-40
Sprite,Foreground,Centre,"SB\Light.png",320,240 S,0,0,,0.27 MX,0,0,,22 F,0,149527,159527,1,0 MY,0,149527,162227,520,-40
Sprite,Foreground,Centre,"SB\Light.png",320,240 S,0,0,,0.34 MX,0,0,,253 F,0,149562,159562,1,0 MY,0,149562,162962,520,-40
Sprite,Foreground,Centre,"SB\Light.png",320,240 S,0,0,,0.69 MX,0,0,,448 F,0,150034,160034,1,0 MY,0,150034,166934,520,-40
Sprite,Foreground,Centre,"SB\Light.png",320,240 S,0,0,,0.55 MX,0,0,,120 F,0,150210,160210,1,0 MY,0,150210,165710,520,-40
Sprite,Foreground,Centre,"SB\Light.png",320,240 S,0,0,,0.79 MX,0,0,,217 F,0,150410,160410,1,0 MY,0,150410,168310,520,-40
Sprite,Foreground,Centre,"SB\Light.png",320,240 S,0,0,,0.52 MX,0,0,,52 F,0,150607,160607,1,0 MY,0,150607,165807,520,-40
Sprite,Foreground,Centre,"SB\Light.png",320,240 S,0,0,,0.35 MX,0,0,,226 F,0,151127,161127,1,0 MY,0,151127,164627,520,-40
Sprite,Foreground,Centre,"SB\Light.png",320,240 S,0,0,,0.69 MX,0,0,,156 F,0,151166,161166,1,0 MY,0,151166,168066,520,-40
Sprite,Foreground,Centre,"SB\Light.png",320,240 S,0,0,,0.77 MX,0,0,,292 F,0,151573,161573,1,0 MY,0,151573,169273,520,-40
Sprite,Foreground,Centre,"SB\Light.png",320,240 S,0,0,,0.41 MX,0,0,,-30 F,0,151396,161396,1,0 MY,0,151396,165496,520,-40
Sprite,Foreground,Centre,"SB\Light.png",320,240 S,0,0,,0.43 MX,0,0,,248 F,0,151826,161826,1,0 MY,0,151826,166126,520,-40
Sprite,Foreground,Centre,"SB\Light.png",320,240 S,0,0,,0.26 MX,0,0,,147 F,0,152126,162126,1,0 MY,0,152126,164726,520,-40
Sprite,Foreground,Centre,"SB\Light.png",320,240 S,0,0,,0.51 MX,0,0,,-10 F,0,152447,162447,1,0 MY,0,152447,167547,520,-40
Sprite,Foreground,Centre,"SB\Light.png",320,240 S,0,0,,0.4 MX,0,0,,607 F,0,152597,162597,1,0 MY,0,152597,166597,520,-40
Sprite,Foreground,Centre,"SB\Light.png",320,240 S,0,0,,0.73 MX,0,0,,746 F,0,152771,162771,1,0 MY,0,152771,170071,520,-40
Sprite,Foreground,Centre,"SB\Light.png",320,240 S,0,0,,0.68 MX,0,0,,302 F,0,153072,163072,1,0 MY,0,153072,169872,520,-40
Sprite,Foreground,Centre,"SB\Light.png",320,240 S,0,0,,0.77 MX,0,0,,594 F,0,153648,163648,1,0 MY,0,153648,171348,520,-40
Sprite,Foreground,Centre,"SB\Light.png",320,240 S,0,0,,0.56 MX,0,0,,99 F,0,153300,163300,1,0 MY,0,153300,168900,520,-40
Sprite,Foreground,Centre,"SB\Light.png",320,240 S,0,0,,0.71 MX,0,0,,511 F,0,154032,164032,1,0 MY,0,154032,171132,520,-40
Sprite,Foreground,Centre,"SB\Light.png",320,240 S,0,0,,0.78 MX,0,0,,732 F,0,153909,163909,1,0 MY,0,153909,171709,520,-40
Sprite,Foreground,Centre,"SB\Light.png",320,240 S,0,0,,0.53 MX,0,0,,126 F,0,154393,164393,1,0 MY,0,154393,169693,520,-40
Sprite,Foreground,Centre,"SB\Light.png",320,240 S,0,0,,0.71 MX,0,0,,549 F,0,154473,164473,1,0 MY,0,154473,171573,520,-40
Sprite,Foreground,Centre,"SB\Light.png",320,240 S,0,0,,0.24 MX,0,0,,379 F,0,154846,164846,1,0 MY,0,154846,167246,520,-40
Sprite,Foreground,Centre,"SB\Light.png",320,240 S,0,0,,0.24 MX,0,0,,164 F,0,155186,165186,1,0 MY,0,155186,167586,520,-40
Sprite,Foreground,Centre,"SB\Light.png",320,240 S,0,0,,0.53 MX,0,0,,-59 F,0,155258,165258,1,0 MY,0,155258,170558,520,-40
Sprite,Foreground,Centre,"SB\Light.png",320,240 S,0,0,,0.39 MX,0,0,,569 F,0,155708,165708,1,0 MY,0,155708,169608,520,-40
Sprite,Foreground,Centre,"SB\Light.png",320,240 S,0,0,,0.8 MX,0,0,,-110 F,0,156215,166215,1,0 MY,0,156215,174215,520,-40
Sprite,Foreground,Centre,"SB\Light.png",320,240 S,0,0,,0.36 MX,0,0,,318 F,0,155830,165830,1,0 MY,0,155830,169430,520,-40
Sprite,Foreground,Centre,"SB\Light.png",320,240 S,0,0,,0.3 MX,0,0,,-67 F,0,156455,166455,1,0 MY,0,156455,169455,520,-40
Sprite,Foreground,Centre,"SB\Light.png",320,240 S,0,0,,0.55 MX,0,0,,50 F,0,156643,166643,1,0 MY,0,156643,172143,520,-40
Sprite,Foreground,Centre,"SB\Light.png",320,240 S,0,0,,0.28 MX,0,0,,-47 F,0,156882,166882,1,0 MY,0,156882,169682,520,-40
Sprite,Foreground,Centre,"SB\Light.png",320,240 S,0,0,,0.54 MX,0,0,,239 F,0,157033,167033,1,0 MY,0,157033,172433,520,-40
Sprite,Foreground,Centre,"SB\Light.png",320,240 S,0,0,,0.33 MX,0,0,,402 F,0,157641,167641,1,0 MY,0,157641,170941,520,-40
Sprite,Foreground,Centre,"SB\Light.png",320,240 S,0,0,,0.75 MX,0,0,,278 F,0,157262,167262,1,0 MY,0,157262,174762,520,-40
Sprite,Foreground,Centre,"SB\Light.png",320,240 S,0,0,,0.5 MX,0,0,,686 F,0,158104,168104,1,0 MY,0,158104,173104,520,-40
Sprite,Foreground,Centre,"SB\Light.png",320,240 S,0,0,,0.31 MX,0,0,,-38 F,0,158188,168188,1,0 MY,0,158188,171288,520,-40
Sprite,Foreground,Centre,"SB\Light.png",320,240 S,0,0,,0.76 MX,0,0,,448 F,0,158272,168272,1,0 MY,0,158272,175872,520,-40
Sprite,Foreground,Centre,"SB\Light.png",320,240 S,0,0,,0.79 MX,0,0,,225 F,0,158515,168515,1,0 MY,0,158515,176415,520,-40
Sprite,Foreground,Centre,"SB\Light.png",320,240 S,0,0,,0.67 MX,0,0,,-1 F,0,159233,169233,1,0 MY,0,159233,175933,520,-40
Sprite,Foreground,Centre,"SB\Light.png",320,240 S,0,0,,0.63 MX,0,0,,-79 F,0,158890,168890,1,0 MY,0,158890,175190,520,-40
Sprite,Foreground,Centre,"SB\Light.png",320,240 S,0,0,,0.43 MX,0,0,,240 F,0,159589,169589,1,0 MY,0,159589,173889,520,-40
Sprite,Foreground,Centre,"SB\Light.png",320,240 S,0,0,,0.34 MX,0,0,,411 F,0,159502,169502,1,0 MY,0,159502,172902,520,-40
Sprite,Foreground,Centre,"SB\Light.png",320,240 S,0,0,,0.59 MX,0,0,,279 F,0,160218,170218,1,0 MY,0,160218,176118,520,-40
Sprite,Foreground,Centre,"SB\Light.png",320,240 S,0,0,,0.31 MX,0,0,,5 F,0,160249,170249,1,0 MY,0,160249,173349,520,-40
Sprite,Foreground,Centre,"SB\Light.png",320,240 S,0,0,,0.53 MX,0,0,,668 F,0,160293,170293,1,0 MY,0,160293,175593,520,-40
Sprite,Foreground,Centre,"SB\Light.png",320,240 S,0,0,,0.54 MX,0,0,,279 F,0,160289,170289,1,0 MY,0,160289,175689,520,-40
Sprite,Foreground,Centre,"SB\Light.png",320,240 S,0,0,,0.78 MX,0,0,,350 F,0,161138,171138,1,0 MY,0,161138,178938,520,-40
Sprite,Foreground,Centre,"SB\Light.png",320,240 S,0,0,,0.52 MX,0,0,,528 F,0,161246,171246,1,0 MY,0,161246,176446,520,-40
Sprite,Foreground,Centre,"SB\Light.png",320,240 S,0,0,,0.61 MX,0,0,,522 F,0,161573,171573,1,0 MY,0,161573,177673,520,-40
Sprite,Foreground,Centre,"SB\Light.png",320,240 S,0,0,,0.37 MX,0,0,,406 F,0,161329,171329,1,0 MY,0,161329,175029,520,-40
Sprite,Foreground,Centre,"SB\Light.png",320,240 S,0,0,,0.54 MX,0,0,,320 F,0,162142,172142,1,0 MY,0,162142,177542,520,-40
Sprite,Foreground,Centre,"SB\Light.png",320,240 S,0,0,,0.22 MX,0,0,,189 F,0,162006,172006,1,0 MY,0,162006,174206,520,-40
Sprite,Foreground,Centre,"SB\Light.png",320,240 S,0,0,,0.39 MX,0,0,,65 F,0,162515,172515,1,0 MY,0,162515,176415,520,-40
Sprite,Foreground,Centre,"SB\Light.png",320,240 S,0,0,,0.58 MX,0,0,,700 F,0,162377,172377,1,0 MY,0,162377,178177,520,-40
Sprite,Foreground,Centre,"SB\Light.png",320,240 S,0,0,,0.51 MX,0,0,,-69 F,0,163015,173015,1,0 MY,0,163015,178115,520,-40
Sprite,Foreground,Centre,"SB\Light.png",320,240 S,0,0,,0.49 MX,0,0,,271 F,0,163119,173119,1,0 MY,0,163119,178019,520,-40
Sprite,Foreground,Centre,"SB\Light.png",320,240 S,0,0,,0.61 MX,0,0,,653 F,0,163465,173465,1,0 MY,0,163465,179565,520,-40
Sprite,Foreground,Centre,"SB\Light.png",320,240 S,0,0,,0.5 MX,0,0,,324 F,0,163352,173352,1,0 MY,0,163352,178352,520,-40
Sprite,Foreground,Centre,"SB\Light.png",320,240 S,0,0,,0.6 MX,0,0,,481 F,0,164125,174125,1,0 MY,0,164125,180125,520,-40
Sprite,Foreground,Centre,"SB\Light.png",320,240 S,0,0,,0.73 MX,0,0,,629 F,0,164172,174172,1,0 MY,0,164172,181472,520,-40
Sprite,Foreground,Centre,"SB\Light.png",320,240 S,0,0,,0.72 MX,0,0,,557 F,0,164530,174530,1,0 MY,0,164530,181730,520,-40
Sprite,Foreground,Centre,"SB\Light.png",320,240 S,0,0,,0.58 MX,0,0,,74 F,0,164437,174437,1,0 MY,0,164437,180237,520,-40
Sprite,Foreground,Centre,"SB\Light.png",320,240 S,0,0,,0.53 MX,0,0,,384 F,0,165068,175068,1,0 MY,0,165068,180368,520,-40
Sprite,Foreground,Centre,"SB\Light.png",320,240 S,0,0,,0.35 MX,0,0,,362 F,0,165002,175002,1,0 MY,0,165002,178502,520,-40
Sprite,Foreground,Centre,"SB\Light.png",320,240 S,0,0,,0.56 MX,0,0,,339 F,0,165376,175376,1,0 MY,0,165376,180976,520,-40
Sprite,Foreground,Centre,"SB\Light.png",320,240 S,0,0,,0.62 MX,0,0,,287 F,0,165418,175418,1,0 MY,0,165418,181618,520,-40
Sprite,Foreground,Centre,"SB\Light.png",320,240 S,0,0,,0.37 MX,0,0,,671 F,0,165761,175761,1,0 MY,0,165761,179461,520,-40
Sprite,Foreground,Centre,"SB\Light.png",320,240 S,0,0,,0.63 MX,0,0,,518 F,0,165850,175850,1,0 MY,0,165850,182150,520,-40
Sprite,Foreground,Centre,"SB\Light.png",320,240 S,0,0,,0.8 MX,0,0,,388 F,0,166552,176552,1,0 MY,0,166552,184552,520,-40
Sprite,Foreground,Centre,"SB\Light.png",320,240 S,0,0,,0.6 MX,0,0,,547 F,0,166279,176279,1,0 MY,0,166279,182279,520,-40
Sprite,Foreground,Centre,"SB\Light.png",320,240 S,0,0,,0.41 MX,0,0,,480 F,0,166940,176940,1,0 MY,0,166940,181040,520,-40
Sprite,Foreground,Centre,"SB\Light.png",320,240 S,0,0,,0.3 MX,0,0,,487 F,0,166975,176975,1,0 MY,0,166975,179975,520,-40
Sprite,Foreground,Centre,"SB\Light.png",320,240 S,0,0,,0.7 MX,0,0,,22 F,0,167640,177640,1,0 MY,0,167640,184640,520,-40
Sprite,Foreground,Centre,"SB\Light.png",320,240 S,0,0,,0.73 MX,0,0,,-22 F,0,167691,177691,1,0 MY,0,167691,184991,520,-40
Sprite,Foreground,Centre,"SB\Light.png",320,240 S,0,0,,0.4 MX,0,0,,686 F,0,168215,178215,1,0 MY,0,168215,182215,520,-40
Sprite,Foreground,Centre,"SB\Light.png",320,240 S,0,0,,0.79 MX,0,0,,708 F,0,167963,177963,1,0 MY,0,167963,185863,520,-40
Sprite,Foreground,Centre,"SB\Light.png",320,240 S,0,0,,0.33 MX,0,0,,245 F,0,168704,178704,1,0 MY,0,168704,182004,520,-40
Sprite,Foreground,Centre,"SB\Light.png",320,240 S,0,0,,0.78 MX,0,0,,596 F,0,168736,178736,1,0 MY,0,168736,186536,520,-40
Sprite,Foreground,Centre,"SB\Light.png",320,240 S,0,0,,0.22 MX,0,0,,200 F,0,169039,179039,1,0 MY,0,169039,181239,520,-40
Sprite,Foreground,Centre,"SB\Light.png",320,240 S,0,0,,0.58 MX,0,0,,553 F,0,168819,178819,1,0 MY,0,168819,184619,520,-40
Sprite,Foreground,Centre,"SB\Light.png",320,240 S,0,0,,0.69 MX,0,0,,386 F,0,169569,179569,1,0 MY,0,169569,186469,520,-40
Sprite,Foreground,Centre,"SB\Light.png",320,240 S,0,0,,0.72 MX,0,0,,-3 F,0,169699,179699,1,0 MY,0,169699,186899,520,-40
Sprite,Foreground,Centre,"SB\Light.png",320,240 S,0,0,,0.7 MX,0,0,,581 F,0,170202,180202,1,0 MY,0,170202,187202,520,-40
Sprite,Foreground,Centre,"SB\Light.png",320,240 S,0,0,,0.38 MX,0,0,,369 F,0,169964,179964,1,0 MY,0,169964,183764,520,-40
Sprite,Foreground,Centre,"SB\Light.png",320,240 S,0,0,,0.69 MX,0,0,,12 F,0,170680,180680,1,0 MY,0,170680,187580,520,-40
Sprite,Foreground,Centre,"SB\Light.png",320,240 S,0,0,,0.69 MX,0,0,,123 F,0,170461,180461,1,0 MY,0,170461,187361,520,-40
Sprite,Foreground,Centre,"SB\Light.png",320,240 S,0,0,,0.58 MX,0,0,,43 F,0,170938,180938,1,0 MY,0,170938,186738,520,-40
Sprite,Foreground,Centre,"SB\Light.png",320,240 S,0,0,,0.41 MX,0,0,,20 F,0,170757,180757,1,0 MY,0,170757,184857,520,-40
Sprite,Foreground,Centre,"SB\Light.png",320,240 S,0,0,,0.72 MX,0,0,,240 F,0,171467,181467,1,0 MY,0,171467,188667,520,-40
Sprite,Foreground,Centre,"SB\Light.png",320,240 S,0,0,,0.4 MX,0,0,,640 F,0,171447,181447,1,0 MY,0,171447,185447,520,-40
Sprite,Foreground,Centre,"SB\Light.png",320,240 S,0,0,,0.43 MX,0,0,,440 F,0,171810,181810,1,0 MY,0,171810,186110,520,-40
Sprite,Foreground,Centre,"SB\Light.png",320,240 S,0,0,,0.52 MX,0,0,,98 F,0,171848,181848,1,0 MY,0,171848,187048,520,-40
Sprite,Foreground,Centre,"SB\Light.png",320,240 S,0,0,,0.68 MX,0,0,,-83 F,0,172279,182279,1,0 MY,0,172279,189079,520,-40
Sprite,Foreground,Centre,"SB\Light.png",320,240 S,0,0,,0.29 MX,0,0,,339 F,0,172487,182487,1,0 MY,0,172487,185387,520,-40
Sprite,Foreground,Centre,"SB\Light.png",320,240 S,0,0,,0.72 MX,0,0,,300 F,0,172826,182826,1,0 MY,0,172826,190026,520,-40
Sprite,Foreground,Centre,"SB\Light.png",320,240 S,0,0,,0.61 MX,0,0,,-14 F,0,173210,183210,1,0 MY,0,173210,189310,520,-40
Sprite,Foreground,Centre,"SB\Light.png",320,240 S,0,0,,0.25 MX,0,0,,24 F,0,173323,183323,1,0 MY,0,173323,185823,520,-40
Sprite,Foreground,Centre,"SB\Light.png",320,240 S,0,0,,0.56 MX,0,0,,547 F,0,173370,183370,1,0 MY,0,173370,188970,520,-40
Sprite,Foreground,Centre,"SB\Light.png",320,240 S,0,0,,0.45 MX,0,0,,427 F,0,173754,183754,1,0 MY,0,173754,188254,520,-40
Sprite,Foreground,Centre,"SB\Light.png",320,240 S,0,0,,0.63 MX,0,0,,288 F,0,173980,183980,1,0 MY,0,173980,190280,520,-40
Sprite,Foreground,Centre,"SB\Light.png",320,240 S,0,0,,0.76 MX,0,0,,328 F,0,174750,184750,1,0 MY,0,174750,192350,520,-40
Sprite,Foreground,Centre,"SB\Light.png",320,240 S,0,0,,0.75 MX,0,0,,155 F,0,174498,184498,1,0 MY,0,174498,191998,520,-40
Sprite,Foreground,Centre,"SB\Light.png",320,240 S,0,0,,0.74 MX,0,0,,460 F,0,175213,185213,1,0 MY,0,175213,192613,520,-40
Sprite,Foreground,Centre,"SB\Light.png",320,240 S,0,0,,0.34 MX,0,0,,203 F,0,174889,184889,1,0 MY,0,174889,188289,520,-40
Sprite,Foreground,Centre,"SB\Light.png",320,240 S,0,0,,0.59 MX,0,0,,666 F,0,175252,185252,1,0 MY,0,175252,191152,520,-40
Sprite,Foreground,Centre,"SB\Light.png",320,240 S,0,0,,0.61 MX,0,0,,631 F,0,175490,185490,1,0 MY,0,175490,191590,520,-40
Sprite,Foreground,Centre,"SB\Light.png",320,240 S,0,0,,0.38 MX,0,0,,333 F,0,175997,185997,1,0 MY,0,175997,189797,520,-40
Sprite,Foreground,Centre,"SB\Light.png",320,240 S,0,0,,0.63 MX,0,0,,102 F,0,175843,185843,1,0 MY,0,175843,192143,520,-40
Sprite,Foreground,Centre,"SB\Light.png",320,240 S,0,0,,0.73 MX,0,0,,648 F,0,176372,186372,1,0 MY,0,176372,193672,520,-40
Sprite,Foreground,Centre,"SB\Light.png",320,240 S,0,0,,0.57 MX,0,0,,52 F,0,176645,186645,1,0 MY,0,176645,192345,520,-40
Sprite,Foreground,Centre,"SB\Light.png",320,240 S,0,0,,0.54 MX,0,0,,404 F,0,176801,186801,1,0 MY,0,176801,192201,520,-40
Sprite,Foreground,Centre,"SB\Light.png",320,240 S,0,0,,0.2 MX,0,0,,298 F,0,176791,186791,1,0 MY,0,176791,188791,520,-40
Sprite,Foreground,Centre,"SB\Light.png",320,240 S,0,0,,0.3 MX,0,0,,456 F,0,177358,187358,1,0 MY,0,177358,190358,520,-40
Sprite,Foreground,Centre,"SB\Light.png",320,240 S,0,0,,0.47 MX,0,0,,746 F,0,177720,187720,1,0 MY,0,177720,192420,520,-40
Sprite,Foreground,Centre,"SB\Light.png",320,240 S,0,0,,0.68 MX,0,0,,638 F,0,178140,188140,1,0 MY,0,178140,194940,520,-40
Sprite,Foreground,Centre,"SB\Light.png",320,240 S,0,0,,0.72 MX,0,0,,92 F,0,178175,188175,1,0 MY,0,178175,195375,520,-40
Sprite,Foreground,Centre,"SB\Light.png",320,240 S,0,0,,0.66 MX,0,0,,345 F,0,178719,188719,1,0 MY,0,178719,195319,520,-40
Sprite,Foreground,Centre,"SB\Light.png",320,240 S,0,0,,0.77 MX,0,0,,722 F,0,178625,188625,1,0 MY,0,178625,196325,520,-40
Sprite,Foreground,Centre,"SB\Light.png",320,240 S,0,0,,0.35 MX,0,0,,589 F,0,178961,188961,1,0 MY,0,178961,192461,520,-40
Sprite,Foreground,Centre,"SB\Light.png",320,240 S,0,0,,0.46 MX,0,0,,105 F,0,178858,188858,1,0 MY,0,178858,193458,520,-40
Sprite,Foreground,Centre,"SB\Light.png",320,240 S,0,0,,0.48 MX,0,0,,6 F,0,179271,189271,1,0 MY,0,179271,194071,520,-40
Sprite,Foreground,Centre,"SB\Light.png",320,240 S,0,0,,0.66 MX,0,0,,41 F,0,179390,189390,1,0 MY,0,179390,195990,520,-40
Sprite,Foreground,Centre,"SB\Light.png",320,240 S,0,0,,0.46 MX,0,0,,684 F,0,180085,190085,1,0 MY,0,180085,194685,520,-40
Sprite,Foreground,Centre,"SB\Light.png",320,240 S,0,0,,0.32 MX,0,0,,116 F,0,180072,190072,1,0 MY,0,180072,193272,520,-40
Sprite,Foreground,Centre,"SB\Light.png",320,240 S,0,0,,0.51 MX,0,0,,367 F,0,180503,190503,1,0 MY,0,180503,195603,520,-40
Sprite,Foreground,Centre,"SB\Light.png",320,240 S,0,0,,0.43 MX,0,0,,240 F,0,180674,190674,1,0 MY,0,180674,194974,520,-40
Sprite,Foreground,Centre,"SB\Light.png",320,240 S,0,0,,0.59 MX,0,0,,231 F,0,181212,191212,1,0 MY,0,181212,197112,520,-40
Sprite,Foreground,Centre,"SB\Light.png",320,240 S,0,0,,0.6 MX,0,0,,623 F,0,180756,190756,1,0 MY,0,180756,196756,520,-40
Sprite,Foreground,Centre,"SB\Light.png",320,240 S,0,0,,0.58 MX,0,0,,193 F,0,181678,191678,1,0 MY,0,181678,197478,520,-40
Sprite,Foreground,Centre,"SB\Light.png",320,240 S,0,0,,0.6 MX,0,0,,458 F,0,181561,191561,1,0 MY,0,181561,197561,520,-40
Sprite,Foreground,Centre,"SB\Light.png",320,240 S,0,0,,0.44 MX,0,0,,-110 F,0,182126,192126,1,0 MY,0,182126,196526,520,-40
Sprite,Foreground,Centre,"SB\Light.png",320,240 S,0,0,,0.72 MX,0,0,,662 F,0,182121,192121,1,0 MY,0,182121,199321,520,-40
Sprite,Foreground,Centre,"SB\Light.png",320,240 S,0,0,,0.62 MX,0,0,,319 F,0,182738,192738,1,0 MY,0,182738,198938,520,-40
Sprite,Foreground,Centre,"SB\Light.png",320,240 S,0,0,,0.39 MX,0,0,,43 F,0,182262,192262,1,0 MY,0,182262,196162,520,-40
Sprite,Foreground,Centre,"SB\Light.png",320,240 S,0,0,,0.36 MX,0,0,,143 F,0,182967,192967,1,0 MY,0,182967,196567,520,-40
Sprite,Foreground,Centre,"SB\Light.png",320,240 S,0,0,,0.45 MX,0,0,,99 F,0,183030,193030,1,0 MY,0,183030,197530,520,-40
Sprite,Foreground,Centre,"SB\Light.png",320,240 S,0,0,,0.44 MX,0,0,,385 F,0,183463,193463,1,0 MY,0,183463,197863,520,-40
Sprite,Foreground,Centre,"SB\Light.png",320,240 S,0,0,,0.72 MX,0,0,,141 F,0,183692,193692,1,0 MY,0,183692,200892,520,-40
Sprite,Foreground,Centre,"SB\Light.png",320,240 S,0,0,,0.37 MX,0,0,,-86 F,0,184141,194141,1,0 MY,0,184141,197841,520,-40
Sprite,Foreground,Centre,"SB\Light.png",320,240 S,0,0,,0.7 MX,0,0,,255 F,0,184157,194157,1,0 MY,0,184157,201157,520,-40
Sprite,Foreground,Centre,"SB\Light.png",320,240 S,0,0,,0.35 MX,0,0,,-69 F,0,184318,194318,1,0 MY,0,184318,197818,520,-40
Sprite,Foreground,Centre,"SB\Light.png",320,240 S,0,0,,0.36 MX,0,0,,658 F,0,184633,194633,1,0 MY,0,184633,198233,520,-40
Sprite,Foreground,Centre,"SB\Light.png",320,240 S,0,0,,0.6 MX,0,0,,548 F,0,185148,195148,1,0 MY,0,185148,201148,520,-40
Sprite,Foreground,Centre,"SB\Light.png",320,240 S,0,0,,0.75 MX,0,0,,640 F,0,185081,195081,1,0 MY,0,185081,202581,520,-40
Sprite,Foreground,Centre,"SB\Light.png",320,240 S,0,0,,0.33 MX,0,0,,663 F,0,185593,195593,1,0 MY,0,185593,198893,520,-40
Sprite,Foreground,Centre,"SB\Light.png",320,240 S,0,0,,0.54 MX,0,0,,388 F,0,185417,195417,1,0 MY,0,185417,200817,520,-40
Sprite,Foreground,Centre,"SB\Light.png",320,240 S,0,0,,0.26 MX,0,0,,145 F,0,185947,195947,1,0 MY,0,185947,198547,520,-40
Sprite,Foreground,Centre,"SB\Light.png",320,240 S,0,0,,0.25 MX,0,0,,58 F,0,185859,195859,1,0 MY,0,185859,198359,520,-40
Sprite,Foreground,Centre,"SB\Light.png",320,240 S,0,0,,0.63 MX,0,0,,635 F,0,186378,196378,1,0 MY,0,186378,202678,520,-40
Sprite,Foreground,Centre,"SB\Light.png",320,240 S,0,0,,0.72 MX,0,0,,716 F,0,186527,196527,1,0 MY,0,186527,203727,520,-40
Sprite,Foreground,Centre,"SB\Light.png",320,240 S,0,0,,0.24 MX,0,0,,28 F,0,187038,197038,1,0 MY,0,187038,199438,520,-40
Sprite,Foreground,Centre,"SB\Light.png",320,240 S,0,0,,0.27 MX,0,0,,655 F,0,187185,197185,1,0 MY,0,187185,199885,520,-40
Sprite,Foreground,Centre,"SB\Light.png",320,240 S,0,0,,0.44 MX,0,0,,466 F,0,187275,197275,1,0 MY,0,187275,201675,520,-40
Sprite,Foreground,Centre,"SB\Light.png",320,240 S,0,0,,0.49 MX,0,0,,548 F,0,187251,197251,1,0 MY,0,187251,202151,520,-40
Sprite,Foreground,Centre,"SB\Light.png",320,240 S,0,0,,0.62 MX,0,0,,549 F,0,188128,198128,1,0 MY,0,188128,204328,520,-40
Sprite,Foreground,Centre,"SB\Light.png",320,240 S,0,0,,0.43 MX,0,0,,61 F,0,187999,197999,1,0 MY,0,187999,202299,520,-40
Sprite,Foreground,Centre,"SB\Light.png",320,240 S,0,0,,0.47 MX,0,0,,275 F,0,188568,198568,1,0 MY,0,188568,203268,520,-40
Sprite,Foreground,Centre,"SB\Light.png",320,240 S,0,0,,0.27 MX,0,0,,251 F,0,188613,198613,1,0 MY,0,188613,201313,520,-40
Sprite,Foreground,Centre,"SB\Light.png",320,240 S,0,0,,0.72 MX,0,0,,680 F,0,189108,199108,1,0 MY,0,189108,206308,520,-40
Sprite,Foreground,Centre,"SB\Light.png",320,240 S,0,0,,0.21 MX,0,0,,328 F,0,188838,198838,1,0 MY,0,188838,200938,520,-40
Sprite,Foreground,Centre,"SB\Light.png",320,240 S,0,0,,0.69 MX,0,0,,97 F,0,189527,199527,1,0 MY,0,189527,206427,520,-40
Sprite,Foreground,Centre,"SB\Light.png",320,240 S,0,0,,0.63 MX,0,0,,-38 F,0,189645,199645,1,0 MY,0,189645,205945,520,-40
Sprite,Foreground,Centre,"SB\Light.png",320,240 S,0,0,,0.2 MX,0,0,,592 F,0,190167,200167,1,0 MY,0,190167,202167,520,-40
Sprite,Foreground,Centre,"SB\Light.png",320,240 S,0,0,,0.75 MX,0,0,,134 F,0,189793,199793,1,0 MY,0,189793,207293,520,-40
Sprite,Foreground,Centre,"SB\Light.png",320,240 S,0,0,,0.52 MX,0,0,,226 F,0,190327,200327,1,0 MY,0,190327,205527,520,-40
Sprite,Foreground,Centre,"SB\Light.png",320,240 S,0,0,,0.46 MX,0,0,,288 F,0,190565,200565,1,0 MY,0,190565,205165,520,-40
Sprite,Foreground,Centre,"SB\Light.png",320,240 S,0,0,,0.6 MX,0,0,,543 F,0,190941,200941,1,0 MY,0,190941,206941,520,-40
Sprite,Foreground,Centre,"SB\Light.png",320,240 S,0,0,,0.51 MX,0,0,,681 F,0,190907,200907,1,0 MY,0,190907,206007,520,-40
Sprite,Foreground,Centre,"SB\Light.png",320,240 S,0,0,,0.65 MX,0,0,,623 F,0,191459,201459,1,0 MY,0,191459,207959,520,-40
Sprite,Foreground,Centre,"SB\Light.png",320,240 S,0,0,,0.79 MX,0,0,,22 F,0,191723,201723,1,0 MY,0,191723,209623,520,-40
Sprite,Foreground,Centre,"SB\Light.png",320,240 S,0,0,,0.29 MX,0,0,,642 F,0,191889,201889,1,0 MY,0,191889,204789,520,-40
Sprite,Foreground,Centre,"SB\Light.png",320,240 S,0,0,,0.51 MX,0,0,,276 F,0,191938,201938,1,0 MY,0,191938,207038,520,-40
Sprite,Foreground,Centre,"SB\Light.png",320,240 S,0,0,,0.61 MX,0,0,,721 F,0,192587,202587,1,0 MY,0,192587,208687,520,-40
Sprite,Foreground,Centre,"SB\Light.png",320,240 S,0,0,,0.43 MX,0,0,,460 F,0,192747,202747,1,0 MY,0,192747,207047,520,-40
Sprite,Foreground,Centre,"SB\Light.png",320,240 S,0,0,,0.29 MX,0,0,,361 F,0,192941,202941,1,0 MY,0,192941,205841,520,-40
Sprite,Foreground,Centre,"SB\Light.png",320,240 S,0,0,,0.21 MX,0,0,,381 F,0,193020,203020,1,0 MY,0,193020,205120,520,-40
Sprite,Foreground,Centre,"SB\Light.png",320,240 S,0,0,,0.47 MX,0,0,,-36 F,0,193548,203548,1,0 MY,0,193548,208248,520,-40
Sprite,Foreground,Centre,"SB\Light.png",320,240 S,0,0,,0.65 MX,0,0,,573 F,0,193461,203461,1,0 MY,0,193461,209961,520,-40
Sprite,Foreground,Centre,"SB\Light.png",320,240 S,0,0,,0.39 MX,0,0,,96 F,0,193929,203929,1,0 MY,0,193929,207829,520,-40
Sprite,Foreground,Centre,"SB\Light.png",320,240 S,0,0,,0.34 MX,0,0,,208 F,0,193897,203897,1,0 MY,0,193897,207297,520,-40
Sprite,Foreground,Centre,"SB\Light.png",320,240 S,0,0,,0.6 MX,0,0,,655 F,0,194736,204736,1,0 MY,0,194736,210736,520,-40
Sprite,Foreground,Centre,"SB\Light.png",320,240 S,0,0,,0.45 MX,0,0,,587 F,0,194270,204270,1,0 MY,0,194270,208770,520,-40
Sprite,Foreground,Centre,"SB\Light.png",320,240 S,0,0,,0.77 MX,0,0,,559 F,0,195124,205124,1,0 MY,0,195124,212824,520,-40
Sprite,Foreground,Centre,"SB\Light.png",320,240 S,0,0,,0.5 MX,0,0,,712 F,0,194754,204754,1,0 MY,0,194754,209754,520,-40
Sprite,Foreground,Centre,"SB\Light.png",320,240 S,0,0,,0.25 MX,0,0,,226 F,0,195624,205624,1,0 MY,0,195624,208124,520,-40
Sprite,Foreground,Centre,"SB\Light.png",320,240 S,0,0,,0.42 MX,0,0,,692 F,0,195392,205392,1,0 MY,0,195392,209592,520,-40
Sprite,Foreground,Centre,"SB\Light.png",320,240 S,0,0,,0.37 MX,0,0,,646 F,0,195924,205924,1,0 MY,0,195924,209624,520,-40
Sprite,Foreground,Centre,"SB\Light.png",320,240 S,0,0,,0.24 MX,0,0,,190 F,0,196106,206106,1,0 MY,0,196106,208506,520,-40
Sprite,Foreground,Centre,"SB\Light.png",320,240 S,0,0,,0.24 MX,0,0,,626 F,0,196507,206507,1,0 MY,0,196507,208907,520,-40
Sprite,Foreground,Centre,"SB\Light.png",320,240 S,0,0,,0.32 MX,0,0,,-95 F,0,196455,206455,1,0 MY,0,196455,209655,520,-40
Sprite,Foreground,Centre,"SB\Light.png",320,240 S,0,0,,0.56 MX,0,0,,217 F,0,196851,206851,1,0 MY,0,196851,212451,520,-40
Sprite,Foreground,Centre,"SB\Light.png",320,240 S,0,0,,0.67 MX,0,0,,-92 F,0,196974,206974,1,0 MY,0,196974,213674,520,-40
Sprite,Foreground,Centre,"SB\Light.png",320,240 S,0,0,,0.64 MX,0,0,,185 F,0,197611,207611,1,0 MY,0,197611,214011,520,-40
Sprite,Foreground,Centre,"SB\Light.png",320,240 S,0,0,,0.68 MX,0,0,,572 F,0,197627,207627,1,0 MY,0,197627,214427,520,-40
Sprite,Foreground,Centre,"SB\Light.png",320,240 S,0,0,,0.27 MX,0,0,,396 F,0,197794,207794,1,0 MY,0,197794,210494,520,-40
Sprite,Foreground,Centre,"SB\Light.png",320,240 S,0,0,,0.44 MX,0,0,,470 F,0,198230,208230,1,0 MY,0,198230,212630,520,-40
Sprite,Foreground,Centre,"SB\Light.png",320,240 S,0,0,,0.38 MX,0,0,,-46 F,0,198577,208577,1,0 MY,0,198577,212377,520,-40
Sprite,Foreground,Centre,"SB\Light.png",320,240 S,0,0,,0.5 MX,0,0,,704 F,0,198725,208725,1,0 MY,0,198725,213725,520,-40
Sprite,Foreground,Centre,"SB\Light.png",320,240 S,0,0,,0.52 MX,0,0,,113 F,0,199226,209226,1,0 MY,0,199226,214426,520,-40
Sprite,Foreground,Centre,"SB\Light.png",320,240 S,0,0,,0.78 MX,0,0,,342 F,0,199047,209047,1,0 MY,0,199047,216847,520,-40
Sprite,Foreground,Centre,"SB\Light.png",320,240 S,0,0,,0.66 MX,0,0,,180 F,0,199416,209416,1,0 MY,0,199416,216016,520,-40
Sprite,Foreground,Centre,"SB\Light.png",320,240 S,0,0,,0.55 MX,0,0,,584 F,0,199616,209616,1,0 MY,0,199616,215116,520,-40
Sprite,Foreground,Centre,"SB\Light.png",320,240 S,0,0,,0.42 MX,0,0,,148 F,0,200201,210201,1,0 MY,0,200201,214401,520,-40
Sprite,Foreground,Centre,"SB\Light.png",320,240 S,0,0,,0.55 MX,0,0,,373 F,0,199910,209910,1,0 MY,0,199910,215410,520,-40
Sprite,Foreground,Centre,"SB\Light.png",320,240 S,0,0,,0.25 MX,0,0,,402 F,0,200567,210567,1,0 MY,0,200567,213067,520,-40
Sprite,Foreground,Centre,"SB\Light.png",320,240 S,0,0,,0.66 MX,0,0,,426 F,0,200494,210494,1,0 MY,0,200494,217094,520,-40
Sprite,Foreground,Centre,"SB\Light.png",320,240 S,0,0,,0.3 MX,0,0,,368 F,0,201219,211219,1,0 MY,0,201219,214219,520,-40
Sprite,Foreground,Centre,"SB\Light.png",320,240 S,0,0,,0.77 MX,0,0,,541 F,0,201088,211088,1,0 MY,0,201088,218788,520,-40
Sprite,Foreground,Centre,"SB\Light.png",320,240 S,0,0,,0.46 MX,0,0,,107 F,0,201701,211701,1,0 MY,0,201701,216301,520,-40
Sprite,Foreground,Centre,"SB\Light.png",320,240 S,0,0,,0.66 MX,0,0,,317 F,0,201301,211301,1,0 MY,0,201301,217901,520,-40
Sprite,Foreground,Centre,"SB\Light.png",320,240 S,0,0,,0.69 MX,0,0,,-1 F,0,201867,211867,1,0 MY,0,201867,218767,520,-40
Sprite,Foreground,Centre,"SB\Light.png",320,240 S,0,0,,0.47 MX,0,0,,252 F,0,202141,212141,1,0 MY,0,202141,216841,520,-40
Sprite,Foreground,Centre,"SB\Light.png",320,240 S,0,0,,0.67 MX,0,0,,196 F,0,202266,212266,1,0 MY,0,202266,218966,520,-40
Sprite,Foreground,Centre,"SB\Light.png",320,240 S,0,0,,0.42 MX,0,0,,-62 F,0,202527,212527,1,0 MY,0,202527,216727,520,-40
Sprite,Foreground,Centre,"SB\Light.png",320,240 S,0,0,,0.51 MX,0,0,,176 F,0,202767,212767,1,0 MY,0,202767,217867,520,-40
Sprite,Foreground,Centre,"SB\Light.png",320,240 S,0,0,,0.41 MX,0,0,,161 F,0,203110,213110,1,0 MY,0,203110,217210,520,-40
Sprite,Foreground,Centre,"SB\Light.png",320,240 S,0,0,,0.58 MX,0,0,,288 F,0,203453,213453,1,0 MY,0,203453,219253,520,-40
Sprite,Foreground,Centre,"SB\Light.png",320,240 S,0,0,,0.79 MX,0,0,,455 F,0,203639,213639,1,0 MY,0,203639,221539,520,-40
Sprite,Foreground,Centre,"SB\Light.png",320,240 S,0,0,,0.55 MX,0,0,,454 F,0,204138,214138,1,0 MY,0,204138,219638,520,-40
Sprite,Foreground,Centre,"SB\Light.png",320,240 S,0,0,,0.53 MX,0,0,,605 F,0,204159,214159,1,0 MY,0,204159,219459,520,-40
Sprite,Foreground,Centre,"SB\Light.png",320,240 S,0,0,,0.68 MX,0,0,,577 F,0,204320,214320,1,0 MY,0,204320,221120,520,-40
Sprite,Foreground,Centre,"SB\Light.png",320,240 S,0,0,,0.46 MX,0,0,,-36 F,0,204553,214553,1,0 MY,0,204553,219153,520,-40
Sprite,Foreground,Centre,"SB\Light.png",320,240 S,0,0,,0.3 MX,0,0,,623 F,0,205136,215136,1,0 MY,0,205136,218136,520,-40
Sprite,Foreground,Centre,"SB\Light.png",320,240 S,0,0,,0.36 MX,0,0,,282 F,0,205065,215065,1,0 MY,0,205065,218665,520,-40
Sprite,Foreground,Centre,"SB\Light.png",320,240 S,0,0,,0.5 MX,0,0,,219 F,0,205741,215741,1,0 MY,0,205741,220741,520,-40
Sprite,Foreground,Centre,"SB\Light.png",320,240 S,0,0,,0.45 MX,0,0,,441 F,0,205653,215653,1,0 MY,0,205653,220153,520,-40
Sprite,Foreground,Centre,"SB\Light.png",320,240 S,0,0,,0.77 MX,0,0,,46 F,0,205965,215965,1,0 MY,0,205965,223665,520,-40
Sprite,Foreground,Centre,"SB\Light.png",320,240 S,0,0,,0.22 MX,0,0,,490 F,0,205792,215792,1,0 MY,0,205792,217992,520,-40
Sprite,Foreground,Centre,"SB\Light.png",320,240 S,0,0,,0.48 MX,0,0,,283 F,0,206313,216313,1,0 MY,0,206313,221113,520,-40
Sprite,Foreground,Centre,"SB\Light.png",320,240 S,0,0,,0.66 MX,0,0,,-104 F,0,206674,216674,1,0 MY,0,206674,223274,520,-40
Sprite,Foreground,Centre,"SB\Light.png",320,240 S,0,0,,0.51 MX,0,0,,75 F,0,207187,217187,1,0 MY,0,207187,222287,520,-40
Sprite,Foreground,Centre,"SB\Light.png",320,240 S,0,0,,0.35 MX,0,0,,245 F,0,206863,216863,1,0 MY,0,206863,220363,520,-40
Sprite,Foreground,Centre,"SB\Light.png",320,240 S,0,0,,0.35 MX,0,0,,259 F,0,207536,217536,1,0 MY,0,207536,221036,520,-40
Sprite,Foreground,Centre,"SB\Light.png",320,240 S,0,0,,0.48 MX,0,0,,706 F,0,207289,217289,1,0 MY,0,207289,222089,520,-40
Sprite,Foreground,Centre,"SB\Light.png",320,240 S,0,0,,0.2 MX,0,0,,558 F,0,207838,217838,1,0 MY,0,207838,219838,520,-40
Sprite,Foreground,Centre,"SB\Light.png",320,240 S,0,0,,0.36 MX,0,0,,576 F,0,207934,217934,1,0 MY,0,207934,221534,520,-40
Sprite,Foreground,Centre,"SB\Light.png",320,240 S,0,0,,0.2 MX,0,0,,724 F,0,208485,218485,1,0 MY,0,208485,220485,520,-40
Sprite,Foreground,Centre,"SB\Light.png",320,240 S,0,0,,0.59 MX,0,0,,222 F,0,208329,218329,1,0 MY,0,208329,224229,520,-40
Sprite,Foreground,Centre,"SB\Light.png",320,240 S,0,0,,0.26 MX,0,0,,-61 F,0,209058,219058,1,0 MY,0,209058,221658,520,-40
Sprite,Foreground,Centre,"SB\Light.png",320,240 S,0,0,,0.58 MX,0,0,,302 F,0,209135,219135,1,0 MY,0,209135,224935,520,-40
Sprite,Foreground,Centre,"SB\Light.png",320,240 S,0,0,,0.71 MX,0,0,,684 F,0,209733,219733,1,0 MY,0,209733,226833,520,-40
Sprite,Foreground,Centre,"SB\Light.png",320,240 S,0,0,,0.34 MX,0,0,,541 F,0,209454,219454,1,0 MY,0,209454,222854,520,-40
Sprite,Foreground,Centre,"SB\Light.png",320,240 S,0,0,,0.79 MX,0,0,,538 F,0,210122,220122,1,0 MY,0,210122,228022,520,-40
Sprite,Foreground,Centre,"SB\Light.png",320,240 S,0,0,,0.32 MX,0,0,,91 F,0,209870,219870,1,0 MY,0,209870,223070,520,-40
Sprite,Foreground,Centre,"SB\Light.png",320,240 S,0,0,,0.34 MX,0,0,,192 F,0,210337,220337,1,0 MY,0,210337,223737,520,-40
Sprite,Foreground,Centre,"SB\Light.png",320,240 S,0,0,,0.76 MX,0,0,,671 F,0,210488,220488,1,0 MY,0,210488,228088,520,-40
Sprite,Foreground,Centre,"SB\Light.png",320,240 S,0,0,,0.6 MX,0,0,,543 F,0,210763,220763,1,0 MY,0,210763,226763,520,-40
Sprite,Foreground,Centre,"SB\Light.png",320,240 S,0,0,,0.22 MX,0,0,,215 F,0,210848,220848,1,0 MY,0,210848,223048,520,-40
Sprite,Foreground,Centre,"SB\Light.png",320,240 S,0,0,,0.7 MX,0,0,,505 F,0,211625,221625,1,0 MY,0,211625,228625,520,-40
Sprite,Foreground,Centre,"SB\Light.png",320,240 S,0,0,,0.41 MX,0,0,,416 F,0,211687,221687,1,0 MY,0,211687,225787,520,-40
Sprite,Foreground,Centre,"SB\Light.png",320,240 S,0,0,,0.77 MX,0,0,,580 F,0,211829,221829,1,0 MY,0,211829,229529,520,-40
Sprite,Foreground,Centre,"SB\Light.png",320,240 S,0,0,,0.21 MX,0,0,,-13 F,0,212059,222059,1,0 MY,0,212059,224159,520,-40
Sprite,Foreground,Centre,"SB\Light.png",320,240 S,0,0,,0.21 MX,0,0,,551 F,0,212559,222559,1,0 MY,0,212559,224659,520,-40
Sprite,Foreground,Centre,"SB\Light.png",320,240 S,0,0,,0.22 MX,0,0,,427 F,0,212634,222634,1,0 MY,0,212634,224834,520,-40
Sprite,Foreground,Centre,"SB\Light.png",320,240 S,0,0,,0.64 MX,0,0,,87 F,0,212902,222902,1,0 MY,0,212902,229302,520,-40
Sprite,Foreground,Centre,"SB\Light.png",320,240 S,0,0,,0.22 MX,0,0,,736 F,0,213153,223153,1,0 MY,0,213153,225353,520,-40
Sprite,Foreground,Centre,"SB\Light.png",320,240 S,0,0,,0.29 MX,0,0,,11 F,0,213459,223459,1,0 MY,0,213459,226359,520,-40
Sprite,Foreground,Centre,"SB\Light.png",320,240 S,0,0,,0.63 MX,0,0,,530 F,0,213340,223340,1,0 MY,0,213340,229640,520,-40
Sprite,Foreground,Centre,"SB\Light.png",320,240 S,0,0,,0.53 MX,0,0,,552 F,0,214235,224235,1,0 MY,0,214235,229535,520,-40
Sprite,Foreground,Centre,"SB\Light.png",320,240 S,0,0,,0.22 MX,0,0,,457 F,0,214154,224154,1,0 MY,0,214154,226354,520,-40
Sprite,Foreground,Centre,"SB\Light.png",320,240 S,0,0,,0.28 MX,0,0,,638 F,0,214456,224456,1,0 MY,0,214456,227256,520,-40
Sprite,Foreground,Centre,"SB\Light.png",320,240 S,0,0,,0.46 MX,0,0,,-39 F,0,214557,224557,1,0 MY,0,214557,229157,520,-40
Sprite,Foreground,Centre,"SB\Light.png",320,240 S,0,0,,0.34 MX,0,0,,369 F,0,214880,224880,1,0 MY,0,214880,228280,520,-40
Sprite,Foreground,Centre,"SB\Light.png",320,240 S,0,0,,0.28 MX,0,0,,628 F,0,214853,224853,1,0 MY,0,214853,227653,520,-40
Sprite,Foreground,Centre,"SB\Light.png",320,240 S,0,0,,0.28 MX,0,0,,113 F,0,215701,225701,1,0 MY,0,215701,228501,520,-40
Sprite,Foreground,Centre,"SB\Light.png",320,240 S,0,0,,0.29 MX,0,0,,657 F,0,215558,225558,1,0 MY,0,215558,228458,520,-40
Sprite,Foreground,Centre,"SB\Light.png",320,240 S,0,0,,0.64 MX,0,0,,702 F,0,215901,225901,1,0 MY,0,215901,232301,520,-40
Sprite,Foreground,Centre,"SB\Light.png",320,240 S,0,0,,0.48 MX,0,0,,283 F,0,216147,226147,1,0 MY,0,216147,230947,520,-40
Sprite,Foreground,Centre,"SB\Light.png",320,240 S,0,0,,0.23 MX,0,0,,731 F,0,216353,226353,1,0 MY,0,216353,228653,520,-40
Sprite,Foreground,Centre,"SB\Light.png",320,240 S,0,0,,0.4 MX,0,0,,449 F,0,216365,226365,1,0 MY,0,216365,230365,520,-40
Sprite,Foreground,Centre,"SB\Light.png",320,240 S,0,0,,0.26 MX,0,0,,587 F,0,216991,226991,1,0 MY,0,216991,229591,520,-40
Sprite,Foreground,Centre,"SB\Light.png",320,240 S,0,0,,0.66 MX,0,0,,195 F,0,217240,227240,1,0 MY,0,217240,233840,520,-40
Sprite,Foreground,Centre,"SB\Light.png",320,240 S,0,0,,0.28 MX,0,0,,484 F,0,217701,227701,1,0 MY,0,217701,230501,520,-40
Sprite,Foreground,Centre,"SB\Light.png",320,240 S,0,0,,0.45 MX,0,0,,359 F,0,217402,227402,1,0 MY,0,217402,231902,520,-40
Sprite,Foreground,Centre,"SB\Light.png",320,240 S,0,0,,0.37 MX,0,0,,71 F,0,218149,228149,1,0 MY,0,218149,231849,520,-40
Sprite,Foreground,Centre,"SB\Light.png",320,240 S,0,0,,0.49 MX,0,0,,130 F,0,217755,227755,1,0 MY,0,217755,232655,520,-40
Sprite,Foreground,Centre,"SB\Light.png",320,240 S,0,0,,0.73 MX,0,0,,192 F,0,218542,228542,1,0 MY,0,218542,235842,520,-40
Sprite,Foreground,Centre,"SB\Light.png",320,240 S,0,0,,0.63 MX,0,0,,324 F,0,218448,228448,1,0 MY,0,218448,234748,520,-40
Sprite,Foreground,Centre,"SB\Light.png",320,240 S,0,0,,0.45 MX,0,0,,421 F,0,218904,228904,1,0 MY,0,218904,233404,520,-40
Sprite,Foreground,Centre,"SB\Light.png",320,240 S,0,0,,0.26 MX,0,0,,241 F,0,219086,229086,1,0 MY,0,219086,231686,520,-40
Sprite,Foreground,Centre,"SB\Light.png",320,240 S,0,0,,0.75 MX,0,0,,-85 F,0,219437,229437,1,0 MY,0,219437,236937,520,-40
Sprite,Foreground,Centre,"SB\Light.png",320,240 S,0,0,,0.22 MX,0,0,,514 F,0,219698,229698,1,0 MY,0,219698,231898,520,-40
Sprite,Foreground,Centre,"SB\Light.png",320,240 S,0,0,,0.75 MX,0,0,,684 F,0,219764,229764,1,0 MY,0,219764,237264,520,-40
Sprite,Foreground,Centre,"SB\Light.png",320,240 S,0,0,,0.32 MX,0,0,,505 F,0,219940,229940,1,0 MY,0,219940,233140,520,-40
Sprite,Foreground,Centre,"SB\Light.png",320,240 S,0,0,,0.44 MX,0,0,,749 F,0,220251,230251,1,0 MY,0,220251,234651,520,-40
Sprite,Foreground,Centre,"SB\Light.png",320,240 S,0,0,,0.34 MX,0,0,,748 F,0,220403,230403,1,0 MY,0,220403,233803,520,-40
Sprite,Foreground,Centre,"SB\Light.png",320,240 S,0,0,,0.62 MX,0,0,,57 F,0,220844,230844,1,0 MY,0,220844,237044,520,-40
Sprite,Foreground,Centre,"SB\Light.png",320,240 S,0,0,,0.38 MX,0,0,,446 F,0,221037,231037,1,0 MY,0,221037,234837,520,-40
Sprite,Foreground,Centre,"SB\Light.png",320,240 S,0,0,,0.38 MX,0,0,,-36 F,0,221483,231483,1,0 MY,0,221483,235283,520,-40
Sprite,Foreground,Centre,"SB\Light.png",320,240 S,0,0,,0.64 MX,0,0,,466 F,0,221448,231448,1,0 MY,0,221448,237848,520,-40
Sprite,Foreground,Centre,"SB\Light.png",320,240 S,0,0,,0.37 MX,0,0,,87 F,0,221921,231921,1,0 MY,0,221921,235621,520,-40
Sprite,Foreground,Centre,"SB\Light.png",320,240 S,0,0,,0.51 MX,0,0,,690 F,0,221770,231770,1,0 MY,0,221770,236870,520,-40
Sprite,Foreground,Centre,"SB\Light.png",320,240 S,0,0,,0.49 MX,0,0,,666 F,0,222510,232510,1,0 MY,0,222510,237410,520,-40
Sprite,Foreground,Centre,"SB\Light.png",320,240 S,0,0,,0.41 MX,0,0,,735 F,0,222367,232367,1,0 MY,0,222367,236467,520,-40
Sprite,Foreground,Centre,"SB\Light.png",320,240 S,0,0,,0.58 MX,0,0,,66 F,0,223040,233040,1,0 MY,0,223040,238840,520,-40
Sprite,Foreground,Centre,"SB\Light.png",320,240 S,0,0,,0.5 MX,0,0,,228 F,0,223088,233088,1,0 MY,0,223088,238088,520,-40
Sprite,Foreground,Centre,"SB\Light.png",320,240 S,0,0,,0.57 MX,0,0,,-108 F,0,223408,233408,1,0 MY,0,223408,239108,520,-40
Sprite,Foreground,Centre,"SB\Light.png",320,240 S,0,0,,0.33 MX,0,0,,307 F,0,223333,233333,1,0 MY,0,223333,236633,520,-40
Sprite,Foreground,Centre,"SB\Light.png",320,240 S,0,0,,0.43 MX,0,0,,577 F,0,223953,233953,1,0 MY,0,223953,238253,520,-40
Sprite,Foreground,Centre,"SB\Light.png",320,240 S,0,0,,0.58 MX,0,0,,258 F,0,224054,234054,1,0 MY,0,224054,239854,520,-40
Sprite,Foreground,Centre,"SB\Light.png",320,240 S,0,0,,0.35 MX,0,0,,434 F,0,224621,234621,1,0 MY,0,224621,238121,520,-40
Sprite,Foreground,Centre,"SB\Light.png",320,240 S,0,0,,0.49 MX,0,0,,-77 F,0,224333,234333,1,0 MY,0,224333,239233,520,-40
Sprite,Foreground,Centre,"SB\Light.png",320,240 S,0,0,,0.24 MX,0,0,,717 F,0,225210,235210,1,0 MY,0,225210,237610,520,-40
Sprite,Foreground,Centre,"SB\Light.png",320,240 S,0,0,,0.25 MX,0,0,,567 F,0,225192,235192,1,0 MY,0,225192,237692,520,-40
Sprite,Foreground,Centre,"SB\Light.png",320,240 S,0,0,,0.32 MX,0,0,,710 F,0,225630,235630,1,0 MY,0,225630,238830,520,-40
Sprite,Foreground,Centre,"SB\Light.png",320,240 S,0,0,,0.46 MX,0,0,,747 F,0,225421,235421,1,0 MY,0,225421,240021,520,-40
Sprite,Foreground,Centre,"SB\Light.png",320,240 S,0,0,,0.62 MX,0,0,,570 F,0,226081,236081,1,0 MY,0,226081,242281,520,-40
Sprite,Foreground,Centre,"SB\Light.png",320,240 S,0,0,,0.6 MX,0,0,,-41 F,0,226150,236150,1,0 MY,0,226150,242150,520,-40
Sprite,Foreground,Centre,"SB\Light.png",320,240 S,0,0,,0.65 MX,0,0,,40 F,0,226308,236308,1,0 MY,0,226308,242808,520,-40
Sprite,Foreground,Centre,"SB\Light.png",320,240 S,0,0,,0.28 MX,0,0,,437 F,0,226284,236284,1,0 MY,0,226284,239084,520,-40
Sprite,Foreground,Centre,"SB\Light.png",320,240 S,0,0,,0.48 MX,0,0,,674 F,0,226816,236816,1,0 MY,0,226816,241616,520,-40
Sprite,Foreground,Centre,"SB\Light.png",320,240 S,0,0,,0.41 MX,0,0,,314 F,0,227174,237174,1,0 MY,0,227174,241274,520,-40
Sprite,Foreground,Centre,"SB\Light.png",320,240 S,0,0,,0.3 MX,0,0,,244 F,0,227301,237301,1,0 MY,0,227301,240301,520,-40
Sprite,Foreground,Centre,"SB\Light.png",320,240 S,0,0,,0.46 MX,0,0,,540 F,0,227325,237325,1,0 MY,0,227325,241925,520,-40
Sprite,Foreground,Centre,"SB\Light.png",320,240 S,0,0,,0.33 MX,0,0,,261 F,0,227969,237969,1,0 MY,0,227969,241269,520,-40
Sprite,Foreground,Centre,"SB\Light.png",320,240 S,0,0,,0.52 MX,0,0,,240 F,0,228012,238012,1,0 MY,0,228012,243212,520,-40
Sprite,Foreground,Centre,"SB\Light.png",320,240 S,0,0,,0.68 MX,0,0,,-56 F,0,228250,238250,1,0 MY,0,228250,245050,520,-40
Sprite,Foreground,Centre,"SB\Light.png",320,240 S,0,0,,0.58 MX,0,0,,705 F,0,228721,238721,1,0 MY,0,228721,244521,520,-40
Sprite,Foreground,Centre,"SB\Light.png",320,240 S,0,0,,0.53 MX,0,0,,701 F,0,229223,239223,1,0 MY,0,229223,244523,520,-40
Sprite,Foreground,Centre,"SB\Light.png",320,240 S,0,0,,0.72 MX,0,0,,-68 F,0,229043,239043,1,0 MY,0,229043,246243,520,-40
Sprite,Foreground,Centre,"SB\Light.png",320,240 S,0,0,,0.39 MX,0,0,,623 F,0,229621,239621,1,0 MY,0,229621,243521,520,-40
Sprite,Foreground,Centre,"SB\Light.png",320,240 S,0,0,,0.73 MX,0,0,,536 F,0,229719,239719,1,0 MY,0,229719,247019,520,-40
Sprite,Foreground,Centre,"SB\Light.png",320,240 S,0,0,,0.48 MX,0,0,,676 F,0,230060,240060,1,0 MY,0,230060,244860,520,-40
Sprite,Foreground,Centre,"SB\Light.png",320,240 S,0,0,,0.55 MX,0,0,,96 F,0,230182,240182,1,0 MY,0,230182,245682,520,-40
Sprite,Foreground,Centre,"SB\Light.png",320,240 S,0,0,,0.22 MX,0,0,,329 F,0,230388,240388,1,0 MY,0,230388,242588,520,-40
Sprite,Foreground,Centre,"SB\Light.png",320,240 S,0,0,,0.59 MX,0,0,,202 F,0,230380,240380,1,0 MY,0,230380,246280,520,-40
Sprite,Foreground,Centre,"SB\Light.png",320,240 S,0,0,,0.66 MX,0,0,,400 F,0,230976,240976,1,0 MY,0,230976,247576,520,-40
Sprite,Foreground,Centre,"SB\Light.png",320,240 S,0,0,,0.54 MX,0,0,,-53 F,0,230856,240856,1,0 MY,0,230856,246256,520,-40
Sprite,Foreground,Centre,"SB\Light.png",320,240 S,0,0,,0.78 MX,0,0,,53 F,0,231414,241414,1,0 MY,0,231414,249214,520,-40
Sprite,Foreground,Centre,"SB\Light.png",320,240 S,0,0,,0.53 MX,0,0,,665 F,0,231669,241669,1,0 MY,0,231669,246969,520,-40
Sprite,Foreground,Centre,"SB\Light.png",320,240 S,0,0,,0.42 MX,0,0,,335 F,0,232149,242149,1,0 MY,0,232149,246349,520,-40
Sprite,Foreground,Centre,"SB\Light.png",320,240 S,0,0,,0.75 MX,0,0,,242 F,0,231901,241901,1,0 MY,0,231901,249401,520,-40
Sprite,Foreground,Centre,"SB\Light.png",320,240 S,0,0,,0.61 MX,0,0,,320 F,0,232303,242303,1,0 MY,0,232303,248403,520,-40
Sprite,Foreground,Centre,"SB\Light.png",320,240 S,0,0,,0.5 MX,0,0,,668 F,0,232419,242419,1,0 MY,0,232419,247419,520,-40
Sprite,Foreground,Centre,"SB\Light.png",320,240 S,0,0,,0.7 MX,0,0,,8 F,0,232785,242785,1,0 MY,0,232785,249785,520,-40
Sprite,Foreground,Centre,"SB\Light.png",320,240 S,0,0,,0.46 MX,0,0,,463 F,0,232859,242859,1,0 MY,0,232859,247459,520,-40
Sprite,Foreground,Centre,"SB\Light.png",320,240 S,0,0,,0.55 MX,0,0,,479 F,0,233551,243551,1,0 MY,0,233551,249051,520,-40
Sprite,Foreground,Centre,"SB\Light.png",320,240 S,0,0,,0.47 MX,0,0,,4 F,0,233703,243703,1,0 MY,0,233703,248403,520,-40
Sprite,Foreground,Centre,"SB\Light.png",320,240 S,0,0,,0.67 MX,0,0,,344 F,0,233798,243798,1,0 MY,0,233798,250498,520,-40
Sprite,Foreground,Centre,"SB\Light.png",320,240 S,0,0,,0.54 MX,0,0,,414 F,0,234126,244126,1,0 MY,0,234126,249526,520,-40
Sprite,Foreground,Centre,"SB\Light.png",320,240 S,0,0,,0.2 MX,0,0,,564 F,0,234707,244707,1,0 MY,0,234707,246707,520,-40
Sprite,Foreground,Centre,"SB\Light.png",320,240 S,0,0,,0.64 MX,0,0,,-53 F,0,234705,244705,1,0 MY,0,234705,251105,520,-40
Sprite,Foreground,Centre,"SB\Light.png",320,240 S,0,0,,0.26 MX,0,0,,728 F,0,234861,244861,1,0 MY,0,234861,247461,520,-40
Sprite,Foreground,Centre,"SB\Light.png",320,240 S,0,0,,0.72 MX,0,0,,22 F,0,234815,244815,1,0 MY,0,234815,252015,520,-40
Sprite,Foreground,Centre,"SB\Light.png",320,240 S,0,0,,0.61 MX,0,0,,-13 F,0,235734,245734,1,0 MY,0,235734,251834,520,-40
Sprite,Foreground,Centre,"SB\Light.png",320,240 S,0,0,,0.76 MX,0,0,,12 F,0,235387,245387,1,0 MY,0,235387,252987,520,-40
Sprite,Foreground,Centre,"SB\Light.png",320,240 S,0,0,,0.51 MX,0,0,,-17 F,0,236125,246125,1,0 MY,0,236125,251225,520,-40
Sprite,Foreground,Centre,"SB\Light.png",320,240 S,0,0,,0.33 MX,0,0,,92 F,0,236014,246014,1,0 MY,0,236014,249314,520,-40
Sprite,Foreground,Centre,"SB\Light.png",320,240 S,0,0,,0.43 MX,0,0,,658 F,0,236736,246736,1,0 MY,0,236736,251036,520,-40
Sprite,Foreground,Centre,"SB\Light.png",320,240 S,0,0,,0.73 MX,0,0,,66 F,0,236703,246703,1,0 MY,0,236703,254003,520,-40
Sprite,Foreground,Centre,"SB\Light.png",320,240 S,0,0,,0.74 MX,0,0,,195 F,0,236809,246809,1,0 MY,0,236809,254209,520,-40
Sprite,Foreground,Centre,"SB\Light.png",320,240 S,0,0,,0.27 MX,0,0,,256 F,0,236809,246809,1,0 MY,0,236809,249509,520,-40
Sprite,Foreground,Centre,"SB\Light.png",320,240 S,0,0,,0.24 MX,0,0,,28 F,0,237490,247490,1,0 MY,0,237490,249890,520,-40
Sprite,Foreground,Centre,"SB\Light.png",320,240 S,0,0,,0.62 MX,0,0,,748 F,0,237300,247300,1,0 MY,0,237300,253500,520,-40
Sprite,Foreground,Centre,"SB\Light.png",320,240 S,0,0,,0.52 MX,0,0,,296 F,0,237917,247917,1,0 MY,0,237917,253117,520,-40
Sprite,Foreground,Centre,"SB\Light.png",320,240 S,0,0,,0.21 MX,0,0,,696 F,0,238109,248109,1,0 MY,0,238109,250209,520,-40
Sprite,Foreground,Centre,"SB\Light.png",320,240 S,0,0,,0.43 MX,0,0,,597 F,0,238635,248635,1,0 MY,0,238635,252935,520,-40
Sprite,Foreground,Centre,"SB\Light.png",320,240 S,0,0,,0.5 MX,0,0,,-109 F,0,238678,248678,1,0 MY,0,238678,253678,520,-40
Sprite,Foreground,Centre,"SB\Light.png",320,240 S,0,0,,0.53 MX,0,0,,221 F,0,238768,248768,1,0 MY,0,238768,254068,520,-40
Sprite,Foreground,Centre,"SB\Light.png",320,240 S,0,0,,0.3 MX,0,0,,698 F,0,239149,249149,1,0 MY,0,239149,252149,520,-40
Sprite,Foreground,Centre,"SB\Light.png",320,240 S,0,0,,0.66 MX,0,0,,163 F,0,239419,249419,1,0 MY,0,239419,256019,520,-40
Sprite,Foreground,Centre,"SB\Light.png",320,240 S,0,0,,0.68 MX,0,0,,-101 F,0,239360,249360,1,0 MY,0,239360,256160,520,-40
Sprite,Foreground,Centre,"SB\Light.png",320,240 S,0,0,,0.61 MX,0,0,,620 F,0,240236,250236,1,0 MY,0,240236,256336,520,-40
Sprite,Foreground,Centre,"SB\Light.png",320,240 S,0,0,,0.79 MX,0,0,,574 F,0,240034,250034,1,0 MY,0,240034,257934,520,-40
Sprite,Foreground,Centre,"SB\Light.png",320,240 S,0,0,,0.26 MX,0,0,,448 F,0,240680,250680,1,0 MY,0,240680,253280,520,-40
Sprite,Foreground,Centre,"SB\Light.png",320,240 S,0,0,,0.66 MX,0,0,,56 F,0,240666,250666,1,0 MY,0,240666,257266,520,-40
Sprite,Foreground,Centre,"SB\Light.png",320,240 S,0,0,,0.78 MX,0,0,,109 F,0,241093,251093,1,0 MY,0,241093,258893,520,-40
Sprite,Foreground,Centre,"SB\Light.png",320,240 S,0,0,,0.43 MX,0,0,,6 F,0,240932,250932,1,0 MY,0,240932,255232,520,-40
Sprite,Foreground,Centre,"SB\Light.png",320,240 S,0,0,,0.41 MX,0,0,,117 F,0,241498,251498,1,0 MY,0,241498,255598,520,-40
Sprite,Foreground,Centre,"SB\Light.png",320,240 S,0,0,,0.22 MX,0,0,,-40 F,0,241446,251446,1,0 MY,0,241446,253646,520,-40
Sprite,Foreground,Centre,"SB\Light.png",320,240 S,0,0,,0.33 MX,0,0,,477 F,0,242037,252037,1,0 MY,0,242037,255337,520,-40
Sprite,Foreground,Centre,"SB\Light.png",320,240 S,0,0,,0.61 MX,0,0,,547 F,0,242199,252199,1,0 MY,0,242199,258299,520,-40
Sprite,Foreground,Centre,"SB\Light.png",320,240 S,0,0,,0.48 MX,0,0,,-12 F,0,242712,252712,1,0 MY,0,242712,257512,520,-40
Sprite,Foreground,Centre,"SB\Light.png",320,240 S,0,0,,0.25 MX,0,0,,531 F,0,242616,252616,1,0 MY,0,242616,255116,520,-40
Sprite,Foreground,Centre,"SB\Light.png",320,240 S,0,0,,0.21 MX,0,0,,64 F,0,242916,252916,1,0 MY,0,242916,255016,520,-40
Sprite,Foreground,Centre,"SB\Light.png",320,240 S,0,0,,0.41 MX,0,0,,747 F,0,242953,252953,1,0 MY,0,242953,257053,520,-40
Sprite,Foreground,Centre,"SB\Light.png",320,240 S,0,0,,0.31 MX,0,0,,68 F,0,243444,253444,1,0 MY,0,243444,256544,520,-40
Sprite,Foreground,Centre,"SB\Light.png",320,240 S,0,0,,0.61 MX,0,0,,-14 F,0,243643,253643,1,0 MY,0,243643,259743,520,-40
Sprite,Foreground,Centre,"SB\Light.png",320,240 S,0,0,,0.31 MX,0,0,,727 F,0,243859,253859,1,0 MY,0,243859,256959,520,-40
Sprite,Foreground,Centre,"SB\Light.png",320,240 S,0,0,,0.65 MX,0,0,,513 F,0,243942,253942,1,0 MY,0,243942,260442,520,-40
Sprite,Foreground,Centre,"SB\Light.png",320,240 S,0,0,,0.66 MX,0,0,,389 F,0,244473,254473,1,0 MY,0,244473,261073,520,-40
Sprite,Foreground,Centre,"SB\Light.png",320,240 S,0,0,,0.26 MX,0,0,,745 F,0,244574,254574,1,0 MY,0,244574,257174,520,-40
Sprite,Foreground,Centre,"SB\Light.png",320,240 S,0,0,,0.73 MX,0,0,,718 F,0,245130,255130,1,0 MY,0,245130,262430,520,-40
Sprite,Foreground,Centre,"SB\Light.png",320,240 S,0,0,,0.24 MX,0,0,,671 F,0,244966,254966,1,0 MY,0,244966,257366,520,-40
Sprite,Foreground,Centre,"SB\Light.png",320,240 S,0,0,,0.51 MX,0,0,,712 F,0,245401,255401,1,0 MY,0,245401,260501,520,-40
Sprite,Foreground,Centre,"SB\Light.png",320,240 S,0,0,,0.76 MX,0,0,,-83 F,0,245684,255684,1,0 MY,0,245684,263284,520,-40
Sprite,Foreground,Centre,"SB\Light.png",320,240 S,0,0,,0.36 MX,0,0,,-33 F,0,245928,255928,1,0 MY,0,245928,259528,520,-40
Sprite,Foreground,Centre,"SB\Light.png",320,240 S,0,0,,0.73 MX,0,0,,-107 F,0,245750,255750,1,0 MY,0,245750,263050,520,-40
Sprite,Foreground,Centre,"SB\Light.png",320,240 S,0,0,,0.54 MX,0,0,,568 F,0,246675,256675,1,0 MY,0,246675,262075,520,-40
Sprite,Foreground,Centre,"SB\Light.png",320,240 S,0,0,,0.68 MX,0,0,,474 F,0,246519,256519,1,0 MY,0,246519,263319,520,-40
Sprite,Foreground,Centre,"SB\Light.png",320,240 S,0,0,,0.43 MX,0,0,,353 F,0,246998,256998,1,0 MY,0,246998,261298,520,-40
Sprite,Foreground,Centre,"SB\Light.png",320,240 S,0,0,,0.3 MX,0,0,,135 F,0,247107,257107,1,0 MY,0,247107,260107,520,-40
Sprite,Foreground,Centre,"SB\Light.png",320,240 S,0,0,,0.32 MX,0,0,,480 F,0,247411,257411,1,0 MY,0,247411,260611,520,-40
Sprite,Foreground,Centre,"SB\Light.png",320,240 S,0,0,,0.22 MX,0,0,,446 F,0,247707,257707,1,0 MY,0,247707,259907,520,-40
Sprite,Foreground,Centre,"SB\Light.png",320,240 S,0,0,,0.38 MX,0,0,,711 F,0,247984,257984,1,0 MY,0,247984,261784,520,-40
Sprite,Foreground,Centre,"SB\Light.png",320,240 S,0,0,,0.29 MX,0,0,,305 F,0,247807,257807,1,0 MY,0,247807,260707,520,-40
Sprite,Foreground,Centre,"SB\Light.png",320,240 S,0,0,,0.77 MX,0,0,,192 F,0,248337,258337,1,0 MY,0,248337,266037,520,-40
Sprite,Foreground,Centre,"SB\Light.png",320,240 S,0,0,,0.58 MX,0,0,,-86 F,0,248375,258375,1,0 MY,0,248375,264175,520,-40
Sprite,Foreground,Centre,"SB\Light.png",320,240 S,0,0,,0.55 MX,0,0,,272 F,0,248989,258989,1,0 MY,0,248989,264489,520,-40
Sprite,Foreground,Centre,"SB\Light.png",320,240 S,0,0,,0.32 MX,0,0,,577 F,0,249197,259197,1,0 MY,0,249197,262397,520,-40
Sprite,Foreground,Centre,"SB\Light.png",320,240 S,0,0,,0.37 MX,0,0,,80 F,0,249522,259522,1,0 MY,0,249522,263222,520,-40
Sprite,Foreground,Centre,"SB\Light.png",320,240 S,0,0,,0.42 MX,0,0,,696 F,0,249297,259297,1,0 MY,0,249297,263497,520,-40
Sprite,Foreground,Centre,"SB\Light.png",320,240 S,0,0,,0.6 MX,0,0,,397 F,0,250094,260094,1,0 MY,0,250094,266094,520,-40
Sprite,Foreground,Centre,"SB\Light.png",320,240 S,0,0,,0.41 MX,0,0,,359 F,0,249922,259922,1,0 MY,0,249922,264022,520,-40
Sprite,Foreground,Centre,"SB\Light.png",320,240 S,0,0,,0.47 MX,0,0,,272 F,0,250613,260613,1,0 MY,0,250613,265313,520,-40
Sprite,Foreground,Centre,"SB\Light.png",320,240 S,0,0,,0.23 MX,0,0,,349 F,0,250367,260367,1,0 MY,0,250367,262667,520,-40
Sprite,Foreground,Centre,"SB\Light.png",320,240 S,0,0,,0.38 MX,0,0,,522 F,0,251038,261038,1,0 MY,0,251038,264838,520,-40
Sprite,Foreground,Centre,"SB\Light.png",320,240 S,0,0,,0.39 MX,0,0,,201 F,0,250957,260957,1,0 MY,0,250957,264857,520,-40
Sprite,Foreground,Centre,"SB\Light.png",320,240 S,0,0,,0.51 MX,0,0,,102 F,0,251675,261675,1,0 MY,0,251675,266775,520,-40
Sprite,Foreground,Centre,"SB\Light.png",320,240 S,0,0,,0.71 MX,0,0,,92 F,0,251628,261628,1,0 MY,0,251628,268728,520,-40
Sprite,Foreground,Centre,"SB\Light.png",320,240 S,0,0,,0.74 MX,0,0,,259 F,0,252045,262045,1,0 MY,0,252045,269445,520,-40
Sprite,Foreground,Centre,"SB\Light.png",320,240 S,0,0,,0.45 MX,0,0,,208 F,0,251751,261751,1,0 MY,0,251751,266251,520,-40
Sprite,Foreground,Centre,"SB\Light.png",320,240 S,0,0,,0.21 MX,0,0,,211 F,0,252625,262625,1,0 MY,0,252625,264725,520,-40
Sprite,Foreground,Centre,"SB\Light.png",320,240 S,0,0,,0.74 MX,0,0,,256 F,0,252716,262716,1,0 MY,0,252716,270116,520,-40
Sprite,Foreground,Centre,"SB\Light.png",320,240 S,0,0,,0.69 MX,0,0,,605 F,0,252994,262994,1,0 MY,0,252994,269894,520,-40
Sprite,Foreground,Centre,"SB\Light.png",320,240 S,0,0,,0.55 MX,0,0,,342 F,0,253047,263047,1,0 MY,0,253047,268547,520,-40
Sprite,Foreground,Centre,"SB\Light.png",320,240 S,0,0,,0.75 MX,0,0,,100 F,0,253345,263345,1,0 MY,0,253345,270845,520,-40
Sprite,Foreground,Centre,"SB\Light.png",320,240 S,0,0,,0.23 MX,0,0,,163 F,0,253513,263513,1,0 MY,0,253513,265813,520,-40
Sprite,Foreground,Centre,"SB\Light.png",320,240 S,0,0,,0.72 MX,0,0,,1 F,0,254200,264200,1,0 MY,0,254200,271400,520,-40
Sprite,Foreground,Centre,"SB\Light.png",320,240 S,0,0,,0.62 MX,0,0,,100 F,0,254229,264229,1,0 MY,0,254229,270429,520,-40
Sprite,Foreground,Centre,"SB\Light.png",320,240 S,0,0,,0.41 MX,0,0,,693 F,0,254680,264680,1,0 MY,0,254680,268780,520,-40
Sprite,Foreground,Centre,"SB\Light.png",320,240 S,0,0,,0.27 MX,0,0,,539 F,0,254664,264664,1,0 MY,0,254664,267364,520,-40
Sprite,Foreground,Centre,"SB\Light.png",320,240 S,0,0,,0.24 MX,0,0,,511 F,0,254980,264980,1,0 MY,0,254980,267380,520,-40
Sprite,Foreground,Centre,"SB\Light.png",320,240 S,0,0,,0.29 MX,0,0,,306 F,0,254759,264759,1,0 MY,0,254759,267659,520,-40
Sprite,Foreground,Centre,"SB\Light.png",320,240 S,0,0,,0.38 MX,0,0,,444 F,0,255265,265265,1,0 MY,0,255265,269065,520,-40
Sprite,Foreground,Centre,"SB\Light.png",320,240 S,0,0,,0.52 MX,0,0,,687 F,0,255457,265457,1,0 MY,0,255457,270657,520,-40
Sprite,Foreground,Centre,"SB\Light.png",320,240 S,0,0,,0.64 MX,0,0,,109 F,0,256011,266011,1,0 MY,0,256011,272411,520,-40
Sprite,Foreground,Centre,"SB\Light.png",320,240 S,0,0,,0.8 MX,0,0,,375 F,0,256214,266214,1,0 MY,0,256214,274214,520,-40
Sprite,Foreground,Centre,"SB\Light.png",320,240 S,0,0,,0.26 MX,0,0,,-56 F,0,256716,266716,1,0 MY,0,256716,269316,520,-40
Sprite,Foreground,Centre,"SB\Light.png",320,240 S,0,0,,0.34 MX,0,0,,-21 F,0,256662,266662,1,0 MY,0,256662,270062,520,-40
Sprite,Foreground,Centre,"SB\Light.png",320,240 S,0,0,,0.27 MX,0,0,,573 F,0,257033,267033,1,0 MY,0,257033,269733,520,-40
Sprite,Foreground,Centre,"SB\Light.png",320,240 S,0,0,,0.5 MX,0,0,,-48 F,0,256914,266914,1,0 MY,0,256914,271914,520,-40
Sprite,Foreground,Centre,"SB\Light.png",320,240 S,0,0,,0.24 MX,0,0,,457 F,0,257520,267520,1,0 MY,0,257520,269920,520,-40
Sprite,Foreground,Centre,"SB\Light.png",320,240 S,0,0,,0.69 MX,0,0,,6 F,0,257595,267595,1,0 MY,0,257595,274495,520,-40
Sprite,Foreground,Centre,"SB\Light.png",320,240 S,0,0,,0.66 MX,0,0,,39 F,0,258005,268005,1,0 MY,0,258005,274605,520,-40
Sprite,Foreground,Centre,"SB\Light.png",320,240 S,0,0,,0.61 MX,0,0,,316 F,0,258125,268125,1,0 MY,0,258125,274225,520,-40
Sprite,Foreground,Centre,"SB\Light.png",320,240 S,0,0,,0.32 MX,0,0,,308 F,0,258628,268628,1,0 MY,0,258628,271828,520,-40
Sprite,Foreground,Centre,"SB\Light.png",320,240 S,0,0,,0.8 MX,0,0,,265 F,0,258414,268414,1,0 MY,0,258414,276414,520,-40
Sprite,Foreground,Centre,"SB\Light.png",320,240 S,0,0,,0.42 MX,0,0,,692 F,0,259234,269234,1,0 MY,0,259234,273434,520,-40
Sprite,Foreground,Centre,"SB\Light.png",320,240 S,0,0,,0.62 MX,0,0,,661 F,0,258931,268931,1,0 MY,0,258931,275131,520,-40
Sprite,Foreground,Centre,"SB\Light.png",320,240 S,0,0,,0.57 MX,0,0,,438 F,0,259252,269252,1,0 MY,0,259252,274952,520,-40
Sprite,Foreground,Centre,"SB\Light.png",320,240 S,0,0,,0.62 MX,0,0,,278 F,0,259667,269667,1,0 MY,0,259667,275867,520,-40
Sprite,Foreground,Centre,"SB\Light.png",320,240 S,0,0,,0.54 MX,0,0,,494 F,0,259765,269765,1,0 MY,0,259765,275165,520,-40
Sprite,Foreground,Centre,"SB\Light.png",320,240 S,0,0,,0.36 MX,0,0,,642 F,0,260158,270158,1,0 MY,0,260158,273758,520,-40
Sprite,Foreground,Centre,"SB\Light.png",320,240 S,0,0,,0.27 MX,0,0,,605 F,0,260477,270477,1,0 MY,0,260477,273177,520,-40
Sprite,Foreground,Centre,"SB\Light.png",320,240 S,0,0,,0.43 MX,0,0,,248 F,0,260710,270710,1,0 MY,0,260710,275010,520,-40
Sprite,Foreground,Centre,"SB\Light.png",320,240 S,0,0,,0.54 MX,0,0,,46 F,0,260865,270865,1,0 MY,0,260865,276265,520,-40
Sprite,Foreground,Centre,"SB\Light.png",320,240 S,0,0,,0.57 MX,0,0,,-53 F,0,260970,270970,1,0 MY,0,260970,276670,520,-40
Sprite,Foreground,Centre,"SB\Light.png",320,240 S,0,0,,0.41 MX,0,0,,95 F,0,261269,271269,1,0 MY,0,261269,275369,520,-40
Sprite,Foreground,Centre,"SB\Light.png",320,240 S,0,0,,0.28 MX,0,0,,200 F,0,261319,271319,1,0 MY,0,261319,274119,520,-40
Sprite,Foreground,Centre,"SB\Light.png",320,240 S,0,0,,0.66 MX,0,0,,42 F,0,261812,271812,1,0 MY,0,261812,278412,520,-40
Sprite,Foreground,Centre,"SB\Light.png",320,240 S,0,0,,0.5 MX,0,0,,480 F,0,261943,271943,1,0 MY,0,261943,276943,520,-40
Sprite,Foreground,Centre,"SB\Light.png",320,240 S,0,0,,0.64 MX,0,0,,472 F,0,262342,272342,1,0 MY,0,262342,278742,520,-40
Sprite,Foreground,Centre,"SB\Light.png",320,240 S,0,0,,0.68 MX,0,0,,508 F,0,262285,272285,1,0 MY,0,262285,279085,520,-40
Sprite,Foreground,Centre,"SB\Light.png",320,240 S,0,0,,0.57 MX,0,0,,700 F,0,262800,272800,1,0 MY,0,262800,278500,520,-40
Sprite,Foreground,Centre,"SB\Light.png",320,240 S,0,0,,0.56 MX,0,0,,643 F,0,263218,273218,1,0 MY,0,263218,278818,520,-40
Sprite,Foreground,Centre,"SB\Light.png",320,240 S,0,0,,0.51 MX,0,0,,-68 F,0,263685,273685,1,0 MY,0,263685,278785,520,-40
Sprite,Foreground,Centre,"SB\Light.png",320,240 S,0,0,,0.63 MX,0,0,,2 F,0,263740,273740,1,0 MY,0,263740,280040,520,-40
Sprite,Foreground,Centre,"SB\Light.png",320,240 S,0,0,,0.54 MX,0,0,,376 F,0,263811,273811,1,0 MY,0,263811,279211,520,-40
Sprite,Foreground,Centre,"SB\Light.png",320,240 S,0,0,,0.33 MX,0,0,,574 F,0,264250,274250,1,0 MY,0,264250,277550,520,-40
Sprite,Foreground,Centre,"SB\Light.png",320,240 S,0,0,,0.4 MX,0,0,,658 F,0,264416,274416,1,0 MY,0,264416,278416,520,-40
Sprite,Foreground,Centre,"SB\Light.png",320,240 S,0,0,,0.62 MX,0,0,,484 F,0,264466,274466,1,0 MY,0,264466,280666,520,-40
Sprite,Foreground,Centre,"SB\Light.png",320,240 S,0,0,,0.28 MX,0,0,,-53 F,0,265002,275002,1,0 MY,0,265002,277802,520,-40
Sprite,Foreground,Centre,"SB\Light.png",320,240 S,0,0,,0.65 MX,0,0,,521 F,0,265061,275061,1,0 MY,0,265061,281561,520,-40
Sprite,Foreground,Centre,"SB\Light.png",320,240 S,0,0,,0.48 MX,0,0,,29 F,0,265585,275585,1,0 MY,0,265585,280385,520,-40
Sprite,Foreground,Centre,"SB\Light.png",320,240 S,0,0,,0.27 MX,0,0,,182 F,0,265638,275638,1,0 MY,0,265638,278338,520,-40
Sprite,Foreground,Centre,"SB\Light.png",320,240 S,0,0,,0.42 MX,0,0,,-21 F,0,265753,275753,1,0 MY,0,265753,279953,520,-40
Sprite,Foreground,Centre,"SB\Light.png",320,240 S,0,0,,0.39 MX,0,0,,121 F,0,266127,276127,1,0 MY,0,266127,280027,520,-40
Sprite,Foreground,Centre,"SB\Light.png",320,240 S,0,0,,0.22 MX,0,0,,15 F,0,266562,276562,1,0 MY,0,266562,278762,520,-40
Sprite,Foreground,Centre,"SB\Light.png",320,240 S,0,0,,0.27 MX,0,0,,117 F,0,266274,276274,1,0 MY,0,266274,278974,520,-40
Sprite,Foreground,Centre,"SB\Light.png",320,240 S,0,0,,0.73 MX,0,0,,49 F,0,267215,277215,1,0 MY,0,267215,284515,520,-40
Sprite,Foreground,Centre,"SB\Light.png",320,240 S,0,0,,0.7 MX,0,0,,525 F,0,267004,277004,1,0 MY,0,267004,284004,520,-40
Sprite,Foreground,Centre,"SB\Light.png",320,240 S,0,0,,0.35 MX,0,0,,464 F,0,267476,277476,1,0 MY,0,267476,280976,520,-40
Sprite,Foreground,Centre,"SB\Light.png",320,240 S,0,0,,0.69 MX,0,0,,261 F,0,267708,277708,1,0 MY,0,267708,284608,520,-40
Sprite,Foreground,Centre,"SB\Light.png",320,240 S,0,0,,0.39 MX,0,0,,103 F,0,267979,277979,1,0 MY,0,267979,281879,520,-40
Sprite,Foreground,Centre,"SB\Light.png",320,240 S,0,0,,0.79 MX,0,0,,156 F,0,268139,278139,1,0 MY,0,268139,286039,520,-40
Sprite,Foreground,Centre,"SB\Light.png",320,240 S,0,0,,0.33 MX,0,0,,188 F,0,268375,278375,1,0 MY,0,268375,281675,520,-40
Sprite,Foreground,Centre,"SB\Light.png",320,240 S,0,0,,0.62 MX,0,0,,745 F,0,268472,278472,1,0 MY,0,268472,284672,520,-40
Sprite,Foreground,Centre,"SB\Light.png",320,240 S,0,0,,0.58 MX,0,0,,387 F,0,269175,279175,1,0 MY,0,269175,284975,520,-40
Sprite,Foreground,Centre,"SB\Light.png",320,240 S,0,0,,0.53 MX,0,0,,586 F,0,268764,278764,1,0 MY,0,268764,284064,520,-40
Sprite,Foreground,Centre,"SB\Light.png",320,240 S,0,0,,0.68 MX,0,0,,281 F,0,269576,279576,1,0 MY,0,269576,286376,520,-40
Sprite,Foreground,Centre,"SB\Light.png",320,240 S,0,0,,0.53 MX,0,0,,486 F,0,269262,279262,1,0 MY,0,269262,284562,520,-40
Sprite,Foreground,Centre,"SB\Light.png",320,240 S,0,0,,0.45 MX,0,0,,28 F,0,270179,280179,1,0 MY,0,270179,284679,520,-40
Sprite,Foreground,Centre,"SB\Light.png",320,240 S,0,0,,0.6 MX,0,0,,168 F,0,270070,280070,1,0 MY,0,270070,286070,520,-40
Sprite,Foreground,Centre,"SB\Light.png",320,240 S,0,0,,0.6 MX,0,0,,-31 F,0,270688,280688,1,0 MY,0,270688,286688,520,-40
Sprite,Foreground,Centre,"SB\Light.png",320,240 S,0,0,,0.21 MX,0,0,,144 F,0,270528,280528,1,0 MY,0,270528,282628,520,-40
Sprite,Foreground,Centre,"SB\Light.png",320,240 S,0,0,,0.71 MX,0,0,,618 F,0,271249,281249,1,0 MY,0,271249,288349,520,-40
Sprite,Foreground,Centre,"SB\Light.png",320,240 S,0,0,,0.75 MX,0,0,,577 F,0,270788,280788,1,0 MY,0,270788,288288,520,-40
Sprite,Foreground,Centre,"SB\Light.png",320,240 S,0,0,,0.31 MX,0,0,,307 F,0,271698,281698,1,0 MY,0,271698,284798,520,-40
Sprite,Foreground,Centre,"SB\Light.png",320,240 S,0,0,,0.29 MX,0,0,,457 F,0,271345,281345,1,0 MY,0,271345,284245,520,-40
Sprite,Foreground,Centre,"SB\Light.png",320,240 S,0,0,,0.72 MX,0,0,,253 F,0,271850,281850,1,0 MY,0,271850,289050,520,-40
Sprite,Foreground,Centre,"SB\Light.png",320,240 S,0,0,,0.79 MX,0,0,,116 F,0,272103,282103,1,0 MY,0,272103,290003,520,-40
Sprite,Foreground,Centre,"SB\Light.png",320,240 S,0,0,,0.53 MX,0,0,,263 F,0,272252,282252,1,0 MY,0,272252,287552,520,-40
Sprite,Foreground,Centre,"SB\Light.png",320,240 S,0,0,,0.29 MX,0,0,,682 F,0,272634,282634,1,0 MY,0,272634,285534,520,-40
Sprite,Foreground,Centre,"SB\Light.png",320,240 S,0,0,,0.21 MX,0,0,,416 F,0,273023,283023,1,0 MY,0,273023,285123,520,-40
Sprite,Foreground,Centre,"SB\Light.png",320,240 S,0,0,,0.74 MX,0,0,,378 F,0,273027,283027,1,0 MY,0,273027,290427,520,-40
Sprite,Foreground,Centre,"SB\Light.png",320,240 S,0,0,,0.37 MX,0,0,,142 F,0,273259,283259,1,0 MY,0,273259,286959,520,-40
Sprite,Foreground,Centre,"SB\Light.png",320,240 S,0,0,,0.78 MX,0,0,,-82 F,0,273552,283552,1,0 MY,0,273552,291352,520,-40
Sprite,Foreground,Centre,"SB\Light.png",320,240 S,0,0,,0.59 MX,0,0,,384 F,0,274104,284104,1,0 MY,0,274104,290004,520,-40
Sprite,Foreground,Centre,"SB\Light.png",320,240 S,0,0,,0.32 MX,0,0,,1 F,0,274193,284193,1,0 MY,0,274193,287393,520,-40
Sprite,Foreground,Centre,"SB\Light.png",320,240 S,0,0,,0.5 MX,0,0,,462 F,0,274428,284428,1,0 MY,0,274428,289428,520,-40
Sprite,Foreground,Centre,"SB\Light.png",320,240 S,0,0,,0.74 MX,0,0,,267 F,0,274382,284382,1,0 MY,0,274382,291782,520,-40
Sprite,Foreground,Centre,"SB\Light.png",320,240 S,0,0,,0.7 MX,0,0,,36 F,0,275157,285157,1,0 MY,0,275157,292157,520,-40
Sprite,Foreground,Centre,"SB\Light.png",320,240 S,0,0,,0.72 MX,0,0,,364 F,0,275098,285098,1,0 MY,0,275098,292298,520,-40
Sprite,Foreground,Centre,"SB\Light.png",320,240 S,0,0,,0.76 MX,0,0,,86 F,0,275483,285483,1,0 MY,0,275483,293083,520,-40
Sprite,Foreground,Centre,"SB\Light.png",320,240 S,0,0,,0.31 MX,0,0,,346 F,0,275594,285594,1,0 MY,0,275594,288694,520,-40
Sprite,Foreground,Centre,"SB\Light.png",320,240 S,0,0,,0.75 MX,0,0,,183 F,0,276198,286198,1,0 MY,0,276198,293698,520,-40
Sprite,Foreground,Centre,"SB\Light.png",320,240 S,0,0,,0.42 MX,0,0,,38 F,0,275895,285895,1,0 MY,0,275895,290095,520,-40
Sprite,Foreground,Centre,"SB\Light.png",320,240 S,0,0,,0.43 MX,0,0,,404 F,0,276689,286689,1,0 MY,0,276689,290989,520,-40
Sprite,Foreground,Centre,"SB\Light.png",320,240 S,0,0,,0.62 MX,0,0,,750 F,0,276698,286698,1,0 MY,0,276698,292898,520,-40
Sprite,Foreground,Centre,"SB\Light.png",320,240 S,0,0,,0.38 MX,0,0,,-8 F,0,276910,286910,1,0 MY,0,276910,290710,520,-40
Sprite,Foreground,Centre,"SB\Light.png",320,240 S,0,0,,0.35 MX,0,0,,245 F,0,276923,286923,1,0 MY,0,276923,290423,520,-40
Sprite,Foreground,Centre,"SB\Light.png",320,240 S,0,0,,0.3 MX,0,0,,132 F,0,277573,287573,1,0 MY,0,277573,290573,520,-40
Sprite,Foreground,Centre,"SB\Light.png",320,240 S,0,0,,0.44 MX,0,0,,527 F,0,277310,287310,1,0 MY,0,277310,291710,520,-40
Sprite,Foreground,Centre,"SB\Light.png",320,240 S,0,0,,0.65 MX,0,0,,168 F,0,277786,287786,1,0 MY,0,277786,294286,520,-40
Sprite,Foreground,Centre,"SB\Light.png",320,240 S,0,0,,0.69 MX,0,0,,8 F,0,277961,287961,1,0 MY,0,277961,294861,520,-40
Sprite,Foreground,Centre,"SB\Light.png",320,240 S,0,0,,0.22 MX,0,0,,-95 F,0,278268,288268,1,0 MY,0,278268,290468,520,-40
Sprite,Foreground,Centre,"SB\Light.png",320,240 S,0,0,,0.68 MX,0,0,,742 F,0,278484,288484,1,0 MY,0,278484,295284,520,-40
Sprite,Foreground,Centre,"SB\Light.png",320,240 S,0,0,,0.5 MX,0,0,,-55 F,0,278895,288895,1,0 MY,0,278895,293895,520,-40
Sprite,Foreground,Centre,"SB\Light.png",320,240 S,0,0,,0.71 MX,0,0,,223 F,0,278818,288818,1,0 MY,0,278818,295918,520,-40
Sprite,Foreground,Centre,"SB\Light.png",320,240 S,0,0,,0.3 MX,0,0,,680 F,0,279506,289506,1,0 MY,0,279506,292506,520,-40
Sprite,Foreground,Centre,"SB\Light.png",320,240 S,0,0,,0.46 MX,0,0,,212 F,0,279319,289319,1,0 MY,0,279319,293919,520,-40
Sprite,Foreground,Centre,"SB\Light.png",320,240 S,0,0,,0.69 MX,0,0,,-9 F,0,280029,290029,1,0 MY,0,280029,296929,520,-40
Sprite,Foreground,Centre,"SB\Light.png",320,240 S,0,0,,0.35 MX,0,0,,-74 F,0,280085,290085,1,0 MY,0,280085,293585,520,-40
Sprite,Foreground,Centre,"SB\Light.png",320,240 S,0,0,,0.56 MX,0,0,,555 F,0,280257,290257,1,0 MY,0,280257,295857,520,-40
Sprite,Foreground,Centre,"SB\Light.png",320,240 S,0,0,,0.71 MX,0,0,,77 F,0,280510,290510,1,0 MY,0,280510,297610,520,-40
Sprite,Foreground,Centre,"SB\Light.png",320,240 S,0,0,,0.48 MX,0,0,,281 F,0,281062,291062,1,0 MY,0,281062,295862,520,-40
Sprite,Foreground,Centre,"SB\Light.png",320,240 S,0,0,,0.79 MX,0,0,,628 F,0,281043,291043,1,0 MY,0,281043,298943,520,-40
Sprite,Foreground,Centre,"SB\Light.png",320,240 S,0,0,,0.27 MX,0,0,,624 F,0,281573,291573,1,0 MY,0,281573,294273,520,-40
Sprite,Foreground,Centre,"SB\Light.png",320,240 S,0,0,,0.41 MX,0,0,,-62 F,0,281508,291508,1,0 MY,0,281508,295608,520,-40
Sprite,Foreground,Centre,"SB\Light.png",320,240 S,0,0,,0.74 MX,0,0,,328 F,0,282132,292132,1,0 MY,0,282132,299532,520,-40
Sprite,Foreground,Centre,"SB\Light.png",320,240 S,0,0,,0.7 MX,0,0,,414 F,0,281916,291916,1,0 MY,0,281916,298916,520,-40
Sprite,Foreground,Centre,"SB\Light.png",320,240 S,0,0,,0.77 MX,0,0,,693 F,0,282363,292363,1,0 MY,0,282363,300063,520,-40
Sprite,Foreground,Centre,"SB\Light.png",320,240 S,0,0,,0.21 MX,0,0,,633 F,0,282405,292405,1,0 MY,0,282405,294505,520,-40
Sprite,Foreground,Centre,"SB\Light.png",320,240 S,0,0,,0.79 MX,0,0,,206 F,0,283245,293245,1,0 MY,0,283245,301145,520,-40
Sprite,Foreground,Centre,"SB\Light.png",320,240 S,0,0,,0.33 MX,0,0,,280 F,0,283148,293148,1,0 MY,0,283148,296448,520,-40
Sprite,Foreground,Centre,"SB\Light.png",320,240 S,0,0,,0.71 MX,0,0,,554 F,0,283344,293344,1,0 MY,0,283344,300444,520,-40
Sprite,Foreground,Centre,"SB\Light.png",320,240 S,0,0,,0.76 MX,0,0,,332 F,0,283572,293572,1,0 MY,0,283572,301172,520,-40
Sprite,Foreground,Centre,"SB\Light.png",320,240 S,0,0,,0.23 MX,0,0,,687 F,0,283940,293940,1,0 MY,0,283940,296240,520,-40
Sprite,Foreground,Centre,"SB\Light.png",320,240 S,0,0,,0.51 MX,0,0,,315 F,0,283845,293845,1,0 MY,0,283845,298945,520,-40
Sprite,Foreground,Centre,"SB\Light.png",320,240 S,0,0,,0.23 MX,0,0,,-74 F,0,284401,294401,1,0 MY,0,284401,296701,520,-40
Sprite,Foreground,Centre,"SB\Light.png",320,240 S,0,0,,0.52 MX,0,0,,670 F,0,284483,294483,1,0 MY,0,284483,299683,520,-40
Sprite,Foreground,Centre,"SB\Light.png",320,240 S,0,0,,0.29 MX,0,0,,477 F,0,284927,294927,1,0 MY,0,284927,297827,520,-40
Sprite,Foreground,Centre,"SB\Light.png",320,240 S,0,0,,0.37 MX,0,0,,141 F,0,285140,295140,1,0 MY,0,285140,298840,520,-40
Sprite,Foreground,Centre,"SB\Light.png",320,240 S,0,0,,0.56 MX,0,0,,159 F,0,285700,295700,1,0 MY,0,285700,301300,520,-40
Sprite,Foreground,Centre,"SB\Light.png",320,240 S,0,0,,0.49 MX,0,0,,402 F,0,285471,295471,1,0 MY,0,285471,300371,520,-40
Sprite,Foreground,Centre,"SB\Light.png",320,240 S,0,0,,0.44 MX,0,0,,622 F,0,285752,295752,1,0 MY,0,285752,300152,520,-40
Sprite,Foreground,Centre,"SB\Light.png",320,240 S,0,0,,0.37 MX,0,0,,172 F,0,286206,296206,1,0 MY,0,286206,299906,520,-40
Sprite,Foreground,Centre,"SB\Light.png",320,240 S,0,0,,0.8 MX,0,0,,-7 F,0,286501,296501,1,0 MY,0,286501,304501,520,-40
Sprite,Foreground,Centre,"SB\Light.png",320,240 S,0,0,,0.61 MX,0,0,,710 F,0,286731,296731,1,0 MY,0,286731,302831,520,-40
Sprite,Foreground,Centre,"SB\Light.png",320,240 S,0,0,,0.46 MX,0,0,,-79 F,0,287131,297131,1,0 MY,0,287131,301731,520,-40
Sprite,Foreground,Centre,"SB\Light.png",320,240 S,0,0,,0.7 MX,0,0,,-104 F,0,286964,296964,1,0 MY,0,286964,303964,520,-40
Sprite,Foreground,Centre,"SB\Light.png",320,240 S,0,0,,0.48 MX,0,0,,340 F,0,287729,297729,1,0 MY,0,287729,302529,520,-40
Sprite,Foreground,Centre,"SB\Light.png",320,240 S,0,0,,0.67 MX,0,0,,268 F,0,287472,297472,1,0 MY,0,287472,304172,520,-40
Sprite,Foreground,Centre,"SB\Light.png",320,240 S,0,0,,0.49 MX,0,0,,241 F,0,287776,297776,1,0 MY,0,287776,302676,520,-40
Sprite,Foreground,Centre,"SB\Light.png",320,240 S,0,0,,0.32 MX,0,0,,530 F,0,288031,298031,1,0 MY,0,288031,301231,520,-40
Sprite,Foreground,Centre,"SB\Light.png",320,240 S,0,0,,0.4 MX,0,0,,697 F,0,288420,298420,1,0 MY,0,288420,302420,520,-40
Sprite,Foreground,Centre,"SB\Light.png",320,240 S,0,0,,0.59 MX,0,0,,50 F,0,288536,298536,1,0 MY,0,288536,304436,520,-40
Sprite,Foreground,Centre,"SB\Light.png",320,240 S,0,0,,0.63 MX,0,0,,227 F,0,288811,298811,1,0 MY,0,288811,305111,520,-40
Sprite,Foreground,Centre,"SB\Light.png",320,240 S,0,0,,0.67 MX,0,0,,720 F,0,289139,299139,1,0 MY,0,289139,305839,520,-40
Sprite,Foreground,Centre,"SB\Light.png",320,240 S,0,0,,0.64 MX,0,0,,228 F,0,289519,299519,1,0 MY,0,289519,305919,520,-40
Sprite,Foreground,Centre,"SB\Light.png",320,240 S,0,0,,0.35 MX,0,0,,-95 F,0,289490,299490,1,0 MY,0,289490,302990,520,-40
Sprite,Foreground,Centre,"SB\Light.png",320,240 S,0,0,,0.38 MX,0,0,,295 F,0,290174,300174,1,0 MY,0,290174,303974,520,-40
Sprite,Foreground,Centre,"SB\Light.png",320,240 S,0,0,,0.24 MX,0,0,,307 F,0,290135,300135,1,0 MY,0,290135,302535,520,-40
Sprite,Foreground,Centre,"SB\Light.png",320,240 S,0,0,,0.45 MX,0,0,,372 F,0,290263,300263,1,0 MY,0,290263,304763,520,-40
Sprite,Foreground,Centre,"SB\Light.png",320,240 S,0,0,,0.76 MX,0,0,,628 F,0,290564,300564,1,0 MY,0,290564,308164,520,-40
Sprite,Foreground,Centre,"SB\Light.png",320,240 S,0,0,,0.42 MX,0,0,,699 F,0,291153,301153,1,0 MY,0,291153,305353,520,-40
Sprite,Foreground,Centre,"SB\Light.png",320,240 S,0,0,,0.2 MX,0,0,,423 F,0,291148,301148,1,0 MY,0,291148,303148,520,-40
Sprite,Foreground,Centre,"SB\Light.png",320,240 S,0,0,,0.71 MX,0,0,,52 F,0,291426,301426,1,0 MY,0,291426,308526,520,-40
Sprite,Foreground,Centre,"SB\Light.png",320,240 S,0,0,,0.57 MX,0,0,,153 F,0,291648,301648,1,0 MY,0,291648,307348,520,-40
Sprite,Foreground,Centre,"SB\Light.png",320,240 S,0,0,,0.54 MX,0,0,,44 F,0,291803,301803,1,0 MY,0,291803,307203,520,-40
Sprite,Foreground,Centre,"SB\Light.png",320,240 S,0,0,,0.22 MX,0,0,,670 F,0,292088,302088,1,0 MY,0,292088,304288,520,-40
Sprite,Foreground,Centre,"SB\Light.png",320,240 S,0,0,,0.43 MX,0,0,,383 F,0,292271,302271,1,0 MY,0,292271,306571,520,-40
Sprite,Foreground,Centre,"SB\Light.png",320,240 S,0,0,,0.36 MX,0,0,,505 F,0,292362,302362,1,0 MY,0,292362,305962,520,-40
Sprite,Foreground,Centre,"SB\Light.png",320,240 S,0,0,,0.47 MX,0,0,,381 F,0,293198,303198,1,0 MY,0,293198,307898,520,-40
Sprite,Foreground,Centre,"SB\Light.png",320,240 S,0,0,,0.58 MX,0,0,,358 F,0,292879,302879,1,0 MY,0,292879,308679,520,-40
Sprite,Foreground,Centre,"SB\Light.png",320,240 S,0,0,,0.52 MX,0,0,,315 F,0,293366,303366,1,0 MY,0,293366,308566,520,-40
Sprite,Foreground,Centre,"SB\Light.png",320,240 S,0,0,,0.21 MX,0,0,,726 F,0,293648,303648,1,0 MY,0,293648,305748,520,-40
Sprite,Foreground,Centre,"SB\Light.png",320,240 S,0,0,,0.67 MX,0,0,,529 F,0,293955,303955,1,0 MY,0,293955,310655,520,-40
Sprite,Foreground,Centre,"SB\Light.png",320,240 S,0,0,,0.7 MX,0,0,,0 F,0,294107,304107,1,0 MY,0,294107,311107,520,-40
Sprite,Foreground,Centre,"SB\Light.png",320,240 S,0,0,,0.3 MX,0,0,,-66 F,0,294452,304452,1,0 MY,0,294452,307452,520,-40
Sprite,Foreground,Centre,"SB\Light.png",320,240 S,0,0,,0.38 MX,0,0,,461 F,0,294595,304595,1,0 MY,0,294595,308395,520,-40
Sprite,Foreground,Centre,"SB\Light.png",320,240 S,0,0,,0.59 MX,0,0,,192 F,0,295007,305007,1,0 MY,0,295007,310907,520,-40
Sprite,Foreground,Centre,"SB\Light.png",320,240 S,0,0,,0.37 MX,0,0,,393 F,0,294932,304932,1,0 MY,0,294932,308632,520,-40
Sprite,Foreground,Centre,"SB\Light.png",320,240 S,0,0,,0.33 MX,0,0,,389 F,0,295514,305514,1,0 MY,0,295514,308814,520,-40
Sprite,Foreground,Centre,"SB\Light.png",320,240 S,0,0,,0.22 MX,0,0,,664 F,0,295302,305302,1,0 MY,0,295302,307502,520,-40
Sprite,Foreground,Centre,"SB\Light.png",320,240 S,0,0,,0.59 MX,0,0,,-30 F,0,296031,306031,1,0 MY,0,296031,311931,520,-40
Sprite,Foreground,Centre,"SB\Light.png",320,240 S,0,0,,0.69 MX,0,0,,373 F,0,295862,305862,1,0 MY,0,295862,312762,520,-40
Sprite,Foreground,Centre,"SB\Light.png",320,240 S,0,0,,0.32 MX,0,0,,157 F,0,296291,306291,1,0 MY,0,296291,309491,520,-40
Sprite,Foreground,Centre,"SB\Light.png",320,240 S,0,0,,0.3 MX,0,0,,119 F,0,296517,306517,1,0 MY,0,296517,309517,520,-40
Sprite,Foreground,Centre,"SB\Light.png",320,240 S,0,0,,0.47 MX,0,0,,172 F,0,296886,306886,1,0 MY,0,296886,311586,520,-40
Sprite,Foreground,Centre,"SB\Light.png",320,240 S,0,0,,0.6 MX,0,0,,596 F,0,297031,307031,1,0 MY,0,297031,313031,520,-40
Sprite,Foreground,Centre,"SB\Light.png",320,240 S,0,0,,0.75 MX,0,0,,66 F,0,297303,307303,1,0 MY,0,297303,314803,520,-40
Sprite,Foreground,Centre,"SB\Light.png",320,240 S,0,0,,0.31 MX,0,0,,531 F,0,297324,307324,1,0 MY,0,297324,310424,520,-40
Sprite,Foreground,Centre,"SB\Light.png",320,240 S,0,0,,0.75 MX,0,0,,638 F,0,298237,308237,1,0 MY,0,298237,315737,520,-40
Sprite,Foreground,Centre,"SB\Light.png",320,240 S,0,0,,0.43 MX,0,0,,120 F,0,297874,307874,1,0 MY,0,297874,312174,520,-40
Sprite,Foreground,Centre,"SB\Light.png",320,240 S,0,0,,0.71 MX,0,0,,152 F,0,298650,308650,1,0 MY,0,298650,315750,520,-40
Sprite,Foreground,Centre,"SB\Light.png",320,240 S,0,0,,0.22 MX,0,0,,21 F,0,298612,308612,1,0 MY,0,298612,310812,520,-40
Sprite,Foreground,Centre,"SB\Light.png",320,240 S,0,0,,0.49 MX,0,0,,44 F,0,298842,308842,1,0 MY,0,298842,313742,520,-40
Sprite,Foreground,Centre,"SB\Light.png",320,240 S,0,0,,0.41 MX,0,0,,413 F,0,298927,308927,1,0 MY,0,298927,313027,520,-40
Sprite,Foreground,Centre,"SB\Light.png",320,240 S,0,0,,0.25 MX,0,0,,734 F,0,299298,309298,1,0 MY,0,299298,311798,520,-40
Sprite,Foreground,Centre,"SB\Light.png",320,240 S,0,0,,0.35 MX,0,0,,-32 F,0,299495,309495,1,0 MY,0,299495,312995,520,-40
Sprite,Foreground,Centre,"SB\Light.png",320,240 S,0,0,,0.66 MX,0,0,,722 F,0,300171,310171,1,0 MY,0,300171,316771,520,-40
Sprite,Foreground,Centre,"SB\Light.png",320,240 S,0,0,,0.62 MX,0,0,,748 F,0,300031,310031,1,0 MY,0,300031,316231,520,-40
Sprite,Foreground,Centre,"SB\Light.png",320,240 S,0,0,,0.41 MX,0,0,,245 F,0,300320,310320,1,0 MY,0,300320,314420,520,-40
Sprite,Foreground,Centre,"SB\Light.png",320,240 S,0,0,,0.62 MX,0,0,,107 F,0,300477,310477,1,0 MY,0,300477,316677,520,-40
Sprite,Foreground,Centre,"SB\Light.png",320,240 S,0,0,,0.22 MX,0,0,,607 F,0,301201,311201,1,0 MY,0,301201,313401,520,-40
Sprite,Foreground,Centre,"SB\Light.png",320,240 S,0,0,,0.78 MX,0,0,,522 F,0,301159,311159,1,0 MY,0,301159,318959,520,-40
Sprite,Foreground,Centre,"SB\Light.png",320,240 S,0,0,,0.3 MX,0,0,,362 F,0,301410,311410,1,0 MY,0,301410,314410,520,-40
Sprite,Foreground,Centre,"SB\Light.png",320,240 S,0,0,,0.59 MX,0,0,,215 F,0,301455,311455,1,0 MY,0,301455,317355,520,-40
Sprite,Foreground,Centre,"SB\Light.png",320,240 S,0,0,,0.56 MX,0,0,,538 F,0,301836,311836,1,0 MY,0,301836,317436,520,-40
Sprite,Foreground,Centre,"SB\Light.png",320,240 S,0,0,,0.66 MX,0,0,,-66 F,0,302027,312027,1,0 MY,0,302027,318627,520,-40
Sprite,Foreground,Centre,"SB\Light.png",320,240 S,0,0,,0.67 MX,0,0,,305 F,0,302303,312303,1,0 MY,0,302303,319003,520,-40
Sprite,Foreground,Centre,"SB\Light.png",320,240 S,0,0,,0.38 MX,0,0,,241 F,0,302577,312577,1,0 MY,0,302577,316377,520,-40
Sprite,Foreground,Centre,"SB\Light.png",320,240 S,0,0,,0.38 MX,0,0,,93 F,0,303066,313066,1,0 MY,0,303066,316866,520,-40
Sprite,Foreground,Centre,"SB\Light.png",320,240 S,0,0,,0.65 MX,0,0,,391 F,0,302825,312825,1,0 MY,0,302825,319325,520,-40
Sprite,Foreground,Centre,"SB\Light.png",320,240 S,0,0,,0.76 MX,0,0,,518 F,0,303593,313593,1,0 MY,0,303593,321193,520,-40
Sprite,Foreground,Centre,"SB\Light.png",320,240 S,0,0,,0.67 MX,0,0,,278 F,0,303650,313650,1,0 MY,0,303650,320350,520,-40
Sprite,Foreground,Centre,"SB\Light.png",320,240 S,0,0,,0.34 MX,0,0,,130 F,0,303905,313905,1,0 MY,0,303905,317305,520,-40
Sprite,Foreground,Centre,"SB\Light.png",320,240 S,0,0,,0.53 MX,0,0,,35 F,0,303811,313811,1,0 MY,0,303811,319111,520,-40
Sprite,Foreground,Centre,"SB\Light.png",320,240 S,0,0,,0.55 MX,0,0,,261 F,0,304290,314290,1,0 MY,0,304290,319790,520,-40
Sprite,Foreground,Centre,"SB\Light.png",320,240 S,0,0,,0.34 MX,0,0,,226 F,0,304310,314310,1,0 MY,0,304310,317710,520,-40
Sprite,Foreground,Centre,"SB\Light.png",320,240 S,0,0,,0.42 MX,0,0,,395 F,0,304798,314798,1,0 MY,0,304798,318998,520,-40
Sprite,Foreground,Centre,"SB\Light.png",320,240 S,0,0,,0.66 MX,0,0,,188 F,0,305042,315042,1,0 MY,0,305042,321642,520,-40
Sprite,Foreground,Centre,"sb\lyric\0.png",320,240 F,0,27362,28028,0,1 M,0,27362,37361,360,340,390,340 S,0,27362,37361,0.625 F,0,36695,37361,1,0
Sprite,Foreground,Centre,"sb\lyric\1.png",320,240 F,0,38029,38695,0,1 M,0,38029,46695,360,390,330,390 S,0,38029,46695,0.625 F,0,46029,46695,1,0
Sprite,Foreground,Centre,"sb\lyric\2.png",320,240 F,0,48695,49361,0,1 M,0,48695,58695,360,340,390,340 S,0,48695,58695,0.625 F,0,58029,58695,1,0
Sprite,Foreground,Centre,"sb\lyric\3.png",320,240 F,0,59029,59695,0,1 M,0,59029,68028,360,390,330,390 S,0,59029,68028,0.625 F,0,67362,68028,1,0
Sprite,Foreground,Centre,"sb\lyric\4.png",320,240 F,0,68695,69361,0,1 M,0,68695,75028,360,340,390,340 S,0,68695,75028,0.625 F,0,74362,75028,1,0
Sprite,Foreground,Centre,"sb\lyric\5.png",320,240 F,0,75029,75695,0,1 M,0,75029,80695,360,390,330,390 S,0,75029,80695,0.625 F,0,80029,80695,1,0
Sprite,Foreground,Centre,"sb\lyric\6.png",320,240 F,0,80362,81028,0,1 M,0,80362,92028,360,340,390,340 S,0,80362,92028,0.625 F,0,91362,92028,1,0
Sprite,Foreground,Centre,"sb\lyric\7.png",320,240 F,0,-666,0,0,1 M,0,-666,116028,360,390,330,390 S,0,-666,116028,0.625 F,0,115362,116028,1,0
Sprite,Foreground,Centre,"sb\lyric\8.png",320,240 F,0,115362,116028,0,1 M,0,115362,125361,360,340,390,340 S,0,115362,125361,0.625 F,0,124695,125361,1,0
Sprite,Foreground,Centre,"sb\lyric\9.png",320,240 F,0,126029,126695,0,1 M,0,126029,134695,360,390,330,390 S,0,126029,134695,0.625 F,0,134029,134695,1,0
Sprite,Foreground,Centre,"sb\lyric\10.png",320,240 F,0,136695,137361,0,1 M,0,136695,146695,360,340,390,340 S,0,136695,146695,0.625 F,0,146029,146695,1,0
Sprite,Foreground,Centre,"sb\lyric\11.png",320,240 F,0,147029,147695,0,1 M,0,147029,156028,360,390,330,390 S,0,147029,156028,0.625 F,0,155362,156028,1,0
Sprite,Foreground,Centre,"sb\lyric\12.png",320,240 F,0,156695,157361,0,1 M,0,156695,163361,360,340,390,340 S,0,156695,163361,0.625 F,0,162695,163361,1,0
Sprite,Foreground,Centre,"sb\lyric\13.png",320,240 F,0,163029,163695,0,1 M,0,163029,168695,360,390,330,390 S,0,163029,168695,0.625 F,0,168029,168695,1,0
Sprite,Foreground,Centre,"sb\lyric\14.png",320,240 F,0,168362,169028,0,1 M,0,168362,179361,360,340,390,340 S,0,168362,179361,0.625 F,0,178695,179361,1,0
Sprite,Foreground,Centre,"sb\lyric\15.png",320,240 F,0,179362,180028,0,1 M,0,179362,190695,360,390,330,390 S,0,179362,190695,0.625 F,0,190029,190695,1,0
Sprite,Foreground,Centre,"sb\lyric\16.png",320,240 F,0,214029,214695,0,1 M,0,214029,224695,360,340,390,340 S,0,214029,224695,0.625 F,0,224029,224695,1,0
Sprite,Foreground,Centre,"sb\lyric\17.png",320,240 F,0,224695,225361,0,1 M,0,224695,232695,360,390,330,390 S,0,224695,232695,0.625 F,0,232029,232695,1,0
Sprite,Foreground,Centre,"sb\lyric\18.png",320,240 F,0,236029,236695,0,1 M,0,236029,246361,360,340,390,340 S,0,236029,246361,0.625 F,0,245695,246361,1,0
Sprite,Foreground,Centre,"sb\lyric\19.png",320,240 F,0,246695,247361,0,1 M,0,246695,256028,360,390,330,390 S,0,246695,256028,0.625 F,0,255362,256028,1,0
Sprite,Foreground,Centre,"sb\lyric\4.png",320,240 F,0,255362,256028,0,1 M,0,255362,262028,360,340,390,340 S,0,255362,262028,0.625 F,0,261362,262028,1,0
Sprite,Foreground,Centre,"sb\lyric\5.png",320,240 F,0,261695,262361,0,1 M,0,261695,267361,360,390,330,390 S,0,261695,267361,0.625 F,0,266695,267361,1,0
Sprite,Foreground,Centre,"sb\lyric\20.png",320,240 F,0,267029,267695,0,1 M,0,267029,283361,360,340,390,340 S,0,267029,283361,0.625 F,0,282695,283361,1,0
//Storyboard Sound Samples

[TimingPoints]
-1305,666.666666666667,4,2,1,40,1,0
1028,-100,4,2,1,30,0,0
1195,-100,4,2,1,35,0,0
1361,-100,4,2,1,40,0,0
17361,-100,4,2,1,50,0,0
22695,-111.111111111111,4,2,1,40,0,0
28028,-133.333333333333,4,2,1,30,0,0
48361,-133.333333333333,4,2,1,10,0,0
48695,-133.333333333333,4,2,1,20,0,0
49361,-133.333333333333,4,2,1,30,0,0
68028,-133.333333333333,4,2,1,40,0,0
68695,-133.333333333333,4,2,1,50,0,0
69361,-111.111111111111,4,2,1,60,0,0
70695,-90.9090909090909,4,2,1,60,0,1
92028,-100,4,2,1,40,0,0
94695,-111.111111111111,4,2,1,30,0,0
112361,-111.111111111111,4,2,1,10,0,0
112695,-111.111111111111,4,2,1,20,0,0
113195,-111.111111111111,4,2,1,40,0,0
113445,-111.111111111111,4,2,1,15,0,0
116028,-133.333333333333,4,2,1,30,0,0
136361,-133.333333333333,4,2,1,10,0,0
136695,-133.333333333333,4,2,1,20,0,0
137361,-133.333333333333,4,2,1,30,0,0
156028,-133.333333333333,4,2,1,40,0,0
156695,-133.333333333333,4,2,1,50,0,0
157361,-111.111111111111,4,2,1,60,0,0
158695,-90.9090909090909,4,2,1,60,0,1
177361,-100,4,2,1,40,0,0
180028,-90.9090909090909,4,2,1,60,0,1
189361,-100,4,2,1,40,0,0
190695,-90.9090909090909,4,2,1,60,0,1
200028,-100,4,2,1,40,0,0
201361,-90.9090909090909,4,2,1,60,0,1
212028,-100,4,2,1,60,0,1
213361,-111.111111111111,4,2,1,40,0,0
214695,-133.333333333333,4,2,1,25,0,0
230861,-133.333333333333,4,2,1,15,0,0
233361,-133.333333333333,4,2,1,25,0,0
236028,-133.333333333333,4,2,1,30,0,0
246695,-125,4,2,1,40,0,0
252028,-111.111111111111,4,2,1,40,0,0
256028,-111.111111111111,4,2,1,60,0,0
257361,-90.9090909090909,4,2,1,70,0,1
278361,-90.9090909090909,4,2,1,80,0,1
278695,-100,4,2,1,50,0,0
300028,-133.333333333333,4,2,1,40,0,0
305361,-133.333333333333,4,2,1,20,0,0
308028,-133.333333333333,4,2,1,15,0,0
310695,-133.333333333333,4,2,1,10,0,0
313361,-133.333333333333,4,2,1,5,0,0

[Colours]
Combo1 : 201,108,217
Combo2 : 0,227,205
Combo3 : 95,118,211
Combo4 : 245,86,111

[HitObjects]
322,179,1028,6,0,L|253:167,1,37.5
312,76,1195,2,0,L|294:41,1,37.5
408,113,1361,6,0,B|432:167|432:167|413:272,1,150,10|0,0:3|0:0,0:0:0:0:
204,218,1861,1,0,0:0:0:0:
204,218,2028,2,0,L|51:216,1,150
254,34,2695,2,0,L|81:31,1,150
405,162,3361,2,0,P|419:227|384:311,1,150
26,342,4028,5,2,0:0:0:0:
85,228,4195,2,0,P|141:216|253:209,1,150
360,304,4695,1,0,0:0:0:0:
233,315,4861,1,0,0:0:0:0:
340,192,5028,1,0,0:0:0:0:
340,192,5361,2,0,B|361:101|361:101|338:29,1,150,2|0,0:0|0:0,0:0:0:0:
142,303,6028,1,0,0:0:0:0:
266,276,6195,1,0,0:0:0:0:
107,192,6361,1,0,0:0:0:0:
107,192,6695,6,0,P|106:267|132:352,1,150,2|0,0:0|0:0,0:0:0:0:
231,209,7195,2,0,P|239:136|227:55,1,150
102,81,7695,1,0,0:0:0:0:
392,199,8028,2,0,P|381:268|384:368,1,150
207,42,8695,1,0,0:0:0:0:
330,71,8861,1,0,0:0:0:0:
195,159,9028,1,0,0:0:0:0:
195,159,9361,6,0,P|106:160|40:148,1,150,2|0,0:0|0:0,0:0:0:0:
103,290,9861,2,0,P|171:284|259:294,1,150
439,347,10361,1,0,0:0:0:0:
316,383,10528,1,0,0:0:0:0:
352,240,10695,2,0,B|356:194|319:138|319:138|301:184,1,150,2|0,0:0|0:0,0:0:0:0:
316,383,11195,1,0,0:0:0:0:
439,347,11361,2,0,L|454:266,2,75
192,233,12028,6,0,P|134:240|36:228,1,150,2|0,0:0|0:0,0:0:0:0:
161,116,12528,1,0,0:0:0:0:
285,146,12695,2,0,P|303:168|323:220,1,75
282,332,13028,1,0,0:0:0:0:
468,92,13362,1,0,0:0:0:0:
452,273,13695,1,0,0:0:0:0:
285,146,14028,2,0,L|274:233,2,75
0,38,14695,6,0,P|21:106|11:184,1,150,2|0,0:0|0:0,0:0:0:0:
117,319,15195,2,0,P|124:258|143:167,1,150
236,85,15695,1,0,0:0:0:0:
354,324,16028,2,0,B|448:351|508:291|508:291|428:259,1,225,2|0,0:0|0:0,0:0:0:0:
252,252,16695,2,0,P|239:281|228:323,1,75
209,129,17028,2,0,P|181:145|145:177,1,75
154,19,17361,6,0,P|216:16|316:23,1,150,2|0,0:0|0:0,0:0:0:0:
417,105,17861,1,0,0:0:0:0:
299,144,18028,2,0,B|310:178|345:204|345:204|303:212|280:236,1,150
363,333,18528,1,0,0:0:0:0:
181,339,18695,2,0,P|179:278|201:170,1,150
12,12,19361,2,0,P|17:80|4:167,1,150
340,321,20028,6,0,L|491:317,1,150,2|0,0:0|0:0,0:0:0:0:
343,188,20528,2,0,L|173:191,1,150
110,288,21028,1,0,0:0:0:0:
464,247,21362,2,0,P|470:195|470:152,2,75
337,231,21861,1,0,0:0:0:0:
324,103,22028,2,0,P|383:68|387:124,1,150
375,145,22417,6,0,L|356:170,4,25
346,181,22695,6,0,P|287:176|207:181,1,134.999995880127,2|0,0:0|0:0,0:0:0:0:
0,36,23361,2,0,P|65:42|140:28,1,134.999995880127
64,324,24028,2,0,P|60:269|74:183,1,134.999995880127
281,283,24695,2,0,P|341:291|441:281,1,134.999995880127
472,41,25361,5,4,0:3:0:0:
256,192,25445,12,0,27695,0:0:0:0:
52,83,28028,6,0,P|103:79|180:88,1,112.500004291535,6|0,0:0|0:0,0:0:0:0:
256,109,28528,1,0,0:0:0:0:
150,178,28695,1,0,0:0:0:0:
150,178,29028,2,0,L|141:310,1,112.500004291535,8|0,0:0|0:0,0:0:0:0:
347,370,29695,1,0,0:0:0:0:
347,370,29861,1,0,0:0:0:0:
373,278,30028,2,0,P|420:263|496:251,1,112.500004291535,8|0,0:0|0:0,0:0:0:0:
318,155,30695,6,0,P|285:156|243:149,1,56.2500021457673,2|0,0:0|0:0,0:0:0:0:
180,204,31028,2,0,P|154:181|133:153,1,56.2500021457673
190,82,31361,1,0,0:0:0:0:
190,82,31695,2,0,P|129:75|60:81,1,112.500004291535,8|0,0:0|0:0,0:0:0:0:
62,268,32361,1,0,0:0:0:0:
62,268,32528,1,0,0:0:0:0:
137,208,32695,2,0,L|276:216,1,112.500004291535,8|0,0:0|0:0,0:0:0:0:
495,151,33361,6,0,L|501:92,1,56.2500021457673,2|0,0:0|0:0,0:0:0:0:
404,182,33695,2,0,L|412:247,1,56.2500021457673
398,83,34028,1,0,0:0:0:0:
398,83,34361,2,0,P|335:86|269:84,1,112.500004291535,8|0,0:0|0:0,0:0:0:0:
70,31,35028,1,0,0:0:0:0:
70,31,35195,1,0,0:0:0:0:
135,100,35361,2,0,P|133:153|119:228,1,112.500004291535,8|0,0:0|0:0,0:0:0:0:
280,320,36028,6,0,L|347:308,1,56.2500021457673,2|0,0:0|0:0,0:0:0:0:
337,214,36361,2,0,L|403:232,1,56.2500021457673
430,316,36695,1,0,0:0:0:0:
238,231,37028,2,0,P|236:204|240:103,1,112.500004291535,8|0,0:0|0:0,0:0:0:0:
421,64,37695,1,0,0:0:0:0:
269,179,38028,2,0,P|215:171|139:166,1,112.500004291535,8|0,0:0|0:0,0:0:0:0:
0,319,38695,6,0,P|51:320|128:311,1,112.500004291535,6|0,0:0|0:0,0:0:0:0:
172,239,39195,1,0,0:0:0:0:
197,348,39361,1,0,0:0:0:0:
197,348,39695,2,0,P|255:340|329:341,1,112.500004291535,8|0,0:0|0:0,0:0:0:0:
494,293,40361,1,0,0:0:0:0:
449,377,40528,1,0,0:0:0:0:
396,296,40695,2,0,P|388:229|387:173,1,112.500004291535,8|0,0:0|0:0,0:0:0:0:
209,256,41361,6,0,P|151:261|82:253,1,112.500004291535,2|0,0:0|0:0,0:0:0:0:
15,206,41861,1,0,0:0:0:0:
88,297,42028,1,0,0:0:0:0:
88,297,42361,2,0,L|99:174,1,112.500004291535,8|0,0:0|0:0,0:0:0:0:
258,79,43028,1,0,0:0:0:0:
258,79,43195,1,0,0:0:0:0:
312,157,43361,2,0,P|370:165|442:162,1,112.500004291535,8|0,0:0|0:0,0:0:0:0:
293,304,44028,6,0,L|162:299,1,112.500004291535,2|0,0:0|0:0,0:0:0:0:
88,297,44528,1,0,0:0:0:0:
88,297,44695,1,0,0:0:0:0:
236,177,45028,2,0,P|235:129|220:56,1,112.500004291535,8|0,0:0|0:0,0:0:0:0:
88,297,45695,1,0,0:0:0:0:
180,274,45861,1,0,0:0:0:0:
112,205,46028,2,0,L|-16:198,1,112.500004291535,8|0,0:0|0:0,0:0:0:0:
279,346,46695,6,0,L|350:348,1,56.2500021457673,2|0,0:0|0:0,0:0:0:0:
485,351,47028,2,0,L|408:350,1,56.2500021457673
324,255,47361,1,0,0:0:0:0:
324,255,47695,2,0,P|313:198|308:134,1,112.500004291535,8|0,0:0|0:0,0:0:0:0:
90,61,48361,1,2,0:1:0:0:
164,120,48528,1,2,0:1:0:0:
76,160,48695,2,0,P|70:195|67:238,2,56.2500021457673,2|2|2,0:1|0:1|0:1,0:0:0:0:
220,316,49361,6,0,P|274:308|352:303,1,112.500004291535,6|0,0:0|0:0,0:0:0:0:
365,213,49861,1,0,0:0:0:0:
256,104,50028,2,0,P|254:145|262:229,1,112.500004291535,0|8,0:0|0:0,0:0:0:0:
113,52,50695,2,0,L|-21:49,1,112.500004291535
0,49,51195,1,0,0:0:0:0:
0,49,51361,1,8,0:0:0:0:
75,225,51695,1,0,0:0:0:0:
297,107,52028,6,0,L|308:39,1,56.2500021457673,2|0,0:0|0:0,0:0:0:0:
385,160,52361,2,0,L|379:233,1,56.2500021457673
284,210,52695,1,0,0:0:0:0:
407,63,53028,1,8,0:0:0:0:
488,235,53361,2,0,L|461:310,1,56.2500021457673
395,349,53695,2,0,L|327:344,1,56.2500021457673
284,247,54028,2,0,L|346:242,2,56.2500021457673,8|0|0,0:0|0:0|0:0,0:0:0:0:
203,298,54528,1,0,0:0:0:0:
150,217,54695,6,0,B|144:159|171:112|171:112|110:142,1,168.750006437302,2|0,0:0|0:0,0:0:0:0:
96,296,55361,1,0,0:0:0:0:
96,296,55695,2,0,P|161:312|221:280,1,112.500004291535,8|0,0:0|0:0,0:0:0:0:
412,153,56361,1,0,0:0:0:0:
412,153,56528,1,0,0:0:0:0:
320,181,56695,2,0,P|323:244|331:307,1,112.500004291535,8|0,0:0|0:0,0:0:0:0:
96,296,57361,6,0,L|96:215,1,56.2500021457673,2|0,0:0|0:0,0:0:0:0:
97,114,57695,1,0,0:0:0:0:
21,172,57861,1,0,0:0:0:0:
170,175,58028,1,0,0:0:0:0:
170,175,58361,2,0,P|225:177|292:160,1,112.500004291535,8|0,0:0|0:0,0:0:0:0:
483,24,59028,2,0,L|479:87,1,56.2500021457673
397,130,59361,2,0,P|393:194|400:263,1,112.500004291535,8|0,0:0|0:0,0:0:0:0:
145,257,60028,6,0,P|90:257|9:265,1,112.500004291535,6|0,0:0|0:0,0:0:0:0:
0,351,60528,1,0,0:0:0:0:
0,351,60695,1,0,0:0:0:0:
262,309,61028,2,0,P|268:252|256:193,1,112.500004291535,8|0,0:0|0:0,0:0:0:0:
76,43,61695,1,0,0:0:0:0:
93,136,61861,1,0,0:0:0:0:
166,75,62028,2,0,P|208:68|281:64,1,112.500004291535,8|0,0:0|0:0,0:0:0:0:
177,337,62695,6,0,L|156:260,1,56.2500021457673,2|0,0:0|0:0,0:0:0:0:
287,231,63028,2,0,L|264:296,1,56.2500021457673
197,189,63361,1,0,0:0:0:0:
197,189,63695,2,0,P|240:166|320:137,1,112.500004291535,8|0,0:0|0:0,0:0:0:0:
487,335,64361,1,0,0:0:0:0:
398,372,64528,1,0,0:0:0:0:
326,307,64695,2,0,L|335:240,1,56.2500021457673,8|0,0:0|0:0,0:0:0:0:
426,199,65028,2,0,L|442:276,1,56.2500021457673
304,242,65361,6,0,P|279:222|263:190,2,56.2500021457673,6|0|0,0:0|0:0|0:0,0:0:0:0:
356,161,65861,2,0,P|357:132|353:39,1,112.500004291535
461,130,66361,2,0,P|464:186|472:246,1,112.500004291535,8|0,0:0|0:0,0:0:0:0:
210,313,67028,1,0,0:0:0:0:
299,371,67195,1,0,0:0:0:0:
312,265,67361,2,0,L|313:195,1,56.2500021457673,8|0,0:0|0:0,0:0:0:0:
312,101,67695,1,0,0:0:0:0:
380,182,67861,1,0,0:0:0:0:
275,204,68028,6,0,L|206:222,1,56.2500021457673,2|0,0:0|0:0,0:0:0:0:
112,139,68361,2,0,L|178:105,1,56.2500021457673
105,272,68695,2,0,L|29:260,1,56.2500021457673
271,94,69028,2,0,L|341:115,1,56.2500021457673,8|0,0:0|0:0,0:0:0:0:
112,139,69361,6,0,P|105:67|130:4,1,134.999995880127,2|0,0:0|0:0,0:0:0:0:
220,218,69861,6,0,L|188:290,2,67.4999979400635,2|0|0,0:0|0:0|0:0,0:0:0:0:
310,1,70361,6,0,L|270:98,1,101.249996910095,2|0,0:0|0:0,0:0:0:0:
271,94,70695,6,0,B|370:128|370:128|461:104,1,165.000005035401,6|0,3:2|0:0,0:0:0:0:
425,236,71195,1,0,0:0:0:0:
306,270,71361,2,0,P|226:220|152:240,1,165.000005035401,0|8,0:0|0:0,0:0:0:0:
213,346,71861,1,0,0:0:0:0:
425,236,72028,6,0,L|425:121,1,82.5000025177003
213,263,72361,2,0,L|213:363,1,82.5000025177003
407,353,72695,2,0,L|503:327,1,82.5000025177003,8|0,0:0|0:0,0:0:0:0:
279,173,73028,2,0,L|174:142,1,82.5000025177003
56,342,73361,6,0,P|136:368|232:328,1,165.000005035401,2|0,0:0|0:0,0:0:0:0:
138,228,73861,1,0,0:0:0:0:
20,296,74028,2,0,L|27:387,1,82.5000025177003
138,228,74361,2,0,L|149:124,1,82.5000025177003,8|0,0:0|0:0,0:0:0:0:
20,296,74695,5,0,0:0:0:0:
120,366,74861,1,0,0:0:0:0:
261,210,75028,1,0,0:0:0:0:
138,228,75195,1,0,0:0:0:0:
251,338,75361,2,0,L|348:321,1,82.5000025177003,8|0,0:0|0:0,0:0:0:0:
448,158,75695,2,0,L|365:172,1,82.5000025177003
150,239,76028,6,0,B|145:182|145:182|167:137|167:137|156:50,1,165.000005035401,6|0,0:0|0:0,0:0:0:0:
41,119,76528,1,0,0:0:0:0:
271,218,76695,2,0,L|376:197,1,82.5000025177003
424,5,77028,2,0,L|342:20,1,82.5000025177003,8|0,0:0|0:0,0:0:0:0:
128,136,77361,6,0,P|102:223|144:315,1,165.000005035401
263,335,77861,1,0,0:0:0:0:
431,218,78028,2,0,B|353:200|353:200|270:218,1,165.000005035401,8|0,0:0|0:0,0:0:0:0:
60,373,78695,6,0,L|141:343,1,82.5000025177003,2|0,0:0|0:0,0:0:0:0:
85,232,79028,2,0,L|171:231,1,82.5000025177003
159,108,79361,2,0,L|240:137,1,82.5000025177003
269,16,79695,2,0,L|335:71,1,82.5000025177003,8|0,0:0|0:0,0:0:0:0:
393,308,80028,5,0,0:0:0:0:
305,198,80195,1,0,0:0:0:0:
443,181,80361,1,0,0:0:0:0:
301,293,80528,1,0,0:0:0:0:
366,132,80695,1,8,0:0:0:0:
477,269,80861,1,0,0:0:0:0:
262,181,81028,2,0,P|257:145|258:89,1,82.5000025177003
70,14,81361,6,0,P|72:97|59:190,1,165.000005035401,6|0,0:0|0:0,0:0:0:0:
0,286,81861,1,0,0:0:0:0:
181,184,82028,2,0,L|298:172,1,82.5000025177003
339,346,82361,2,0,L|242:340,1,82.5000025177003,8|0,0:0|0:0,0:0:0:0:
145,259,82695,6,0,L|150:77,1,165.000005035401
296,55,83195,1,0,0:0:0:0:
117,173,83361,2,0,L|6:165,1,82.5000025177003,8|0,0:0|0:0,0:0:0:0:
145,351,83695,2,0,L|255:340,1,82.5000025177003
462,178,84028,6,0,L|471:13,1,165.000005035401,2|0,0:0|0:0,0:0:0:0:
236,58,84528,2,0,L|246:250,1,165.000005035401
14,271,85028,2,0,L|24:92,1,165.000005035401,8|0,0:0|0:0,0:0:0:0:
135,53,85528,5,0,0:0:0:0:
197,160,85695,2,0,L|174:260,1,82.5000025177003
287,357,86028,2,0,L|386:368,1,82.5000025177003,8|0,0:0|0:0,0:0:0:0:
418,229,86361,2,0,L|313:218,1,82.5000025177003
46,312,86695,6,0,P|147:286|180:235,1,165.000005035401,6|0,0:0|0:0,0:0:0:0:
196,116,87195,1,0,0:0:0:0:
74,97,87361,2,0,P|66:140|71:213,1,82.5000025177003
187,345,87695,2,0,P|199:313|210:250,1,82.5000025177003,8|0,0:0|0:0,0:0:0:0:
343,31,88028,6,0,P|344:117|352:220,2,165.000005035401,0|0|8,0:0|0:0|0:0,0:0:0:0:
512,225,89028,1,0,0:0:0:0:
298,358,89361,6,0,P|257:357|217:350,1,82.5000025177003,6|0,0:0|0:0,0:0:0:0:
222,148,89695,2,0,P|251:180|279:227,1,82.5000025177003
130,266,90028,1,0,0:0:0:0:
130,266,90361,2,0,P|126:188|127:82,1,165.000005035401,8|0,0:0|0:0,0:0:0:0:
242,58,90861,5,0,0:0:0:0:
324,148,91028,2,0,P|299:187|267:217,1,82.5000025177003
45,172,91361,2,0,P|85:162|160:161,1,82.5000025177003
276,240,91695,1,0,0:0:0:0:
130,266,91861,1,0,0:0:0:0:
235,103,92028,6,0,P|307:89|383:83,1,150,6|0,0:0|0:0,0:0:0:0:
492,113,92528,1,0,0:0:0:0:
425,262,92695,1,0,0:0:0:0:
358,162,92861,1,0,0:0:0:0:
512,216,93028,1,0,0:0:0:0:
369,327,93195,1,0,0:0:0:0:
234,197,93361,6,0,L|246:105,1,75
77,222,93695,2,0,P|83:261|97:294,1,75
301,358,94028,2,0,P|333:346|386:318,1,75
384,126,94361,2,0,P|341:140|287:164,1,75
218,266,94695,6,0,P|181:268|125:267,1,67.4999979400635,2|0,0:0|0:0,0:0:0:0:
0,272,95028,2,0,L|17:353,1,67.4999979400635
218,266,95361,2,0,L|240:175,1,67.4999979400635
66,92,95695,2,0,L|76:179,1,67.4999979400635,8|0,0:0|0:0,0:0:0:0:
146,305,96028,6,0,L|169:356,2,33.7499989700318
233,200,96361,2,0,L|316:201,1,67.4999979400635
399,29,96695,1,8,0:0:0:0:
299,85,96861,1,0,0:0:0:0:
300,200,97028,1,0,0:0:0:0:
397,261,97195,1,0,0:0:0:0:
486,150,97361,6,0,L|419:148,1,67.4999979400635,2|0,0:0|0:0,0:0:0:0:
261,267,97695,2,0,L|166:263,1,67.4999979400635
300,128,98028,1,0,0:0:0:0:
338,252,98195,1,0,0:0:0:0:
193,295,98361,2,0,L|99:292,1,67.4999979400635,8|0,0:0|0:0,0:0:0:0:
18,145,98695,6,0,L|-4:110,2,33.7499989700318
21,282,99028,1,0,0:0:0:0:
196,224,99195,1,0,0:0:0:0:
102,89,99361,2,0,L|90:182,1,67.4999979400635,8|0,0:0|0:0,0:0:0:0:
278,289,99695,2,0,L|267:211,1,67.4999979400635
102,89,100028,6,0,L|6:80,1,67.4999979400635,2|0,0:0|0:0,0:0:0:0:
201,232,100361,2,0,L|282:219,1,67.4999979400635
419,116,100694,2,0,L|426:17,1,67.4999979400635
271,6,101028,2,0,L|281:83,1,67.4999979400635,8|0,0:0|0:0,0:0:0:0:
102,89,101361,6,0,L|107:55,2,33.7499989700318
136,261,101694,2,0,L|116:347,1,67.4999979400635
169,147,102028,1,8,0:0:0:0:
59,181,102194,1,0,0:0:0:0:
136,261,102361,1,0,0:0:0:0:
249,239,102528,1,0,0:0:0:0:
298,136,102695,6,0,L|393:139,1,67.4999979400635,2|0,0:0|0:0,0:0:0:0:
381,262,103028,2,0,L|461:312,1,67.4999979400635
298,382,103361,2,0,L|253:298,1,67.4999979400635
135,336,103695,2,0,L|138:241,1,67.4999979400635,8|0,0:0|0:0,0:0:0:0:
216,137,104028,6,0,L|239:187,2,33.7499989700318
321,182,104361,1,0,0:0:0:0:
224,244,104528,1,0,0:0:0:0:
313,70,104695,1,8,0:0:0:0:
454,183,104861,1,0,0:0:0:0:
328,253,105028,1,0,0:0:0:0:
434,105,105195,1,0,0:0:0:0:
510,275,105361,6,0,L|425:267,1,67.4999979400635,2|0,0:0|0:0,0:0:0:0:
297,135,105695,2,0,L|369:142,1,67.4999979400635
475,153,106028,1,0,0:0:0:0:
360,250,106195,1,0,0:0:0:0:
297,135,106361,2,0,L|315:60,1,67.4999979400635,8|0,0:0|0:0,0:0:0:0:
123,91,106695,6,0,L|128:142,2,33.7499989700318
164,224,107028,2,0,L|159:312,1,67.4999979400635
10,379,107361,2,0,L|-1:305,1,67.4999979400635,8|0,0:0|0:0,0:0:0:0:
50,208,107695,1,0,0:0:0:0:
164,224,107861,1,0,0:0:0:0:
191,335,108028,6,0,L|286:339,1,67.4999979400635,2|0,0:0|0:0,0:0:0:0:
377,205,108361,2,0,L|287:202,1,67.4999979400635
468,296,108695,1,0,0:0:0:0:
495,160,108861,1,0,0:0:0:0:
339,72,109028,1,8,0:0:0:0:
377,205,109195,1,0,0:0:0:0:
448,34,109361,6,0,L|429:-19,2,33.7499989700318
495,160,109695,1,0,0:0:0:0:
377,59,109861,1,0,0:0:0:0:
307,197,110028,2,0,L|324:279,1,67.4999979400635,8|0,0:0|0:0,0:0:0:0:
435,360,110361,2,0,L|464:280,1,67.4999979400635
410,122,110695,5,2,0:0:0:0:
483,233,110861,1,0,0:0:0:0:
368,193,111028,1,0,0:0:0:0:
458,296,111195,1,0,0:0:0:0:
320,263,111361,1,0,0:0:0:0:
435,360,111528,1,0,0:0:0:0:
270,331,111695,2,0,L|243:245,1,67.4999979400635,8|0,0:0|0:0,0:0:0:0:
210,69,112028,6,0,L|211:35,2,33.7499989700318
136,222,112361,1,2,0:1:0:0:
104,89,112528,1,2,0:1:0:0:
241,138,112695,1,2,0:1:0:0:
155,241,112861,1,2,0:1:0:0:
21,149,113028,2,0,L|28:63,1,67.4999979400635,2|0,0:1|0:0,0:0:0:0:
211,35,113361,5,2,0:0:0:0:
256,192,113445,12,0,115695,0:0:0:0:
302,34,116028,6,0,P|295:93|297:162,1,112.500004291535,6|0,0:0|0:0,0:0:0:0:
324,237,116528,1,0,0:0:0:0:
392,130,116695,1,0,0:0:0:0:
136,224,117028,2,0,L|4:215,1,112.500004291535,8|0,0:0|0:0,0:0:0:0:
269,347,117695,1,0,0:0:0:0:
180,311,117861,1,0,0:0:0:0:
253,249,118028,2,0,P|300:234|376:222,1,112.500004291535,8|0,0:0|0:0,0:0:0:0:
157,154,118695,6,0,P|119:153|82:148,1,56.2500021457673,2|0,0:0|0:0,0:0:0:0:
36,238,119028,2,0,P|12:212|-5:182,1,56.2500021457673
0,65,119361,1,0,0:0:0:0:
0,65,119695,2,0,P|61:72|130:66,1,112.500004291535,8|0,0:0|0:0,0:0:0:0:
339,262,120361,1,0,0:0:0:0:
323,167,120528,1,0,0:0:0:0:
238,234,120695,2,0,P|228:294|237:361,1,112.500004291535,8|0,0:0|0:0,0:0:0:0:
75,202,121361,6,0,L|81:143,1,56.2500021457673,2|0,0:0|0:0,0:0:0:0:
188,89,121695,2,0,L|196:154,1,56.2500021457673
83,35,122028,1,0,0:0:0:0:
185,260,122361,2,0,P|248:263|314:261,1,112.500004291535,8|0,0:0|0:0,0:0:0:0:
479,76,123028,1,0,0:0:0:0:
398,24,123195,1,0,0:0:0:0:
391,118,123361,2,0,L|407:196,1,56.2500021457673,8|0,0:0|0:0,0:0:0:0:
290,151,123695,2,0,L|295:85,1,56.2500021457673
182,147,124028,6,0,P|185:176|191:202,1,56.2500021457673,2|0,0:0|0:0,0:0:0:0:
137,293,124361,2,0,P|167:304|203:311,1,56.2500021457673
294,207,124695,2,0,P|292:180|296:79,2,112.500004291535,0|8|0,0:0|0:0|0:0,0:0:0:0:
471,17,125695,1,0,0:0:0:0:
294,94,126028,2,0,L|218:82,1,56.2500021457673,8|0,0:0|0:0,0:0:0:0:
136,186,126361,2,0,L|202:176,1,56.2500021457673
25,115,126695,6,0,P|24:166|33:243,1,112.500004291535,6|0,0:0|0:0,0:0:0:0:
106,285,127195,1,0,0:0:0:0:
171,215,127361,2,0,P|229:207|303:208,1,112.500004291535,0|8,0:0|0:0,0:0:0:0:
470,374,128028,1,0,0:0:0:0:
470,374,128361,1,0,0:0:0:0:
376,353,128528,1,0,0:0:0:0:
444,286,128695,2,0,P|437:218|423:163,1,112.500004291535,8|0,0:0|0:0,0:0:0:0:
166,39,129361,6,0,P|161:94|166:150,1,112.500004291535,2|0,0:0|0:0,0:0:0:0:
224,226,129861,1,0,0:0:0:0:
92,209,130028,1,0,0:0:0:0:
92,209,130361,2,0,L|83:82,1,112.500004291535,8|0,0:0|0:0,0:0:0:0:
325,77,131028,1,0,0:0:0:0:
325,77,131195,1,0,0:0:0:0:
266,151,131361,2,0,P|272:181|286:208,1,56.2500021457673,8|0,0:0|0:0,0:0:0:0:
367,157,131695,2,0,P|391:174|415:186,1,56.2500021457673
437,82,132028,6,0,P|386:77|306:77,1,112.500004291535,2|0,0:0|0:0,0:0:0:0:
234,109,132528,1,0,0:0:0:0:
283,203,132695,1,0,0:0:0:0:
283,203,133028,2,0,P|282:251|267:324,1,112.500004291535,8|0,0:0|0:0,0:0:0:0:
76,153,133695,1,0,0:0:0:0:
171,155,133861,1,0,0:0:0:0:
121,237,134028,2,0,L|-7:230,1,112.500004291535,8|0,0:0|0:0,0:0:0:0:
288,183,134695,6,0,L|286:239,1,56.2500021457673,2|0,0:0|0:0,0:0:0:0:
270,101,135028,2,0,L|270:157,1,56.2500021457673
289,17,135361,1,0,0:0:0:0:
289,17,135695,2,0,P|232:28|168:33,1,112.500004291535,8|0,0:0|0:0,0:0:0:0:
317,293,136361,1,2,0:1:0:0:
301,198,136528,1,2,0:1:0:0:
223,254,136695,2,0,P|217:289|214:332,2,56.2500021457673,2|2|2,0:1|0:1|0:1,0:0:0:0:
223,254,137361,6,0,P|169:262|91:267,1,112.500004291535,6|0,0:0|0:0,0:0:0:0:
61,184,137861,1,0,0:0:0:0:
147,142,138028,2,0,P|188:144|272:136,1,112.500004291535,0|8,0:0|0:0,0:0:0:0:
440,76,138695,2,0,L|443:210,1,112.500004291535
404,276,139195,1,0,0:0:0:0:
311,255,139361,1,8,0:0:0:0:
224,50,139695,1,0,0:0:0:0:
104,198,140028,6,0,L|112:253,1,56.2500021457673,2|0,0:0|0:0,0:0:0:0:
13,114,140361,2,0,L|7:187,1,56.2500021457673
87,44,140695,1,0,0:0:0:0:
232,219,141028,1,8,0:0:0:0:
296,39,141361,2,0,L|371:12,1,56.2500021457673
463,110,141695,2,0,L|395:105,1,56.2500021457673
339,174,142028,2,0,L|328:245,1,56.2500021457673,8|0,0:0|0:0,0:0:0:0:
232,219,142361,2,0,L|219:158,1,56.2500021457673
136,116,142695,5,2,0:0:0:0:
50,156,142861,2,0,B|28:204|33:266,1,112.500004291535
96,338,143361,1,0,0:0:0:0:
96,338,143695,2,0,P|160:327|221:322,1,112.500004291535,8|0,0:0|0:0,0:0:0:0:
465,350,144361,1,0,0:0:0:0:
376,384,144528,1,0,0:0:0:0:
392,289,144695,2,0,P|446:258|512:272,1,112.500004291535,8|0,0:0|0:0,0:0:0:0:
207,378,145361,6,0,L|207:297,1,56.2500021457673,2|0,0:0|0:0,0:0:0:0:
236,198,145695,1,0,0:0:0:0:
157,258,145861,1,0,0:0:0:0:
186,135,146028,1,0,0:0:0:0:
186,135,146361,2,0,P|241:137|308:120,1,112.500004291535,8|0,0:0|0:0,0:0:0:0:
483,24,147028,2,0,L|479:87,1,56.2500021457673
397,130,147361,2,0,P|393:194|400:263,1,112.500004291535,8|0,0:0|0:0,0:0:0:0:
155,327,148028,6,0,P|155:272|147:191,1,112.500004291535,6|0,0:0|0:0,0:0:0:0:
110,127,148528,1,0,0:0:0:0:
252,221,148695,1,0,0:0:0:0:
252,221,149028,2,0,P|309:227|368:215,1,112.500004291535,8|0,0:0|0:0,0:0:0:0:
497,35,149695,1,0,0:0:0:0:
409,71,149861,1,0,0:0:0:0:
485,129,150028,2,0,P|492:171|496:244,1,112.500004291535,8|0,0:0|0:0,0:0:0:0:
221,83,150695,6,0,L|298:62,1,56.2500021457673,2|0,0:0|0:0,0:0:0:0:
251,195,151028,2,0,L|180:185,1,56.2500021457673
351,155,151361,1,0,0:0:0:0:
351,155,151695,2,0,P|351:211|345:279,1,112.500004291535,8|0,0:0|0:0,0:0:0:0:
155,271,152361,1,0,0:0:0:0:
232,215,152528,1,0,0:0:0:0:
244,309,152695,2,0,L|190:364,1,56.2500021457673,8|0,0:0|0:0,0:0:0:0:
300,253,153028,2,0,L|272:329,1,56.2500021457673
414,209,153361,6,0,L|381:261,1,56.2500021457673,6|0,0:0|0:0,0:0:0:0:
386,127,153695,1,0,0:0:0:0:
386,127,153861,2,0,P|357:128|264:124,1,112.500004291535
178,111,154361,2,0,P|181:167|189:227,1,112.500004291535,8|0,0:0|0:0,0:0:0:0:
472,235,155028,1,0,0:0:0:0:
427,319,155195,1,0,0:0:0:0:
379,238,155361,2,0,L|381:166,1,56.2500021457673,8|0,0:0|0:0,0:0:0:0:
470,139,155695,1,0,0:0:0:0:
379,238,155861,1,0,0:0:0:0:
298,108,156028,6,0,L|306:35,1,56.2500021457673,2|0,0:0|0:0,0:0:0:0:
127,152,156361,2,0,L|134:80,1,56.2500021457673
380,261,156695,2,0,L|386:202,1,56.2500021457673
180,335,157028,2,0,L|187:264,1,56.2500021457673,8|0,0:0|0:0,0:0:0:0:
340,78,157361,6,0,P|412:71|473:106,1,134.999995880127,2|0,0:0|0:0,0:0:0:0:
284,208,157861,6,0,L|212:176,2,67.4999979400635,2|0|0,0:0|0:0|0:0,0:0:0:0:
180,335,158361,6,0,P|130:336|83:295,1,101.249996910095,2|0,0:0|0:0,0:0:0:0:
167,238,158695,6,0,B|189:181|189:181|177:48,1,165.000005035401,6|0,3:2|0:0,0:0:0:0:
39,66,159195,1,0,0:0:0:0:
167,238,159361,2,0,P|258:216|297:150,1,165.000005035401,0|8,0:0|0:0,0:0:0:0:
179,77,159861,1,0,0:0:0:0:
36,179,160028,6,0,L|36:261,1,82.5000025177003,8|0,0:0|0:0,0:0:0:0:
243,311,160361,2,0,L|243:228,1,82.5000025177003
132,31,160695,2,0,L|132:113,1,82.5000025177003,8|0,0:0|0:0,0:0:0:0:
354,153,161028,2,0,L|353:56,1,82.5000025177003
275,282,161361,6,0,P|355:308|451:268,1,165.000005035401,2|0,0:0|0:0,0:0:0:0:
233,147,161861,1,0,0:0:0:0:
130,260,162028,2,0,L|137:351,1,82.5000025177003
354,153,162361,2,0,L|365:49,1,82.5000025177003,8|0,0:0|0:0,0:0:0:0:
160,121,162695,5,8,0:0:0:0:
250,295,162861,1,0,0:0:0:0:
274,149,163028,1,0,0:0:0:0:
116,267,163195,1,0,0:0:0:0:
304,358,163361,2,0,L|401:341,1,82.5000025177003,8|0,0:0|0:0,0:0:0:0:
169,187,163695,2,0,L|86:173,1,82.5000025177003
262,265,164028,6,0,B|298:252|298:252|343:182|280:109,1,165.000005035401,6|0,0:0|0:0,0:0:0:0:
169,187,164528,1,0,0:0:0:0:
362,287,164695,2,0,L|450:268,1,82.5000025177003
213,102,165028,2,0,L|131:87,1,82.5000025177003,8|0,0:0|0:0,0:0:0:0:
0,273,165361,6,0,P|76:239|162:286,1,165.000005035401,8|0,0:0|0:0,0:0:0:0:
230,381,165861,1,0,0:0:0:0:
385,163,166028,2,0,P|309:130|229:166,1,165.000005035401,8|0,0:0|0:0,0:0:0:0:
147,268,166528,1,0,0:0:0:0:
293,348,166695,6,0,L|310:260,1,82.5000025177003,2|0,0:0|0:0,0:0:0:0:
108,76,167028,2,0,L|124:158,1,82.5000025177003
412,155,167361,2,0,L|330:139,1,82.5000025177003
140,339,167695,2,0,L|222:324,1,82.5000025177003,8|0,0:0|0:0,0:0:0:0:
406,230,168028,5,8,0:0:0:0:
246,171,168195,1,0,0:0:0:0:
366,342,168361,1,0,0:0:0:0:
512,246,168528,1,0,0:0:0:0:
366,132,168695,1,8,0:0:0:0:
311,286,168861,1,0,0:0:0:0:
489,158,169028,2,0,P|494:122|493:66,1,82.5000025177003
234,61,169361,6,0,P|232:144|245:237,1,165.000005035401,6|0,0:0|0:0,0:0:0:0:
381,243,169861,1,0,0:0:0:0:
202,142,170028,2,0,L|120:151,1,82.5000025177003
222,345,170361,2,0,L|305:351,1,82.5000025177003,8|0,0:0|0:0,0:0:0:0:
433,175,170695,6,0,L|438:-7,1,165.000005035401,8|0,0:0|0:0,0:0:0:0:
287,151,171195,1,0,0:0:0:0:
355,306,171361,2,0,L|438:312,1,82.5000025177003,8|0,0:0|0:0,0:0:0:0:
174,265,171695,2,0,L|284:254,1,82.5000025177003
55,335,172028,6,0,P|64:249|64:170,1,165.000005035401,2|0,0:0|0:0,0:0:0:0:
253,33,172528,2,0,P|255:120|263:225,1,165.000005035401
445,150,173028,2,0,P|450:107|454:56,1,82.5000025177003,8|0,0:0|0:0,0:0:0:0:
176,177,173361,6,0,P|180:224|189:267,1,82.5000025177003,8|0,0:0|0:0,0:0:0:0:
354,110,173695,2,0,P|362:66|366:12,1,82.5000025177003
217,45,174028,2,0,L|135:37,1,82.5000025177003,8|0,0:0|0:0,0:0:0:0:
313,243,174361,2,0,L|395:253,1,82.5000025177003
135,294,174695,6,0,P|124:212|147:134,1,165.000005035401,6|0,0:0|0:0,0:0:0:0:
283,227,175195,1,0,0:0:0:0:
128,327,175361,2,0,P|84:322|12:324,1,82.5000025177003
82,113,175695,2,0,P|113:98|165:62,1,82.5000025177003,8|0,0:0|0:0,0:0:0:0:
336,22,176028,6,0,P|337:108|348:212,1,165.000005035401,8|0,0:0|0:0,0:0:0:0:
15,341,176695,2,0,P|21:253|19:147,1,165.000005035401,8|0,0:0|0:0,0:0:0:0:
156,140,177195,1,0,0:0:0:0:
189,316,177361,6,0,P|149:322|108:317,1,75,6|0,0:0|0:0,0:0:0:0:
279,204,177695,2,0,P|308:236|333:283,1,75
142,178,178028,1,0,0:0:0:0:
142,178,178361,2,0,P|157:140|189:88,1,75,8|0,0:0|0:0,0:0:0:0:
478,162,178695,6,0,P|445:167|393:164,1,75,8|0,0:0|0:0,0:0:0:0:
324,263,179028,2,0,P|292:231|277:194,1,75
321,22,179361,2,0,P|356:43|395:84,1,75,8|0,0:0|0:0,0:0:0:0:
507,94,179695,2,0,P|496:134|450:181,1,75
324,263,180028,6,0,P|279:265|234:264,1,82.5000025177003,6|8,3:2|0:0,0:0:0:0:
107,186,180361,1,0,0:0:0:0:
223,186,180528,1,0,0:0:0:0:
84,263,180695,1,8,0:0:0:0:
166,119,180861,1,0,0:0:0:0:
240,263,181028,2,0,L|230:350,1,82.5000025177003
84,263,181361,6,0,L|59:174,1,82.5000025177003,4|8,0:0|0:0,0:0:0:0:
223,186,181695,1,0,0:0:0:0:
230,345,181861,1,0,0:0:0:0:
84,263,182028,2,0,L|-9:249,1,82.5000025177003,8|0,0:0|0:0,0:0:0:0:
223,186,182361,2,0,L|322:171,1,82.5000025177003
495,326,182695,6,0,L|414:314,1,82.5000025177003,6|8,0:0|0:0,0:0:0:0:
249,290,183028,1,0,0:0:0:0:
370,220,183195,1,0,0:0:0:0:
295,380,183361,1,8,0:0:0:0:
184,240,183528,1,0,0:0:0:0:
328,300,183695,1,0,0:0:0:0:
122,347,183861,1,0,0:0:0:0:
177,157,184028,6,0,L|184:250,1,82.5000025177003,4|8,0:0|0:0,0:0:0:0:
18,162,184361,2,0,L|27:59,1,82.5000025177003
109,282,184695,1,8,0:0:0:0:
248,233,184861,1,0,0:0:0:0:
245,84,185028,1,0,0:0:0:0:
103,41,185195,1,0,0:0:0:0:
166,244,185361,6,0,L|275:229,1,82.5000025177003,6|8,0:0|0:0,0:0:0:0:
92,172,185695,1,0,0:0:0:0:
120,333,185861,1,0,0:0:0:0:
247,232,186028,1,8,0:0:0:0:
83,256,186195,1,0,0:0:0:0:
271,334,186361,2,0,L|258:227,1,82.5000025177003
90,73,186695,6,0,L|102:168,1,82.5000025177003,4|8,0:0|0:0,0:0:0:0:
123,318,187028,1,0,0:0:0:0:
1,206,187195,1,0,0:0:0:0:
214,179,187361,1,8,0:0:0:0:
67,256,187528,1,0,0:0:0:0:
156,117,187695,1,0,0:0:0:0:
235,260,187861,1,0,0:0:0:0:
61,175,188028,6,0,L|57:66,1,82.5000025177003,6|8,0:0|0:0,0:0:0:0:
190,140,188361,2,0,L|241:43,1,82.5000025177003
317,176,188695,2,0,L|409:118,1,82.5000025177003,8|0,0:0|0:0,0:0:0:0:
408,271,189028,2,0,L|517:267,1,82.5000025177003
290,336,189361,6,0,L|207:339,1,75,4|8,0:0|0:0,0:0:0:0:
317,176,189695,1,0,0:0:0:0:
392,352,189861,1,0,0:0:0:0:
212,213,190028,2,0,L|210:104,1,75,8|0,0:0|0:0,0:0:0:0:
215,338,190361,1,0,0:0:0:0:
114,248,190528,1,0,0:0:0:0:
316,247,190695,5,6,3:2:0:0:
210,138,190861,1,8,0:0:0:0:
93,279,191028,1,0,0:0:0:0:
235,236,191195,1,0,0:0:0:0:
76,134,191361,5,8,0:0:0:0:
119,282,191528,1,0,0:0:0:0:
317,202,191695,1,0,0:0:0:0:
177,152,191861,1,0,0:0:0:0:
294,318,192028,5,4,0:0:0:0:
266,133,192195,1,8,0:0:0:0:
235,236,192361,1,0,0:0:0:0:
372,105,192528,1,0,0:0:0:0:
190,47,192695,6,0,L|107:42,1,82.5000025177003,8|0,0:0|0:0,0:0:0:0:
128,198,193028,2,0,L|232:188,1,82.5000025177003
412,192,193361,5,6,0:0:0:0:
311,119,193528,1,8,0:0:0:0:
211,191,193695,1,0,0:0:0:0:
249,310,193861,1,0,0:0:0:0:
373,309,194028,5,8,0:0:0:0:
335,191,194195,1,0,0:0:0:0:
211,191,194361,1,0,0:0:0:0:
173,309,194528,1,0,0:0:0:0:
273,381,194695,6,0,L|365:363,1,82.5000025177003,4|8,0:0|0:0,0:0:0:0:
173,309,195028,2,0,L|64:287,1,82.5000025177003
288,260,195361,2,0,L|380:242,1,82.5000025177003,8|0,0:0|0:0,0:0:0:0:
188,188,195695,2,0,L|79:166,1,82.5000025177003
304,58,196028,6,0,L|298:156,1,82.5000025177003,6|8,0:0|0:0,0:0:0:0:
112,254,196361,2,0,L|107:170,1,82.5000025177003
379,279,196695,2,0,P|304:311|228:285,1,165.000005035401,8|0,0:0|0:0,0:0:0:0:
189,129,197195,1,0,0:0:0:0:
365,161,197361,5,6,0:0:0:0:
112,254,197528,2,0,B|73:245|73:245|32:186|66:117,1,165.000005035401,8|0,0:0|0:0,0:0:0:0:
270,180,198028,1,8,0:0:0:0:
253,346,198195,1,0,0:0:0:0:
168,197,198361,1,0,0:0:0:0:
311,285,198528,1,0,0:0:0:0:
151,349,198695,6,0,L|85:298,1,82.5000025177003,6|8,0:0|0:0,0:0:0:0:
168,197,199028,2,0,L|173:111,1,82.5000025177003
364,58,199361,2,0,P|331:143|376:233,1,165.000005035401,8|0,0:0|0:0,0:0:0:0:
451,141,199861,1,0,0:0:0:0:
242,91,200028,5,6,0:0:0:0:
173,211,200195,2,0,B|119:236|119:236|23:223,1,150,8|0,0:0|0:0,0:0:0:0:
242,91,200695,1,8,0:0:0:0:
193,247,200861,1,0,0:0:0:0:
82,130,201028,1,0,0:0:0:0:
273,189,201195,1,0,0:0:0:0:
145,339,201361,6,0,P|148:262|164:157,1,165.000005035401,6|0,0:0|0:0,0:0:0:0:
439,249,201861,2,0,P|365:279|261:306,1,165.000005035401
237,117,202361,2,0,P|277:130|314:149,1,82.5000025177003
81,227,202695,6,0,P|43:156|59:38,1,165.000005035401,8|0,0:0|0:0,0:0:0:0:
289,216,203195,2,0,P|273:297|262:385,1,165.000005035401
486,174,203695,2,0,P|483:138|468:65,1,82.5000025177003
159,182,204028,6,0,B|164:214|164:214|225:258|296:211,1,165.000005035401,6|0,0:0|0:0,0:0:0:0:
0,71,204528,2,0,P|0:167|6:263,1,165.000005035401
177,369,205028,2,0,P|186:323|190:276,1,82.5000025177003
354,191,205361,6,0,B|414:208|414:208|514:176,1,165.000005035401,8|0,0:0|0:0,0:0:0:0:
256,30,205861,2,0,B|196:13|196:13|96:45,1,165.000005035401,8|8,0:0|0:0,0:0:0:0:
189,287,206361,2,0,P|193:240|189:185,1,82.5000025177003
18,330,206695,6,0,L|209:315,1,165.000005035401,6|0,0:0|0:0,0:0:0:0:
465,292,207195,2,0,P|396:268|353:188,1,165.000005035401
507,63,207695,2,0,P|505:111|497:151,1,82.5000025177003
264,319,208028,6,0,L|181:316,1,82.5000025177003,8|0,0:0|0:0,0:0:0:0:
131,230,208278,1,0,0:0:0:0:
131,230,208361,2,0,L|76:232,3,41.2500012588501
176,146,208695,6,0,L|122:132,3,41.2500012588501,2|0|0|0,0:0|0:0|0:0|0:0,0:0:0:0:
239,221,209028,2,0,P|235:268|237:321,1,82.5000025177003
402,55,209361,6,0,P|329:39|224:35,1,165.000005035401,6|0,0:0|0:0,0:0:0:0:
75,229,209861,2,0,P|166:230|255:218,1,165.000005035401
480,108,210361,2,0,P|485:68|481:8,1,82.5000025177003
267,131,210695,6,0,P|263:208|271:316,1,165.000005035401,8|0,0:0|0:0,0:0:0:0:
41,384,211195,2,0,P|49:309|47:210,1,165.000005035401,8|8,0:0|0:0,0:0:0:0:
176,57,211695,2,0,P|180:98|198:142,1,82.5000025177003
478,296,212028,6,0,B|469:332|432:343|399:330|399:330|372:308|372:308|321:312|321:312|294:211|156:204|124:303,1,450,2|0,0:0|0:0,0:0:0:0:
229,372,213195,6,0,L|222:330,1,37.5
253,194,213361,6,0,P|402:212|285:78,1,404.999987640381,2|0,0:0|0:0,0:0:0:0:
334,153,214695,6,0,B|228:171|228:171|162:138,1,168.750006437302,2|0,0:0|0:0,0:0:0:0:
92,91,215361,1,0,0:0:0:0:
88,308,215695,1,0,0:0:0:0:
88,308,215861,1,0,0:0:0:0:
88,308,216028,6,0,L|173:300,1,56.2500021457673,2|0,0:0|0:0,0:0:0:0:
235,275,216361,2,0,L|294:269,1,56.2500021457673
104,207,216695,2,0,L|189:199,1,56.2500021457673
250,170,217028,2,0,L|309:164,1,56.2500021457673
460,94,217361,6,0,P|463:181|453:261,1,168.750006437302,2|0,0:0|0:0,0:0:0:0:
342,302,218028,2,0,P|338:276|334:239,2,56.2500021457673
235,275,218528,1,0,0:0:0:0:
132,289,218695,6,0,L|137:355,1,56.2500021457673,2|0,0:0|0:0,0:0:0:0:
151,214,219028,2,0,L|146:280,1,56.2500021457673
141,137,219361,2,0,L|146:203,1,56.2500021457673
157,61,219695,2,0,L|152:127,1,56.2500021457673
267,195,220028,6,0,B|324:217|324:217|467:193,1,168.750006437302,2|0,0:0|0:0,0:0:0:0:
343,95,220695,2,0,L|320:8,1,56.2500021457673
227,87,221028,2,0,L|149:87,1,56.2500021457673
0,191,221361,6,0,P|75:156|148:195,1,168.750006437302,2|0,0:0|0:0,0:0:0:0:
256,363,222028,2,0,P|257:282|270:177,1,168.750006437302
152,24,222695,6,0,P|154:108|143:207,1,168.750006437302,2|0,0:0|0:0,0:0:0:0:
270,110,223361,2,0,P|320:100|401:104,1,112.500004291535
341,288,224028,6,0,L|355:368,1,56.2500021457673,2|0,0:0|0:0,0:0:0:0:
254,241,224361,2,0,L|239:320,1,56.2500021457673
183,168,224695,2,0,L|142:238,1,56.2500021457673
140,77,225028,2,0,L|77:129,1,56.2500021457673
267,134,225361,6,0,P|321:136|403:131,1,112.500004291535,2|0,0:0|0:0,0:0:0:0:
303,41,225861,1,0,0:0:0:0:
209,60,226028,1,0,0:0:0:0:
152,298,226361,1,0,0:0:0:0:
0,132,226695,6,0,P|81:108|171:142,1,168.750006437302,2|0,0:0|0:0,0:0:0:0:
239,223,227361,2,0,P|315:227|446:215,1,168.750006437302
244,355,228028,6,0,P|204:316|126:296,1,112.500004291535,2|0,0:0|0:0,0:0:0:0:
58,274,228528,1,0,0:0:0:0:
22,184,228695,2,0,L|134:182,1,112.500004291535
407,221,229361,6,0,P|393:167|431:36,1,168.750006437302,2|0,0:0|0:0,0:0:0:0:
278,123,230028,2,0,P|178:123|101:116,1,168.750006437302
166,245,230695,5,2,0:0:0:0:
256,192,230861,12,0,233028,0:0:0:0:
144,234,233361,6,0,P|194:238|294:238,1,112.500004291535,2|0,0:0|0:0,0:0:0:0:
205,158,233861,1,0,0:0:0:0:
144,253,234028,2,0,P|193:248|292:230,1,112.500004291535
416,104,234695,5,0,0:0:0:0:
372,294,235195,1,0,0:0:0:0:
224,119,235695,1,0,0:0:0:0:
134,336,236028,6,0,P|129:283|119:222,1,112.500004291535,4|0,0:3|0:0,0:0:0:0:
47,161,236528,1,0,0:0:0:0:
21,253,236695,1,0,0:0:0:0:
293,289,237028,1,0,0:0:0:0:
293,289,237195,1,0,0:0:0:0:
293,289,237361,6,0,P|341:255|388:206,1,112.500004291535
101,124,238028,2,0,P|141:130|227:131,1,112.500004291535
70,341,238695,6,0,P|126:322|206:311,1,112.500004291535
306,368,239195,2,0,P|299:281|299:192,1,168.750006437302
512,36,240028,6,0,B|488:84|506:143|506:143|450:143|450:143|481:239|417:301,1,337.500012874604
186,196,241361,6,0,L|311:199,1,112.500004291535
62,45,242028,2,0,L|199:32,1,112.500004291535
81,141,242528,1,0,0:0:0:0:
81,141,242695,6,0,P|81:191|70:269,1,112.500004291535
158,327,243195,2,0,P|241:313|335:316,1,168.750006437302
175,178,244028,6,0,P|168:125|173:47,1,112.500004291535
401,245,244695,2,0,P|400:307|389:380,1,112.500004291535
73,252,245361,6,0,P|126:241|201:230,2,112.500004291535
219,375,246361,1,0,0:0:0:0:
322,196,246695,6,0,L|309:43,1,120
473,194,247361,1,0,0:0:0:0:
207,205,247695,1,0,0:0:0:0:
207,205,247861,1,0,0:0:0:0:
207,205,248028,6,0,L|63:194,1,120
359,337,248695,2,0,L|208:357,1,120
394,143,249361,6,0,P|455:123|520:149,1,120
359,239,249861,2,0,L|356:50,1,180
196,255,250695,6,0,P|135:293|29:246,1,180
115,192,251361,2,0,P|112:138|118:59,1,120
380,257,252028,6,0,L|296:250,1,67.4999979400635
247,156,252361,2,0,P|313:156|381:139,1,134.999995880127
116,72,253028,1,0,0:0:0:0:
185,355,253361,6,0,P|191:293|183:219,1,134.999995880127
76,178,253861,2,0,P|161:189|279:184,1,202.499993820191
256,192,254695,12,0,255861,0:0:0:0:
256,192,256028,12,0,257195,0:0:0:0:
182,107,257361,6,0,L|158:29,1,82.5000025177003,6|0,3:2|0:0,0:0:0:0:
311,189,257695,2,0,L|350:117,1,82.5000025177003
375,326,258028,2,0,P|298:346|169:335,1,165.000005035401
103,248,258528,1,0,0:0:0:0:
255,115,258695,6,0,L|246:211,1,82.5000025177003,8|0,0:0|0:0,0:0:0:0:
60,110,259028,2,0,L|50:25,1,82.5000025177003
255,115,259361,2,0,L|362:111,1,82.5000025177003
103,248,259695,2,0,L|20:245,1,82.5000025177003
250,32,260028,6,0,L|255:119,1,82.5000025177003,6|0,0:0|0:0,0:0:0:0:
155,271,260361,2,0,L|162:373,1,82.5000025177003
444,238,260695,2,0,P|347:220|269:261,1,165.000005035401
370,363,261195,1,0,0:0:0:0:
334,145,261361,5,8,0:0:0:0:
155,271,261528,1,0,0:0:0:0:
353,259,261695,1,0,0:0:0:0:
211,99,261861,1,0,0:0:0:0:
78,224,262028,2,0,L|66:328,1,82.5000025177003,8|0,0:0|0:0,0:0:0:0:
294,137,262361,2,0,L|284:7,1,82.5000025177003
203,323,262695,6,0,P|275:352|364:316,1,165.000005035401,6|0,0:0|0:0,0:0:0:0:
422,201,263195,1,0,0:0:0:0:
287,54,263361,2,0,B|265:113|265:113|286:244,1,165.000005035401
398,136,263861,1,0,0:0:0:0:
153,188,264028,6,0,B|137:286|137:286|167:369,1,165.000005035401,8|0,0:0|0:0,0:0:0:0:
276,269,264528,1,0,0:0:0:0:
227,67,264695,2,0,P|137:46|66:76,1,165.000005035401
153,188,265195,1,0,0:0:0:0:
365,125,265361,6,0,P|369:78|364:16,1,82.5000025177003,6|0,0:0|0:0,0:0:0:0:
153,188,265695,2,0,P|151:230|153:271,1,82.5000025177003
417,327,266028,2,0,P|436:248|452:145,1,165.000005035401
395,2,266528,1,0,0:0:0:0:
408,165,266695,5,8,0:0:0:0:
271,187,266861,1,0,0:0:0:0:
400,83,267028,1,0,0:0:0:0:
416,247,267195,1,0,0:0:0:0:
308,77,267361,5,8,0:0:0:0:
480,116,267528,1,0,0:0:0:0:
299,277,267695,1,0,0:0:0:0:
365,125,267861,1,0,0:0:0:0:
448,348,268028,6,0,B|391:376|391:376|277:356,1,165.000005035401,6|0,0:0|0:0,0:0:0:0:
258,196,268528,1,0,0:0:0:0:
400,83,268695,2,0,B|428:140|428:140|408:254,1,165.000005035401
219,319,269195,1,0,0:0:0:0:
98,176,269361,6,0,L|129:53,1,82.5000025177003,8|0,0:0|0:0,0:0:0:0:
302,38,269695,2,0,L|281:118,1,82.5000025177003
219,319,270028,1,0,0:0:0:0:
368,248,270195,1,0,0:0:0:0:
165,192,270361,1,0,0:0:0:0:
145,356,270528,1,0,0:0:0:0:
383,330,270695,6,0,P|395:276|404:166,1,165.000005035401,6|0,0:0|0:0,0:0:0:0:
371,4,271195,1,0,0:0:0:0:
250,217,271361,2,0,P|170:224|69:210,1,165.000005035401
246,83,271861,1,0,0:0:0:0:
219,318,272028,5,8,0:0:0:0:
178,153,272195,1,0,0:0:0:0:
389,161,272361,1,0,0:0:0:0:
250,217,272528,1,0,0:0:0:0:
337,46,272695,5,8,0:0:0:0:
463,131,272861,1,0,0:0:0:0:
273,130,273028,1,0,0:0:0:0:
436,44,273195,1,0,0:0:0:0:
407,242,273361,6,0,P|329:248|243:212,1,165.000005035401,6|0,0:0|0:0,0:0:0:0:
153,82,273861,1,0,0:0:0:0:
93,303,274028,1,0,0:0:0:0:
93,303,274361,2,0,L|191:295,1,82.5000025177003
408,173,274695,6,0,P|422:110|390:-52,1,165.000005035401,8|0,0:0|0:0,0:0:0:0:
96,140,275361,2,0,P|82:237|98:318,1,165.000005035401
258,339,275861,1,0,0:0:0:0:
404,255,276028,6,0,L|408:170,1,82.5000025177003,6|0,0:0|0:0,0:0:0:0:
247,156,276361,2,0,L|228:74,1,82.5000025177003
166,276,276695,2,0,B|243:319|319:277|319:277|246:349,1,247.500007553101
46,265,277361,5,8,0:0:0:0:
172,188,277528,1,0,0:0:0:0:
20,85,277695,1,0,0:0:0:0:
280,27,277861,5,8,0:0:0:0:
142,73,278028,1,0,0:0:0:0:
292,221,278195,1,0,0:0:0:0:
336,79,278361,5,8,0:0:0:0:
159,245,278528,2,0,L|220:270,1,41.2500012588501
362,312,278695,6,0,P|376:241|369:155,1,150,10|0,0:3|0:0,0:0:0:0:
295,61,279195,1,0,0:0:0:0:
210,156,279362,2,0,L|50:146,1,150
362,312,280029,2,0,L|511:296,1,150
511,162,280528,1,0,0:0:0:0:
402,81,280695,2,0,P|392:166|393:235,1,150
113,321,281362,5,2,0:0:0:0:
129,194,281529,2,0,P|182:164|294:181,1,150
228,356,282028,2,0,L|217:259,1,75
356,213,282362,1,0,0:0:0:0:
356,213,282695,2,0,B|377:122|377:122|354:50,1,150,2|0,0:0|0:0,0:0:0:0:
24,196,283361,2,0,P|95:227|182:180,1,150
512,44,284029,6,0,L|476:211,1,150,2|0,0:0|0:0,0:0:0:0:
359,228,284528,1,0,0:0:0:0:
278,128,284695,2,0,B|266:82|265:24|265:24|233:70,1,150
339,347,285362,2,0,P|370:337|420:307,2,75
173,57,286029,1,0,0:0:0:0:
299,145,286195,1,0,0:0:0:0:
157,163,286362,1,0,0:0:0:0:
262,45,286528,1,0,0:0:0:0:
230,237,286695,6,0,P|141:238|75:226,1,150,2|0,0:0|0:0,0:0:0:0:
257,342,287195,2,0,P|325:336|413:346,1,150
294,213,287695,1,0,0:0:0:0:
320,384,287862,1,0,0:0:0:0:
452,273,288029,2,0,B|452:104,1,150,2|0,0:0|0:0,0:0:0:0:
341,58,288529,1,0,0:0:0:0:
255,152,288695,2,0,L|275:232,2,75
255,152,289362,6,0,P|197:159|99:147,1,150,2|0,0:0|0:0,0:0:0:0:
222,28,289862,1,0,0:0:0:0:
290,145,290028,2,0,L|286:235,1,75
154,324,290361,2,0,L|157:234,1,75
366,124,290696,1,0,0:0:0:0:
286,219,290861,1,0,0:0:0:0:
434,307,291029,1,0,0:0:0:0:
417,181,291195,1,0,0:0:0:0:
256,295,291362,2,0,L|256:381,2,75
140,347,291861,1,0,0:0:0:0:
346,306,292029,6,0,P|391:263|415:156,1,150,2|0,0:0|0:0,0:0:0:0:
342,78,292528,1,0,0:0:0:0:
214,74,292695,2,0,L|201:147,2,75
9,225,293361,1,2,0:0:0:0:
99,314,293528,2,0,P|182:345|243:313,1,150
201,147,294029,2,0,P|188:176|177:218,1,75
365,362,294362,2,0,P|367:329|362:282,1,75
341,122,294695,6,0,B|283:92|229:123|229:123|203:100|203:100|107:115,1,225,2|0,0:0|0:0,0:0:0:0:
102,117,295695,1,0,0:0:0:0:
102,117,296361,2,0,L|82:215,1,75
215,199,296695,2,0,L|229:297,1,75
349,239,297028,2,0,L|396:326,1,75
441,148,297361,5,2,0:0:0:0:
340,68,297528,2,0,P|267:52|199:89,1,150
116,178,298028,2,0,L|45:146,1,75
162,297,298361,2,0,L|48:309,1,75
263,374,298695,2,0,B|316:332|376:360|376:360|371:299|371:299|329:277,1,225,2|0,0:0|0:0,0:0:0:0:
213,235,299361,1,0,0:0:0:0:
213,235,299695,1,0,0:0:0:0:
323,32,300028,5,2,0:0:0:0:
322,196,300361,1,0,0:0:0:0:
211,79,300695,1,0,0:0:0:0:
168,186,301028,1,0,0:0:0:0:
167,185,301361,2,0,L|56:176,1,112.500004291535
168,336,302028,2,0,L|288:320,1,112.500004291535
512,176,302695,5,2,0:0:0:0:
400,320,303028,1,0,0:0:0:0:
384,152,303361,1,0,0:0:0:0:
272,216,303695,1,0,0:0:0:0:
272,216,304028,2,0,L|288:80,1,112.500004291535
112,168,304695,2,0,L|126:294,1,112.500004291535
256,192,305361,12,0,313361,0:0:0:0:
