osu file format v5

[General]
AudioFilename: Seisen Spectale.mp3
AudioLeadIn: 0
PreviewTime: -1
Countdown: 0
SampleSet: Soft
StackLeniency: 0.7
Mode: 0
LetterboxInBreaks: 1

[Editor]
Bookmarks: 27791,112497
DistanceSpacing: 0.899999976158142
BeatDivisor: 4
GridSize: 16

[Metadata]
Title:Seisen Spectale
Artist:Ceui
Creator:kioukiou
Version:Normal
Source:Valkyrie Complex
Tags:Valkyrie Complex

[Difficulty]
HPDrainRate:2
CircleSize:4
OverallDifficulty:5
SliderMultiplier:1.4
SliderTickRate:1

[Events]
//Background and Video events
0,0,"01.jpg"
//Break Periods
2,100344,111297
//Storyboard Layer 0 (Background)
//Storyboard Layer 1 (Fail)
//Storyboard Layer 2 (Pass)
//Storyboard Layer 3 (Foreground)
//Storyboard Sound Samples
//Background Colour Transformations
3,100,163,162,255

[TimingPoints]
537,392.156862745098,4,2,1,75,1,0
27203,-100,4,2,1,80,0,0
67595,-100,4,2,1,90,0,0
111909,-100,4,2,1,80,0,0
152301,-100,4,2,1,90,0,0

[Colours]
Combo1 : 249,149,0
Combo2 : 128,255,255
Combo3 : 255,255,255
Combo4 : 0,145,72

[HitObjects]
88,48,27791,1,0
48,96,27987,1,0
88,144,28184,1,0
128,96,28380,2,0,B|288:96,2,140
128,224,29556,2,0,B|72:168,2,70
192,224,30144,2,0,B|344:224,1,140,2|0
392,224,30733,5,0
392,224,30929,2,0,B|392:144,2,70,0|4|0
392,288,31517,2,0,B|240:288,2,140,0|0|0
392,160,32693,5,0
280,96,33086,1,0
280,96,33282,1,2
168,160,33674,1,2
168,160,33870,1,0
56,224,34262,6,0,B|88:296|184:304,2,140
55,160,35242,2,0,B|61:84|133:52,2,140,2|0|2
176,192,36419,1,2
304,192,36811,6,0,B|240:256,2,70,2|0|0
352,152,37399,2,0,B|424:112|496:160,2,140
352,216,38380,2,0,B|280:256|208:208,2,140
480,216,39556,5,0
480,216,39752,1,0
480,216,39948,2,0,B|480:312|384:312,1,140
336,312,40537,5,4
336,184,40929,1,0
208,184,41321,1,0
208,56,41713,1,0
144,56,41909,2,0,B|64:56,2,70
144,120,42497,2,0,B|144:264,1,140,2|0
200,288,43086,6,0,B|200:360,2,70
256,264,43674,2,0,B|256:120,2,140,2|0|0
312,296,44654,1,0
368,272,44850,1,0
424,304,45046,2,0,B|472:240|424:168,1,140,2|0
360,176,45635,2,0,B|304:112|360:40,1,140,2|0
224,48,46419,5,0
224,48,46811,2,0,B|144:40|96:104|96:176|128:232|208:256|272:232|304:184|296:120,1,420,4|0
408,72,48380,6,0,B|488:32,2,70
408,136,48968,1,2
320,224,49360,1,2
224,136,49752,2,0,B|176:120|120:136|88:208|120:280|176:296|224:280,2,280,2|0|0
320,224,51713,5,0
320,224,51909,1,0
320,224,52105,2,0,B|416:224,2,70
256,224,52693,2,0,B|104:224,1,140,4|8
24,136,53478,5,0
112,48,53870,1,0
112,48,54066,2,0,B|184:48,2,70,0|2|2
312,192,55242,5,2
312,192,55438,1,0
200,136,55831,1,0
88,192,56223,1,0
200,248,56615,1,0
200,248,56811,1,2
312,192,57203,2,0,B|464:192,2,140,0|2|0
248,192,58184,2,0,B|104:192,2,140,0|0|2
336,104,59360,6,0,B|336:32,2,70,0|0|0
336,168,59948,2,0,B|336:328,2,140,0|0|4
208,168,61125,1,2
208,168,61321,1,2
208,296,61713,1,2
208,296,61909,1,2
320,232,62301,5,0
320,232,62497,2,0,B|392:192|464:240,2,140
256,232,63478,2,0,B|184:272|112:224,2,140
288,176,64458,2,0,B|288:88,2,70
256,192,65046,12,0,67203
256,128,67987,6,0,B|256:16,2,105
256,192,68772,1,4
128,192,69164,1,2
184,304,69556,1,0
312,304,69948,1,2
376,192,70340,2,0,B|376:280,2,70,0|0|2
312,80,71125,6,0,B|392:32|464:64,2,140,0|2|8
184,80,72301,2,0,B|96:80,2,70,2|0|0
184,208,73086,1,2
312,208,73478,1,0
248,312,73870,2,0,B|248:384,2,70,2|0|0
248,184,74654,5,2
136,224,75046,2,0,B|96:168|144:72|248:32|352:80|392:168|344:248,1,420,4|2
360,344,76615,1,0
360,344,76811,1,0
360,344,77007,1,2
232,344,77399,6,0,B|152:384|88:336,1,140,0|2
64,288,77987,1,0
96,232,78184,2,0,B|176:192|240:240,2,140,0|2|0
96,168,79164,1,0
96,168,79360,2,0,B|96:24,2,140,2|0|2
224,168,80537,5,0
312,72,80929,1,2
280,208,81321,1,8
368,112,81713,1,2
480,168,82105,2,0,B|480:88,2,70,0|0|2
400,264,82889,2,0,B|328:312|256:256,2,140,0|2|0
400,136,84066,5,2
272,136,84458,2,0,B|200:104|128:144,1,140,0|2
96,184,85046,1,0
136,232,85242,2,0,B|208:264|280:224,2,140,0|2|0
136,104,86419,5,2
136,104,86615,1,0
200,104,86811,1,0
200,104,87007,1,0
264,104,87203,2,0,B|424:104,2,140,2|8|2
264,232,88380,6,0,B|96:232,2,140,0|2|0
392,232,89556,1,2
328,120,89948,2,0,B|328:48,2,70,0|0|2
328,248,90733,6,0,B|288:328|200:320,2,140,8|2|0
208,200,91909,1,2
88,152,92301,2,0,B|128:72|216:80,2,140,0|2|0
88,280,93478,5,2
88,280,93870,1,2
216,280,94262,1,2
216,280,94458,1,0
312,200,94850,1,0
312,200,95046,2,0,B|400:160|352:64,2,140,2|0|2
184,200,96223,1,2
72,136,96615,5,0
192,72,97007,2,0,B|312:40|408:128|408:248|320:352|168:320,1,490,4|8
256,192,98968,12,4,100144
336,88,112497,5,0
336,88,112693,2,0,B|408:48|496:96,2,140,4|0|0
336,152,113674,2,0,B|264:192|176:144,2,140,0|0|2
464,152,114850,1,2
392,256,115242,5,2
344,296,115438,1,0
296,256,115635,2,0,B|152:256,2,140
344,136,116811,1,0
344,136,117007,2,0,B|488:136,2,140
280,136,117987,5,2
280,136,118380,1,2
152,136,118772,6,0,B|96:80,2,70,0|4|0
216,136,119360,1,0
216,136,119556,2,0,B|216:304,2,140
344,136,120733,5,2
344,136,121125,1,2
344,264,121517,6,0,B|400:320,2,70
280,264,122105,2,0,B|128:264,1,140,4|0
120,200,122693,2,0,B|272:200,2,140,0|2|2
32,112,123870,1,0
120,24,124262,1,0
208,112,124654,1,0
336,112,125046,6,0,B|336:40,2,70,0|4|0
336,176,125635,1,0
336,176,125831,2,0,B|336:280|232:280,2,140
272,176,126811,1,0
160,120,127203,1,0
48,176,127595,1,0
160,240,127987,5,0
288,240,128380,2,0,B|368:264|456:232,1,140
424,176,128968,2,0,B|344:152|256:184,1,140
232,208,129556,1,0
232,336,129948,1,0
360,336,130340,1,0
368,208,130733,2,0,B|368:120,2,70,0|2|2
240,208,131517,6,0,B|175:215|174:283|251:331|330:286|348:214|313:125|242:108|178:123|130:163|109:196|133:321|187:336|266:326,1,560,4|0
360,304,133478,5,0
360,304,133674,1,0
360,176,134066,1,0
480,144,134458,2,0,B|432:72|264:72|224:152,2,280
480,272,136419,5,0
352,272,136811,2,0,B|264:272,2,70
416,272,137399,2,0,B|416:112,2,140,0|8|0
416,336,138380,1,2
288,336,138772,1,0
232,368,138968,1,0
176,336,139164,1,2
192,80,139948,5,2
192,80,140144,1,0
96,160,140537,1,0
192,240,140929,1,2
296,160,141321,1,0
296,160,141517,1,2
192,240,141909,2,0,B|192:384,2,140
192,176,142889,2,0,B|40:176,2,140
256,280,144066,5,0
128,280,144458,1,0
128,280,144654,2,0,B|64:208|144:136,2,140,0|0|4
240,216,145831,1,2
240,216,146027,1,2
368,216,146419,1,2
368,216,146615,1,2
304,104,147007,6,0,B|304:32,2,70
304,168,147595,2,0,B|304:320,2,140
176,168,148772,1,0
176,40,149164,1,2
176,40,149360,1,2
304,40,149752,1,2
304,40,149948,1,2
256,192,150144,12,0,151909
256,248,152693,6,0,B|256:368,2,105
256,184,153478,1,4
128,184,153870,1,2
200,80,154262,2,0,B|200:8,2,70,0|0|2
328,80,155046,2,0,B|392:48|480:88,1,140,0|2
392,184,155831,5,0
424,240,156027,1,0
392,296,156223,2,0,B|232:296,1,140,2|0
128,296,157007,1,2
256,232,157399,1,0
128,232,157791,1,2
200,128,158184,1,0
200,128,158576,2,0,B|200:48,2,70,2|0|0
192,256,159360,6,0,B|128:288|48:256,1,140,2|4
56,136,160144,1,2
56,136,160537,2,0,B|56:56,2,70,0|0|2
184,136,161321,2,0,B|328:136,1,140,0|2
360,192,161909,1,0
320,240,162105,2,0,B|152:240,2,140,0|2|0
448,248,163282,1,2
448,248,163478,1,0
448,120,163870,1,0
448,120,164066,1,2
320,120,164458,6,0,B|240:88|168:128,2,140,0|2|0
320,184,165438,1,0
319,248,165635,2,0,B|263:281|183:249,2,140,0|8|2
424,184,166811,2,0,B|496:184,2,70,0|0|2
296,184,167595,2,0,B|136:184,2,140,0|2|0
376,280,168772,5,2
320,304,168968,1,0
264,280,169164,2,0,B|216:208|280:136,1,140,0|2
328,136,169752,1,0
383,160,169948,2,0,B|436:103|388:31,1,140,0|2
328,56,170536,1,0
200,56,170929,1,0
200,56,171125,2,0,B|112:80|120:264|208:288,1,280,2|2
312,224,172301,6,0,B|392:248|456:128|360:40|280:96,2,280,10|0|0
208,152,174262,1,2
208,152,174654,1,0
208,152,175046,1,2
96,88,175438,6,0,B|16:64|-48:184|48:272|128:216,2,280,8|0|0
208,152,177399,1,2
208,152,177791,1,0
208,152,178184,1,2
336,152,178576,6,0,B|408:120|496:168,2,140,0|2|0
336,216,179556,1,0
336,280,179752,2,0,B|264:312|176:264,2,140,2|0|2
272,168,180929,5,0
272,168,181321,1,2
223,48,181713,2,0,B|96:20|8:124|8:244|104:332|224:300,1,490,4|8
256,192,183674,12,4,184850
